#TITLE:ALGORITHM;
#SUBTITLE:;
#ARTIST:SOUND HOLIC feat. Nana Takahashi;
#TITLETRANSLIT:;
#SUBTITLETRANSLIT:;
#ARTISTTRANSLIT:;
#GENRE:;
#CREDIT:;
#MENUCOLOR:;
#METERTYPE:DDR;
#BANNER:ALGORITHM_bn.png;
#BACKGROUND:ALGORITHM-bg.png;
#LYRICSPATH:;
#CDTITLE:XeniSys 87 Logo.png;
#MUSIC:ALGORITHM.ogg;
#OFFSET:-0.020;
#SAMPLESTART:67.846;
#SAMPLELENGTH:15.000;
#SELECTABLE:YES;
#LISTSORT:;
#DISPLAYBPM:130.000;
#BPMS:0.000=130.000,29.000=260.000,30.000=130.000,31.000=260.000,32.000=130.000,33.000=260.000,34.000=130.000,187.000=260.000,188.000=130.000,195.000=260.000,196.000=130.000;
#STOPS:29.000=0.058
,29.250=0.058
,29.500=0.057
,29.750=0.058
,31.000=0.057
,31.250=0.058
,31.500=0.057
,31.750=0.058
,33.000=0.057
,33.250=0.058
,33.500=0.057
,33.750=0.058
,187.000=0.057
,187.250=0.058
,187.500=0.057
,187.750=0.058
,195.000=0.057
,195.250=0.058
,195.500=0.057
,195.750=0.058
,218.000=0.231
,218.500=0.231
;
#BGCHANGES:;
#ATTACKS:;

//---------------dance-double - ----------------
#NOTES:
     dance-double:
     :
     Medium:
     7:
     0.450,0.495,0.275,0.053,0.000:
00000000
00000000
00000000
00000000
,
00000000
00000000
00000000
00000000
,
00000000
00000000
00000000
00000000
,
00000000
00000000
00000000
00000000
,
00000000
00000000
00000000
00000000
00000000
00000000
10000000
01000000
,
00100000
00110000
00000000
00000000
,
00000000
00000000
00000000
00000000
00000000
00000000
00001000
00000010
,
00000100
00000102
00001003
00001020
,
00000130
00000000
00001000
00010000
00011000
00000000
01100000
00000000
,
10000000
00010000
10000000
01000000
00010000
00001000
00010000
00100000
,
00010000
00001000
00000100
00000001
00000010
00000000
00000000
00000000
,
00000100
00001000
00000001
00000100
00001000
00010000
00001000
00000010
,
00001000
00010000
01000000
10000000
00010000
00000000
00000000
00000000
,
11000000
11000000
01100000
01100000
,
00100000
00001000
00010000
00001000
00000100
00000000
00001001
00000000
,
00000001
00000100
00000001
00000010
00001000
00010000
00100000
00010000
,
00001000
00010000
01000000
10000000
00010000
00000000
00000000
00000000
,
10000000
00100000
01000000
00010000
00100000
01000000
00010000
00001000
,
00000100
00000001
00000010
00000100
00001000
00000000
00000000
00000000
,
00000001
00000100
00000010
00001000
00000001
00000010
00001000
00010000
,
01000000
10000000
01000000
00100000
00010000
00000000
00000000
00000000
,
10000000
01000000
00010000
00001000
00010000
00100000
00010000
00001000
,
00000010
00000001
00000010
00000100
00001000
00000000
00000000
00000000
,
00000011
00000011
00001100
00001100
,
00000001
00000010
00001000
00000000
00010000
00100000
10000000
00000000
,
10100000
10100000
01010000
01010000
,
10000000
01000000
00010000
00001000
00010000
00001000
00000100
00000001
,
00000000
00000000
00000001
00000100
00001000
00000000
00010000
00001000
,
00010000
00000000
00100000
10000000
00010000
00000000
10000000
00010000
,
10000000
00000000
10000000
01000000
00010000
00000000
00001000
00010000
,
00001000
00000000
00000100
00000001
00001000
00000000
00000110
00000000
,
00002002
00000000
00000000
00000000
,
00003003
00000000
00000000
00000000
,
00000010
00000010
00000100
00000100
,
00000001
00000000
00000001
00000000
00001000
00000001
00001000
00000000
,
00000001
00000100
00000001
00000100
00001000
00010000
00001000
00010000
,
00100000
01000000
00100000
00000000
10010000
00000000
01100000
00000000
,
10000000
01000000
00010000
00000000
00001000
00010000
00001000
00000000
,
00000100
00000010
00001000
00000001
00000010
00000100
00001000
00000001
,
00000100
00000010
00001000
00000000
00000001
00000010
00001000
00000000
,
00010000
00001000
00010000
01000000
10000000
00100000
01000000
00010000
,
10000000
01000000
00010000
00000000
00001000
00010000
00001000
00000000
,
00000010
00000001
00000010
00000100
00001000
00000001
00000100
00000010
,
00001000
00000001
00000010
00000000
00001000
00010000
00001000
00000000
,
00010000
00100000
01000000
00000000
10010000
00000000
01100000
00000000
,
10000000
01000000
00010000
00001000
00000010
00000001
00001000
00000000
,
00000001
00000100
00001000
00010000
00100000
10000000
00010000
00000000
,
10000000
00100000
00010000
00001000
00000100
00000001
00001000
00000000
,
00000001
00000010
00001000
00010000
01000000
10000000
00010000
10000000
,
02000000
03100000
00020000
10030000
,
01100000
00000000
00000000
00000000
00010000
10000000
00010000
00000000
,
10000000
01000000
00010000
01000000
00100000
00001000
00010000
00001000
,
00000100
00000001
00001000
00000010
00000100
00001000
00000100
00000000
,
00000001
00000010
00001000
00000010
00000001
00000100
00001000
00010000
,
00100000
00010000
00001000
00010000
00011000
01100000
10000000
00100000
,
01000000
00010000
10000000
01000000
00100000
00010000
00001000
00000100
,
00000010
00000001
00001000
00000010
00000100
00000001
00000100
00000010
,
00000110
00000000
00001001
00000000
00000110
00000000
00000001
00000010
,
00001000
00010000
00100000
00010000
00001000
00011000
00000000
00000000
;

//---------------dance-double - ----------------
#NOTES:
     dance-double:
     :
     Hard:
     9:
     0.581,0.651,0.302,0.151,0.502:
00000000
00000000
00000000
00000000
,
00000000
00000000
00000000
00000000
,
00000000
00000000
00000000
00000000
,
00000000
00000000
00000000
00000000
,
00000000
00000000
00000000
00000000
00000000
00000000
10000000
01000000
,
00020000
00000000
00000000
00002000
00000000
00000000
00000000
00000000
00000000
00000000
00000000
00000000
00000000
00000000
00000000
00000000
,
00033000
00000000
00000000
00000000
00000000
00000000
00000001
00000100
,
00002000
00000000
00003000
00000000
00010000
00001000
00010000
00001000
00200000
00000000
00000000
00000000
01300000
00100000
01000000
00100000
,
00010000
00000000
20000000
00000000
30010000
01000000
00010000
01000000
00100000
10000000
00000000
10000000
00010000
00000000
10000000
01000000
,
10000000
00000000
01000000
00100000
00000000
00010000
00100000
00000000
00001000
00000000
00001000
00010000
00000000
00010000
00001000
00000000
,
00000100
00000000
00000010
00000100
00000000
00000001
00001000
00000000
00000200
00000000
00000000
00000000
00000300
00000000
00000000
00000000
,
00000001
00000000
00000010
00000100
00000000
00001000
00000100
00000000
00010000
00000000
00010000
00001000
00000000
00001000
00010000
00000000
,
00100000
00000000
10000000
00100000
00000000
01000000
00010000
00000000
20000000
00000000
00000000
00000000
30000000
00000000
00000000
00000000
,
11000000
01100000
00101000
00011000
,
00000100
00000010
00000100
00000010
00001000
00000001
00001000
00000000
00000011
00000000
00000011
00000000
00000100
00000000
00001000
00000001
,
00000010
00000000
00000100
00001000
00000000
00000001
00000100
00000000
00001000
00000000
00010000
00001000
00000000
00000100
00001000
00000000
,
00010000
00000000
00100000
10000000
00000000
00010000
00100000
00000000
02000000
00000000
00000000
00000000
03000000
00000000
00000000
00000000
,
10000000
00000000
00100000
01000000
00000000
00010000
00100000
00000000
01000000
00000000
00010000
00000000
00001000
00000000
00000100
00000000
,
00000010
00000000
00001000
00000001
00000000
00000010
00000100
00000000
00002000
00000000
00000000
00000000
00003000
00000000
00000000
00000000
,
00000001
00000000
00000010
00000100
00000000
00001000
00000001
00000000
00000100
00000000
00001000
00010000
00000000
00000010
00001000
00000000
,
00010000
00000000
01000000
00100000
00000000
10000000
00010000
00000000
00200000
00000000
00000000
00000000
00300000
00000000
00000000
00000000
,
01000000
00000000
10000000
01000000
00000000
00010000
01000000
00000000
00100000
00000000
00001000
00000000
00010000
00000000
00001000
00000000
,
00000100
00000000
00000010
00001000
00000000
00000001
00000100
00000000
00000020
00000000
00000000
00000000
00000030
00000000
00000000
00000000
,
00000101
00000000
00000000
00000000
00000110
00000000
00000000
00000000
00001001
00000000
00000000
00000100
00000010
00000000
00000001
00000000
,
00000011
00000000
00001100
00000000
00000110
00000000
00000000
00000000
00011000
00000000
00000000
01100000
00000000
00000000
10010000
00000000
,
01010000
00000000
00000000
00000000
01100000
00000000
00000000
00000000
10100000
00000000
00000000
10010000
00000000
00000000
00000000
00000000
,
10000000
01000000
00100000
00010000
01000000
00000000
00001000
00000000
00010000
00000100
00000010
00000000
00000001
00001000
00000100
00000000
,
00000000
00000000
00000000
00000000
00000010
00000000
00000100
00000000
00001000
00000000
00000000
00000001
00000000
00000000
00000100
00000000
,
00000010
00000000
00000000
00000100
00000000
00000000
00001000
00000000
00020000
00000000
00000000
00000000
00000000
00000000
00000000
00000000
,
00030000
00000000
00000000
00000000
00100000
00000000
10000000
00000000
00010000
00000000
00000000
00100000
00000000
00000000
01000000
00000000
,
10000000
00000000
00000000
01000000
00000000
00000000
00010000
00000000
00001000
00000000
00000000
00000000
00000010
00000000
00000000
00000000
,
00002002
00000000
00000000
00000000
,
00000000
00000000
00000000
00003003
,
00000100
00000100
00000100
00000100
,
00000010
00000000
00000010
00000000
00000010
00000100
00001001
00000000
,
00000001
00000100
00000010
00001000
00010000
01000000
00100000
10000000
,
01000000
00100000
00010000
00100000
00001000
00010000
00000100
00010000
00001000
00000000
00010000
00000000
00011000
00000000
00001000
00000000
,
00000100
00000000
00000001
00000010
00000000
00001000
00000010
00000000
00000100
00000000
00010000
00001000
00000000
00010000
00100000
00000000
,
10000000
01000000
00010000
00001000
00010000
00100000
00010000
00001000
,
00000100
00000000
00000001
00001000
00000000
00000100
00000010
00000000
00001000
00000000
00000010
00000100
00000000
00000010
00000001
00000000
,
00000100
00000000
00001000
00000000
00010000
00000000
00100000
00000000
10000000
00000000
01000000
00000000
00100000
00001000
00010000
00000000
,
00001000
00000000
00000100
00000010
00000000
00001000
00000001
00000000
00000010
00000000
00001000
00010000
00000000
01000000
00100000
00000000
,
00010000
10000000
01000000
00100000
00001000
00010000
01000000
10000000
,
01000000
00000000
00010000
00001000
00000000
00100000
00010000
00000000
00001000
00000000
00000100
00000010
00000000
00000001
00000100
00000000
,
00000001
00000000
00001000
00000000
00000100
00000000
00000010
00000000
00000001
00000000
00000100
00000010
00000100
00000000
00000000
00000000
,
00000001
00000000
00000100
00000000
00000010
00001000
00000010
00001000
00000000
00000001
00000010
00000000
00001000
00000000
00000000
00000000
,
00010000
00000000
00001000
00000000
01000000
00010000
01000000
00010000
00000000
10000000
00100000
00000000
02000000
00000000
00000000
00000000
,
03010000
00000000
10000000
00000000
01000000
00010000
01000000
00010000
00000000
00001000
00010000
00000000
00000100
00000000
00000000
00000000
,
00000010
00000001
00001000
00000001
00000100
00000000
00000010
00000100
00000000
00001000
00010000
00000000
00200000
00000000
00000000
00000000
,
10300000
00000000
00000000
00000000
01010000
00000000
00000000
00000000
01100000
00000000
00000000
10100000
00000000
00000000
10010000
00000000
,
01100000
00000000
00000000
00000000
00000000
00000000
00010000
00100000
01000000
00000000
10000000
00000000
00020000
00000000
00000000
00000000
,
10030000
00000000
01000000
00100000
00000000
00010000
00100000
00000000
00001000
00000000
00010000
00001000
00000000
00000100
00001000
00000000
,
00000100
00000000
00000001
00001000
00000000
00000010
00000100
00000000
00000001
00000000
00000010
00001000
00000000
00010000
00001000
00000000
,
00010000
00000000
00100000
10000000
00000000
00010000
01000000
00000000
00100000
00000000
10000000
01000000
00000000
00100000
00010000
00000000
,
00001000
00000000
00000100
00000010
00000000
00000001
00000100
00000000
00000110
00000000
00011000
00000000
10000000
00000000
01000000
00000000
,
10000000
01000000
00010000
00001000
00010000
00001000
00000010
00000001
,
00000010
00000000
00000001
00000000
00000100
00000000
00001000
00000000
00000100
00000000
00001000
00000000
00010000
00100000
01000000
00100000
,
10000000
00000000
00000000
00000000
00010000
10000000
00000000
01000000
00100000
00000000
00110000
00000000
00000000
00000000
00001000
00010000
,
00001000
00001010
00000010
00000110
00001001
00000110
00000000
00000000
;

//---------------dance-single - Copied from----------------
#NOTES:
     dance-single:
     Copied from:
     Challenge:
     11:
     0.884,0.887,1.000,0.417,0.795: // measure 1
0000
0000
0000
0000
,  // measure 2
0000
0000
0000
0000
,  // measure 3
0000
0000
0000
0000
,  // measure 4
0000
0000
0000
0000
,  // measure 5
0000
0000
0000
0000
0000
0000
0001
0010
,  // measure 6
0200
0000
0000
2000
0000
0000
0000
0000
0300
0000
0000
0000
3002
0000
0000
0000
,  // measure 7
0103
0000
0000
0010
0000
0000
0001
0000
0000
0010
0000
0000
1000
0000
0100
0000
,  // measure 8
0020
0000
0032
0000
0103
0100
0010
0010
2000
0000
3002
0000
0013
0010
0100
0100
,  // measure 9
2000
0000
3002
0000
0103
0100
0010
0010
1000
0100
0000
0010
0011
0000
0001
1000
,  // measure 10
1001
0000
0010
0010
0000
0100
0110
0000
1001
0000
1000
1000
0000
0100
0110
0000
,  // measure 11
1001
0000
0001
0001
0000
0100
0110
0000
1001
0000
1000
0100
0110
0000
0011
0000
,  // measure 12
1001
0000
0001
0001
0000
0100
0110
0000
1001
0000
1000
1000
0000
0100
0110
0000
,  // measure 13
0010
0001
1000
0010
0000
0010
1010
0000
1001
0000
0110
0000
1001
0000
0000
0000
,  // measure 14
1000
0010
1000
0100
0010
0001
0010
0100
1000
0001
1000
0010
0100
0001
0010
0100
,  // measure 15
1000
0000
0000
0000
0001
0000
0100
0000
0000
0000
0100
0000
0010
0000
0000
0000
0010
0000
1000
0000
0000
0000
1000
0000
0002
0000
0000
0000
0000
0000
0203
0000
0000
0000
0000
0000
2300
0000
0000
0000
0000
0000
3100
0000
0000
0010
0000
0000
,  // measure 16
1010
0000
1000
1100
0000
0001
0101
0000
0110
0000
0010
1010
0000
1000
1100
0000
,  // measure 17
0110
0000
0010
0011
0000
0001
0101
0000
0110
0000
0010
1000
0100
0000
0110
0000
,  // measure 18
0011
0000
0001
0101
0000
1000
1100
0000
1020
0000
0100
0000
1030
0000
1100
0000
,  // measure 19
1001
0000
0001
0011
0000
1000
1010
0000
1001
0000
1000
0010
0100
0000
0010
0000
,  // measure 20
1010
0000
1000
1001
0000
0011
0010
0000
1001
0000
0001
1001
0000
1010
0010
0000
,  // measure 21
1001
0000
1000
1010
0000
0110
0100
0000
0101
0000
0001
0010
0100
0000
1100
0000
,  // measure 22
1001
0000
0010
0011
0000
1001
1000
0000
1020
0000
0100
0030
0010
0000
1000
0000
,  // measure 23
1100
0000
0010
0011
0000
1001
0001
0000
2000
0000
3020
0000
0032
0000
0003
0000
,  // measure 24
1010
0000
0000
0000
1100
0000
0000
0000
0101
0000
0000
0011
0000
0000
0101
0000
,  // measure 25
1100
0000
1010
0000
1100
0000
0000
0000
0101
0000
0000
0011
0000
0000
1010
0000
,  // measure 26
1001
0000
0000
0000
0011
0000
0000
0000
0101
0000
0000
0011
0000
0000
0001
0000
,  // measure 27
1000
0001
1000
0100
0010
0001
1000
0001
0010
0100
1000
0001
1000
0100
0010
0001
1000
0001
0010
0100
1000
0100
0010
0001
,  // measure 28
0200
0000
0000
0000
0310
0000
1000
0000
0200
0000
0000
0010
0000
0000
1000
0000
,  // measure 29
0020
0000
0300
0032
0000
0000
0203
0000
2300
0000
0000
0000
3200
0000
0000
0000
,  // measure 30
0302
0000
0000
0000
0013
0000
0100
0000
2000
0000
0000
0010
0000
0000
0001
0000
,  // measure 31
0200
0000
3000
0002
0300
0000
0103
0000
2000
0000
0000
0000
3001
0000
0000
0000
,  // measure 32
0220
0000
0000
0000
0000
0000
0000
0330
,  // measure 33
0010
0000
0100
0000
0010
0100
1001
0000
,  // measure 34
1100
0000
0000
0000
1100
0000
0000
0000
0101
0000
0000
0000
0101
0010
0000
0010
,  // measure 35
1001
0000
0000
1100
0000
0000
1001
0010
0100
0110
0000
0000
,  // measure 36
1000
0010
1000
0100
0010
0001
0100
0001
0010
0100
1000
0010
0100
0001
0010
0100
,  // measure 37
1000
0100
0010
0001
1000
0001
0010
0100
2000
0000
3020
0000
0032
0000
0013
0000
,  // measure 38
0110
0000
0010
0010
1000
0000
0100
0010
0000
0001
0100
0000
0010
1000
0100
0000
,  // measure 39
0010
1000
0010
0000
0001
0000
0100
0010
0001
0010
0100
0000
0001
0010
0100
0000
,  // measure 40
1001
0000
0010
0010
0000
0100
0100
0000
0010
0000
1000
1000
0000
0001
0001
0000
,  // measure 41
0010
0100
1100
0000
0010
0100
0101
0000
0010
0100
1100
0000
0010
0100
0001
0000
,  // measure 42
1001
0000
1000
0010
0100
0000
0010
0010
0100
0010
1000
0000
1100
0000
0010
0000
,  // measure 43
0101
0000
0011
0001
0100
0000
1010
1000
0100
0000
0011
0001
0100
0010
0001
0010
,  // measure 44
1000
0100
0020
0000
0001
0000
0000
0000
1000
0000
0000
0000
0100
0000
0000
0030
,  // measure 45
0001
0100
0110
0000
1000
0100
0110
0000
0001
0100
0110
0000
1001
0000
1000
0000
,  // measure 46
0010
0010
0100
0100
0010
1000
0100
0002
0000
0103
1100
0000
1001
0000
0000
0000
,  // measure 47
0010
0010
0100
0100
0001
0010
1000
0020
0000
0031
0101
0000
0100
0110
0010
1010
,  // measure 48
1000
1000
0001
0001
0010
1000
0010
0002
0000
0103
0101
0000
1001
0000
0000
0000
,  // measure 49
0001
0001
0100
0100
0010
0001
0010
2000
0000
3100
0110
0000
0010
0001
0100
0010
,  // measure 50
0002
0000
0000
0000
0023
0000
0000
0000
2030
0000
0000
3200
0000
0000
0301
0000
,  // measure 51
2200
0000
0000
0000
0300
0000
3001
0100
1000
0000
0100
0000
0001
0000
0010
0000
,  // measure 52
0110
0000
0100
1100
0000
0100
0110
0000
1001
0000
0010
1010
0000
0010
0110
0000
,  // measure 53
1001
0000
0100
1100
0000
0100
0110
0000
1001
0000
0000
0000
0110
0000
0010
0000
,  // measure 54
1001
0000
1000
1100
0000
0101
0100
0000
1001
0000
0001
1001
0000
1010
0010
0000
,  // measure 55
1001
0000
0010
1010
0000
0110
0010
0000
1001
0000
0110
0000
1001
0000
1000
1000
,  // measure 56
0100
0100
0001
0000
1001
0000
0001
0001
0100
0100
1000
0000
1001
0000
1000
1000
,  // measure 57
0010
0010
0001
0000
1001
0000
0001
0001
0010
0010
1000
0010
0001
0000
0100
0000
,  // measure 58
0101
0000
0000
0000
1100
0000
0000
1010
0000
0000
1100
0000
0000
0000
1001
0000
,  // measure 59
0011
0000
1010
0000
1100
0000
0010
0001
0100
1000
2002
0000
3003
0000
0000
0000
;

//---------------dance-single - Copied from Copied f----------------
#NOTES:
     dance-single:
     Copied from Copied f:
     Hard:
     10:
     0.800,0.783,0.746,0.426,0.764:
0000
0000
0000
0000
,
0000
0000
0000
0000
,
0000
0000
0000
0000
,
0000
0000
0000
0000
,
0000
0000
0000
0000
0000
0000
0001
0010
,
0200
0000
0000
2000
0000
0000
0000
0000
0300
0000
0000
0000
3002
0000
0000
0000
,
0203
0000
0000
0320
0000
0000
2030
0000
0000
3200
0000
0000
0310
0000
0001
0000
,
2000
0000
3002
0000
0103
0100
0010
0010
2000
0000
3002
0000
0013
0010
0100
0100
,
2000
0000
3002
0000
0103
0100
0010
0010
1000
0100
0000
0010
0001
0000
1000
0001
,
1001
0000
0010
0100
0000
0010
0010
0000
1001
0000
1000
0001
0000
0100
0100
0000
,
1001
0000
0001
0100
0000
0100
0010
0000
1001
0000
1000
0100
0010
0000
0011
0000
,
1001
0000
0001
0001
0000
1000
0010
0000
1001
0000
1000
1000
0000
0001
0010
0000
,
0010
0001
1000
0010
0000
0010
1000
0000
1001
0000
0110
0000
1001
0000
0000
0000
,
1000
0010
1000
0100
0010
0001
0010
0100
1000
0001
1000
0010
0100
0001
0010
0100
,
1000
0000
0000
0000
0001
0000
0100
0000
0000
0000
0100
0000
0010
0000
0000
0000
0010
0000
1000
0000
0000
0000
1000
0000
0002
0000
0000
0000
0000
0000
0023
0000
0000
0000
0000
0000
0230
0000
0000
0000
0000
0000
0310
0000
0000
0001
0000
0000
,
1001
0000
1000
1000
0000
0010
0100
0000
0110
0000
0010
0010
0000
1000
0001
0000
,
0110
0000
0010
0010
0000
1000
0001
0000
0110
0000
1001
0000
0110
0000
0000
0000
,
1001
0000
0001
0100
0000
0100
0010
0000
1020
0000
0100
0000
1030
0000
0100
0000
,
0010
0000
0001
0001
0000
1000
0010
0000
1001
0000
0110
0000
1001
0000
0000
0000
,
1010
0000
1000
0100
0000
0010
0010
0000
1001
0000
0001
0100
0000
0010
0010
0000
,
1001
0000
1000
0010
0000
0100
0100
0000
0110
0000
1001
0000
0110
0000
0000
0000
,
1001
0000
0010
1000
0000
0010
0010
0000
1020
0000
0100
0030
0010
0000
1000
0000
,
1100
0000
0010
0001
0000
0001
0100
0000
0110
0000
1001
0000
0110
0000
0000
0000
,
1010
0000
0000
0000
1100
0000
0000
0000
0101
0000
0000
0011
0000
0000
0101
0000
,
1100
0000
1010
0000
1100
0000
0000
0000
0101
0000
0000
0011
0000
0000
1010
0000
,
1001
0000
0000
0000
0011
0000
0000
0000
0101
0000
0000
0011
0000
0000
0001
0000
,
1000
0000
0000
0010
0000
0000
0100
0000
0000
0001
0000
0000
0010
0000
0000
0100
0000
0000
1000
0000
0000
0001
0000
0000
1000
0000
0100
0000
0010
0000
0001
0000
1000
0000
0001
0000
0010
0000
0100
0000
1000
0000
0100
0000
0010
0000
0001
0000
,
0200
0000
0000
0000
0310
0000
1000
0000
0200
0000
0000
0010
0000
0000
1000
0000
,
0020
0000
0300
0032
0000
0000
0203
0000
2300
0000
0000
0000
3200
0000
0000
0000
,
0302
0000
0000
0000
0013
0000
0100
0000
2000
0000
0000
0010
0000
0000
0001
0000
,
0200
0000
3000
0002
0300
0000
0103
0000
2000
0000
0000
0000
3001
0000
0000
0000
,
0220
0000
0000
0000
0000
0000
0000
0330
,
0010
0000
0100
0000
0010
0100
1001
0000
,
1100
1100
0101
0101
,
1001
0000
0000
1100
0000
0000
1000
0001
1000
0010
0000
0000
,
1000
0010
1000
0100
0010
0001
0100
0001
0010
0100
1000
0010
0100
0001
0010
0100
,
1000
0100
0010
0001
1000
0001
0010
0100
2000
0000
3020
0000
0032
0000
0013
0000
,
0110
0000
0010
1000
0100
0000
0010
0001
0000
0010
0001
0000
0100
0000
0010
1000
,
0100
0000
0010
0001
0100
0000
0010
1000
0001
1000
0010
0000
0100
0000
0001
0010
,
0100
0000
1000
0001
0000
0100
0100
0000
0010
0000
1000
0001
0000
0010
0010
0000
,
0001
0100
0010
0000
1000
0100
0010
0000
0001
0100
0010
0000
1000
0100
0010
0000
,
1001
0000
0001
0100
0010
0000
0100
0010
1000
0010
0100
0000
0110
0000
0010
1000
,
0100
0000
0010
0001
0100
0000
0010
1000
0100
0000
0010
0001
0100
0001
0010
0100
,
1000
0010
0200
0000
0010
0000
0000
0000
1000
0000
0000
0000
0010
0000
0000
0300
,
0010
1000
0100
0000
0010
0001
0100
0000
0010
1000
0100
0000
0010
0000
0001
0000
,
0100
0010
0100
0100
0010
1000
0100
0020
0000
0031
0100
0000
0110
0000
0000
0000
,
0010
0100
0010
0010
1000
0100
0010
0002
0000
0003
1000
0001
0010
0010
0100
0100
,
0010
0001
0100
0100
0001
0010
0100
2000
0000
3001
1000
0000
1001
0000
0000
0000
,
1000
0010
0100
0100
0010
1000
0100
0020
0000
0031
1000
0000
0001
0010
0100
1000
,
0002
0000
0000
0000
0023
0000
0000
0000
0032
0000
0000
0203
0000
0000
0310
0000
,
2020
0000
0000
0000
0000
3030
1000
0100
0010
0000
0001
0000
0100
0000
0010
0000
,
0110
0000
0100
0010
0000
1000
1000
0000
1001
0000
0010
0100
0000
0001
0001
0000
,
1001
0000
0100
0100
0000
0001
1000
0000
1001
0000
0000
0000
0110
0000
1001
0000
,
0110
0000
1000
0001
0000
0010
0010
0000
1001
0000
0001
1000
0000
0010
0010
0000
,
1001
0000
0001
0001
0000
1000
0001
0000
1001
0000
0110
0000
1001
0000
1000
0010
,
0100
0001
1000
0000
1001
0000
0001
0100
0010
1000
0001
0000
1001
0000
1000
0100
,
0010
0001
1000
0000
1001
0000
0001
0010
0100
1000
0010
0100
0001
0010
0001
0000
,
0011
0000
0000
0000
0101
0000
0000
0011
0000
0000
0101
0000
0000
0000
1001
0000
,
0011
0000
1010
0000
0000
0000
1000
0001
0010
0200
2000
0000
3300
0000
0000
0000
;

//---------------dance-single - Copied from Copied f----------------
#NOTES:
     dance-single:
     Copied from Copied f:
     Medium:
     8:
     0.652,0.755,0.995,0.169,0.160:
0000
0000
0000
0000
,
0000
0000
0000
0000
,
0000
0000
0000
0000
,
0000
0000
0000
0000
,
0000
0000
0000
0000
0000
0000
1000
0100
,
0020
0000
0000
0002
0000
0000
0000
0000
0000
0000
0000
0000
0033
0000
0000
0000
,
0001
0000
0000
0100
0000
0000
0001
0000
0000
0010
0000
0000
0100
0000
1000
0000
,
0001
1000
0010
0010
1000
0001
0010
0010
,
0001
0000
1000
0000
0100
0000
0100
0000
1000
0001
0000
1000
0001
0000
1000
0000
,
0001
0010
0100
0100
1000
0010
0100
0100
,
0001
0010
0100
0100
1000
0001
1001
0000
,
0001
0100
0010
0010
1000
0100
0010
0010
,
0001
0100
0010
0010
1000
0001
1001
0000
,
1000
0010
1000
0100
0010
0001
0100
0001
,
0010
0000
0100
0000
1000
0001
1000
0001
0010
0000
0010
0000
0010
0000
0001
1000
,
0001
0100
0110
0110
0010
1000
1001
1001
,
0001
0010
0110
0110
0100
1000
1001
0000
,
0001
0100
0110
0110
0100
0001
1001
1001
,
1000
0010
0110
0110
0100
0001
1001
0000
,
1000
0010
0110
1010
1000
0100
1100
1001
,
0001
0010
0011
1001
1000
0010
1001
0000
,
0001
0010
0011
0101
0100
0001
0011
1001
,
1010
0010
1010
1000
0001
0010
0110
0000
,
0110
1001
0110
1001
,
0110
1001
0110
0000
0110
0000
1001
0110
,
1001
0000
0000
0000
1100
0000
0000
0000
0011
0000
0000
1010
0000
0000
1001
0000
,
1000
0010
1000
0010
0100
0001
0100
0001
0010
0100
1000
0100
0010
0001
1000
0010
,
0200
0000
0320
0000
,
2030
0000
0100
0000
0002
3000
0000
0000
,
0203
0000
0320
0000
,
2030
0000
0010
0000
0002
3000
0010
0000
,
2000
0003
0100
0000
0100
0000
3100
0010
,
0002
0000
0100
0000
0103
0010
1001
0000
,
1000
0010
1000
0100
0010
0001
0100
0001
,
0010
0100
1000
0010
0110
1001
0110
0000
,
2001
0000
0000
0001
0000
0000
0001
0000
0000
3001
0000
0000
0001
0000
0010
0000
,
0100
1000
0100
0000
1000
0000
0001
0000
0010
0001
0010
0000
0001
0000
0100
0000
,
0010
1000
1001
0001
0010
0100
1100
1000
,
1001
0001
0101
0100
0110
0010
1000
0100
,
0110
0010
0001
0100
0110
0010
1000
0100
,
0011
0001
1001
1000
1010
0010
0110
1001
,
0110
0010
1001
0010
1000
0100
1001
0010
,
0011
0001
1001
0010
1000
0100
0110
1001
,
0110
2002
0000
0000
0000
0000
0000
3003
,
1001
1000
1010
0010
0110
0100
0101
0000
,
0001
0000
0100
0000
0001
0010
0100
1000
0000
1000
0002
0000
0020
0000
0033
0000
,
0001
0000
1000
0000
0100
0010
0001
1000
0000
1000
0001
0000
0010
0000
0010
0000
,
0001
0000
0100
0000
0001
0010
0100
1000
0000
1000
0002
0000
0020
0000
0033
0000
,
0001
0000
1000
0000
0100
0010
0001
0100
0000
0100
0010
0000
1000
0000
0001
0000
,
1001
0000
0000
0000
1100
0000
0000
0000
0011
0000
0000
0110
0000
0000
1001
0000
,
0110
0000
0000
0000
0000
0000
0010
0100
0010
0000
1000
0000
0100
0000
0100
0000
,
0110
0001
0100
0010
0110
1000
0100
0010
,
0011
0001
0100
0010
1010
0000
1000
0100
,
0011
0001
0100
0010
1010
1000
0100
0010
,
0011
0001
1000
0010
0110
1001
1100
1100
,
1001
1001
0011
0011
1001
1001
1000
1100
,
0001
0101
1000
1010
0001
0011
1001
1001
,
0110
0000
0000
0000
0110
0000
0000
1001
0000
0000
1001
0000
0000
0000
0001
0000
,
0101
1001
0000
1000
1100
0011
0000
0000
;
