#TITLE:What I'm Made Of;
#SUBTITLE:Sonic Heroes Final Boss;
#ARTIST:Crush 40;
#TITLETRANSLIT:;
#SUBTITLETRANSLIT:;
#ARTISTTRANSLIT:;
#CREDIT:;
#BANNER:Sonic Heroes_bn.png;
#BACKGROUND:What I'm Made Of_bg.png;
#LYRICSPATH:;
#CDTITLE:CD_Title.png;
#MUSIC:Metal Overlord.mp3;
#OFFSET:-0.310;
#SAMPLESTART:122.020;
#SAMPLELENGTH:16.080;
#SELECTABLE:YES;
#BPMS:0.000=178.000;
#STOPS:;
#BGCHANGES:0.000=Sonic Heroes Final Boss - Metal Overlord (2_2).avi=1.000=1=1=0,
99999=-nosongbg-=1.000=0=0=0 // don't automatically add -songbackground-
;

//---------------dance-single - ----------------
#NOTES:
     dance-single:
     :
     Beginner:
     1:
     0.122,0.180,0.022,0.040,0.000: // measure 1
0000
0000
0000
0000
,  // measure 2
1000
0000
0000
0000
,  // measure 3
0001
0000
0000
0000
,  // measure 4
1000
0000
0000
0000
,  // measure 5
0001
0000
0000
0000
,  // measure 6
0100
0000
0000
0000
,  // measure 7
0010
0000
0000
0000
,  // measure 8
0100
0000
0000
0000
,  // measure 9
0020
0000
0000
0000
,  // measure 10
0030
0000
0000
0000
,  // measure 11
0100
0000
0000
0000
,  // measure 12
0100
0000
0000
0000
,  // measure 13
0010
0000
0000
0000
,  // measure 14
0010
0000
0000
0000
,  // measure 15
1000
0000
0000
0000
,  // measure 16
0001
0000
0000
0000
,  // measure 17
1000
0000
0000
0000
,  // measure 18
0001
0000
0000
0000
,  // measure 19
0100
0000
0000
0000
,  // measure 20
0100
0000
0000
0000
,  // measure 21
0010
0000
0000
0000
,  // measure 22
0010
0000
0000
0000
,  // measure 23
1000
0000
0000
0000
,  // measure 24
0001
0000
0000
0000
,  // measure 25
1000
0000
0000
0000
,  // measure 26
0001
0000
0000
0000
,  // measure 27
0100
0000
0000
0000
,  // measure 28
0100
0000
0000
0000
,  // measure 29
0010
0000
0000
0000
,  // measure 30
0000
0000
0000
0000
,  // measure 31
1000
0000
0000
0000
,  // measure 32
0001
0000
0000
0000
,  // measure 33
1000
0000
0000
0000
,  // measure 34
0000
0000
0000
0000
,  // measure 35
0001
0000
0000
0000
,  // measure 36
0000
0000
0000
0000
,  // measure 37
0100
0000
0100
0000
,  // measure 38
0100
0000
0000
0000
,  // measure 39
0010
0000
0000
0000
,  // measure 40
0010
0000
0000
0000
,  // measure 41
1000
0000
0000
0000
,  // measure 42
1000
0000
0000
0000
,  // measure 43
0001
0000
0000
0001
,  // measure 44
0000
0000
0001
0000
,  // measure 45
1000
0000
1000
0000
,  // measure 46
1000
0000
1000
0000
,  // measure 47
0010
0000
0000
0000
,  // measure 48
0010
0000
0000
0000
,  // measure 49
0100
0000
0000
0000
,  // measure 50
0100
0000
0000
0000
,  // measure 51
0010
0000
0000
0010
,  // measure 52
0000
0000
0010
0000
,  // measure 53
0100
0000
0100
0000
,  // measure 54
0100
0000
0100
0000
,  // measure 55
0200
0000
0000
0000
,  // measure 56
0000
0000
0000
0000
,  // measure 57
0320
0000
0000
0000
,  // measure 58
0030
0000
0000
0000
,  // measure 59
0000
0000
0000
0000
,  // measure 60
1000
0000
0000
0000
,  // measure 61
0010
0000
0000
0000
,  // measure 62
1000
0000
0000
0000
,  // measure 63
0010
0000
0000
0000
,  // measure 64
0100
0000
0000
0000
,  // measure 65
0001
0000
0000
0000
,  // measure 66
0100
0000
0000
0000
,  // measure 67
0001
0000
0000
0000
,  // measure 68
1000
0000
0000
0000
,  // measure 69
0010
0000
0000
0000
,  // measure 70
0100
0000
0000
0000
,  // measure 71
0001
0000
0000
0000
,  // measure 72
0010
0000
0000
0000
,  // measure 73
0100
0000
0000
0000
,  // measure 74
1000
0000
0000
0000
,  // measure 75
0010
0000
0000
0000
,  // measure 76
0100
0000
0000
0000
,  // measure 77
0001
0000
0000
0000
,  // measure 78
0001
0000
0000
0000
,  // measure 79
1000
0000
0000
0000
,  // measure 80
1000
0000
0000
0000
,  // measure 81
0001
0000
0000
0000
,  // measure 82
1001
0000
0000
0000
,  // measure 83
0000
0000
0000
0000
,  // measure 84
1001
0000
0000
0000
,  // measure 85
0000
0000
0000
0000
,  // measure 86
0100
0000
0100
0000
,  // measure 87
0100
0000
0100
0000
,  // measure 88
0010
0000
0000
0000
,  // measure 89
0100
0000
0000
0000
,  // measure 90
0010
0000
0000
0000
,  // measure 91
0100
0000
0000
0000
,  // measure 92
0001
0000
0000
0001
,  // measure 93
0000
0000
0001
0000
,  // measure 94
1000
0000
1000
0000
,  // measure 95
1000
0000
1000
0000
,  // measure 96
0001
0000
0000
0000
,  // measure 97
1000
0000
0000
0000
,  // measure 98
0001
0000
0000
0000
,  // measure 99
1000
0000
0000
0000
,  // measure 100
0010
0000
0000
0010
,  // measure 101
0000
0000
0010
0000
,  // measure 102
0100
0000
0100
0000
,  // measure 103
0100
0000
0100
0000
,  // measure 104
0200
0000
0000
0000
,  // measure 105
0000
0000
0000
0000
,  // measure 106
0320
0000
0000
0000
,  // measure 107
0030
0000
0000
0000
,  // measure 108
0110
0000
0000
0000
,  // measure 109
0010
0000
0000
0000
,  // measure 110
0100
0000
0100
0000
,  // measure 111
0100
0000
0000
0000
,  // measure 112
1001
0000
0000
0000
,  // measure 113
0001
0000
0000
0000
,  // measure 114
2000
0000
0000
0000
,  // measure 115
0000
0000
0000
0000
,  // measure 116
3002
0000
0000
0000
,  // measure 117
0000
0000
0000
0000
,  // measure 118
0003
0000
0000
0000
,  // measure 119
1000
0000
0000
0000
,  // measure 120
0100
0000
0000
0000
,  // measure 121
0010
0000
0000
0000
,  // measure 122
0001
0000
0000
0000
,  // measure 123
0100
0000
0000
0000
,  // measure 124
0010
0000
0000
0000
,  // measure 125
1000
0000
0000
0000
,  // measure 126
0001
0000
1000
0000
,  // measure 127
0001
0000
0000
0000
,  // measure 128
0010
0000
0000
0000
,  // measure 129
0100
0000
0000
0000
,  // measure 130
1000
0000
0000
0000
,  // measure 131
0010
0000
0000
0000
,  // measure 132
0100
0000
0000
0000
,  // measure 133
0001
0000
0000
0000
,  // measure 134
1000
0000
0000
1000
,  // measure 135
0000
0000
1000
0000
,  // measure 136
0001
0000
0001
0000
,  // measure 137
0100
0000
0100
0000
,  // measure 138
0100
0000
0000
0000
,  // measure 139
0010
0000
0010
0000
,  // measure 140
0010
0000
0000
0000
,  // measure 141
1000
0000
0000
0001
,  // measure 142
0000
0000
1000
0000
,  // measure 143
0010
0000
0100
0000
,  // measure 144
0010
0000
0100
0000
,  // measure 145
0001
0000
0000
0000
,  // measure 146
1000
0000
0000
0000
,  // measure 147
0010
0000
0000
0000
,  // measure 148
0100
0000
0000
0000
,  // measure 149
0001
0000
0000
1000
,  // measure 150
0000
0000
0001
0000
,  // measure 151
0100
0000
0010
0000
,  // measure 152
0100
0000
0010
0000
,  // measure 153
0200
0000
0000
0000
,  // measure 154
0000
0000
0000
0000
,  // measure 155
0320
0000
0000
0030
,  // measure 156
0010
0000
1000
0000
,  // measure 157
0001
0000
0000
0000
,  // measure 158
0100
0000
0001
0000
,  // measure 159
1000
0000
0000
0000
,  // measure 160
0010
0000
0000
0100
,  // measure 161
0000
0000
1001
0000
,  // measure 162
1000
0000
0100
0000
,  // measure 163
0010
0000
0001
0000
;

//---------------dance-single - Copied from----------------
#NOTES:
     dance-single:
     Copied from:
     Easy:
     5:
     0.462,0.540,0.302,0.696,0.000:
0000
0000
0000
0000
,
1000
0100
0010
0000
,
0001
0100
0010
0000
,
1000
0001
1000
0001
,
0010
0001
0100
0000
,
0001
0010
0100
0000
,
1000
0010
0100
0000
,
0001
1000
0001
1000
,
0020
0000
0000
0000
,
0030
0000
0000
0000
,
0010
0010
0100
0010
,
1000
0100
0010
0001
,
1000
1000
0001
1000
,
0010
0100
0001
0010
,
0100
0100
1000
0100
,
0010
0001
1000
0100
,
1000
1000
0001
1000
,
0010
0000
0110
1001
,
0110
0010
0100
0010
,
2000
3200
0320
0032
,
0103
0100
0010
0100
,
0002
0023
0230
2300
,
3010
0010
0100
0010
,
2000
3002
0023
0230
,
0310
0010
0100
0010
,
0001
0001
1000
0010
,
2000
0000
0000
0000
0000
0000
0000
3002
,
0000
0000
0000
0100
,
0203
0000
0000
0320
0000
0000
0000
0000
,
0000
0100
0000
0000
0100
0000
0100
0030
,
0010
0010
0100
0010
,
1000
0100
0001
0100
,
0010
0000
0000
0011
0000
0000
0000
0000
,
0002
0023
0230
2300
,
3010
0000
0000
2020
0000
0000
0000
0000
,
0000
0000
0000
0000
0000
0000
0000
3030
,
0000
1100
0000
0000
1001
0000
0000
0000
,
0011
0011
0101
0011
,
0001
0010
0100
1000
,
0020
0230
0302
2003
,
3100
0010
0001
0100
,
0020
0000
2030
0000
3002
1000
1003
0000
,
1200
0000
0000
0320
0000
0000
0032
0000
,
0000
0203
0000
0300
0110
0000
0000
0000
,
0020
0000
0230
0000
,
0302
0000
1003
0000
,
1000
1000
0100
0010
,
0002
0203
2300
3200
,
0301
0001
1000
0001
,
0020
0000
0230
0000
2300
0001
3001
0000
,
0201
0000
0000
0320
0000
0000
2030
0000
,
0000
3200
0000
0300
0110
0000
0000
0000
,
0020
0000
0032
0000
,
0203
0000
0320
0000
,
2030
0000
0000
0000
,
0000
0000
0000
0000
,
3001
0000
0000
0100
0000
0000
0000
0220
,
0000
0000
0000
0000
0000
0000
0000
0330
,
0000
0000
0000
0000
,
0001
0001
1000
0001
,
0100
0010
1000
0100
,
0010
0010
0100
0010
,
0001
0100
0010
1000
,
0001
0001
1000
0001
,
0100
0010
1000
0100
,
1000
1000
0001
1000
,
0010
0100
0110
1001
,
0110
0100
0010
0100
,
0020
2030
3200
0320
,
0031
0001
0100
0001
,
0020
0230
2300
3020
,
0130
0100
0001
0100
,
0002
0203
2300
3200
,
0310
0010
1000
0010
,
0200
0302
0023
0130
,
0110
1000
0001
0000
,
0011
0001
1000
0000
,
1010
1000
0200
0000
,
0300
0000
0000
0010
,
0011
0001
0100
0010
,
1010
1000
0100
0010
,
0110
0000
0000
0011
0000
0000
0000
0000
,
0002
0203
0320
2030
,
3100
0000
0000
2200
0000
0000
0000
0000
,
0000
0000
0000
3300
,
0000
1100
0000
0000
0011
0000
0000
0000
,
1100
1100
1010
1100
,
1000
0100
0010
0001
,
0200
0320
2030
3002
,
0013
0100
1000
0010
,
0200
0000
0302
0000
2003
0001
3001
0000
,
0021
0000
0000
0230
0000
0000
2300
0000
,
0000
3020
0000
0030
0110
0000
0000
0000
,
0200
0000
0320
0000
,
2030
0000
3001
0000
,
0001
0001
0010
0100
,
2000
3020
0032
0023
,
1030
1000
0001
1000
,
0200
0000
0320
0000
0032
1000
1003
0000
,
1020
0000
0000
0230
0000
0000
0302
0000
,
0000
0023
0000
0030
0110
0000
0000
0000
,
0200
0000
2300
0000
,
3020
0000
0230
0000
,
0302
0000
0000
0000
,
0000
0000
0000
0000
,
1003
0000
0000
0010
0000
0000
0000
0220
,
0000
0000
0000
0000
0000
0000
0000
0330
,
2002
0000
0000
3003
0001
0000
1000
0000
,
0110
0010
1000
0001
,
0110
0001
0110
1000
,
0220
0000
0000
0330
,
1001
0010
0100
0001
,
1001
1000
0010
0100
,
2002
0000
0000
0000
,
0000
0000
0000
0000
0000
0000
0000
3003
,
0220
0000
0000
0000
,
0000
0000
0000
0000
,
0330
0000
0000
0000
,
0001
0010
0100
1000
,
0010
0010
0100
0010
,
1000
0100
0010
0001
,
0100
0100
0010
0100
,
0001
1000
0100
0001
,
0100
0100
1000
0100
,
0010
0001
0100
1000
,
0100
0100
0001
0100
,
0010
1000
0100
0001
,
0100
1000
0010
0001
,
0010
0100
0001
0010
,
0100
1000
0010
0001
,
0010
0100
0010
1000
,
0100
0001
0100
0010
,
0001
0100
1000
0100
,
0001
0000
0000
0100
0000
0000
1000
0000
,
0000
0010
0000
0000
0110
0000
0000
0000
,
1010
1010
1100
1010
,
1000
0100
0010
0001
,
0200
0320
2030
3002
,
0013
0100
1000
0010
,
0200
0000
0302
0000
2003
0001
3001
0000
,
0201
0000
0000
0320
0000
0000
2030
0000
,
0000
3200
0000
0300
0110
0000
0000
0000
,
0020
0001
0230
1000
,
0302
0000
1000
0003
1001
0000
0000
0000
,
0001
0010
0100
1000
,
0020
0230
0302
2003
,
3010
1000
0100
0010
,
0002
0000
0203
0000
0320
1000
1030
0000
,
1200
0000
0000
0320
0000
0000
0032
0000
,
0000
0203
0000
0300
0110
0000
0000
0000
,
0020
1000
0230
0001
,
2300
3001
1001
0000
,
0220
0000
0000
0000
,
0000
0000
0000
0000
0000
0000
0000
0330
,
0110
0000
0000
1001
0000
0000
0110
0000
,
0010
1000
0100
0010
,
0012
0203
2300
3100
,
0010
1000
0100
0010
,
1200
2300
3020
0032
,
0013
1000
0100
0010
,
0011
0101
1001
0000
,
1020
0000
0032
0000
,
0203
0000
1300
0000
;

//---------------dance-single - Copied from Copied f----------------
#NOTES:
     dance-single:
     Copied from Copied f:
     Medium:
     6:
     0.473,0.649,0.443,0.452,0.000:
1000
0000
0000
0001
0000
0000
1000
0000
,
0001
0010
0100
2000
0000
0000
0000
3000
,
1000
0100
0010
0002
0000
0000
0000
0003
,
0100
0000
0000
0010
0000
0000
0100
0000
,
0110
0000
0000
1001
0000
0000
0110
0000
,
1000
0100
0010
0002
0000
0000
0000
0003
,
0001
0010
0100
2000
0000
0000
0000
3000
,
0010
0000
0000
0100
0000
0000
0010
0000
,
0220
0000
0000
0000
,
0330
0000
0000
0000
,
0110
0000
0001
0100
0010
0000
1000
0010
,
0000
0100
0000
0001
0000
0010
0000
0000
,
0110
0000
0100
1000
0000
0010
0200
0000
,
0000
0000
0000
0000
0300
0001
0100
0010
,
0000
0010
0000
1000
0000
0010
0000
0100
,
0000
0001
0000
0010
0000
0000
0010
0100
,
1000
0000
0010
0100
0000
0001
0000
1001
,
0000
0000
0110
1001
,
0110
0000
0010
1000
0100
0000
0100
0010
,
0000
0001
0000
0100
0000
0010
0000
0000
,
1001
0000
0001
1000
0000
0010
0200
0000
,
0000
0000
0300
0000
0000
0000
0010
1000
,
0000
0100
0000
0010
0000
0001
0000
0101
,
0000
0011
0000
1100
0000
1010
0000
0000
,
0100
0010
0000
1000
0000
0001
0000
1001
,
0000
0000
0000
0000
0000
0010
0100
0002
,
0000
0000
0000
0000
0000
0000
1000
2003
,
0000
0000
0000
3010
,
0110
0000
0100
0002
0000
0000
0000
0000
,
0003
0000
0000
0000
0000
1000
0001
1000
,
0000
0010
0000
0010
0000
0100
0000
0110
,
0000
0000
0001
1000
0000
0110
0000
0000
,
1001
0000
0010
0200
0000
0000
0000
0000
,
0010
0000
1000
0000
0010
0000
1000
0300
,
0010
0000
1000
0200
0000
0000
0000
0000
,
0010
0000
0001
0000
0010
0000
0001
0300
,
0000
1000
0000
0000
0001
0000
0000
0000
,
1010
1010
1100
1010
,
1001
0000
0001
0010
0001
0100
0000
0010
,
0000
1000
0200
0000
0000
0000
0300
0000
,
1000
0000
0010
0100
0001
0100
0000
0010
,
0000
1000
0002
0000
0000
0000
0003
0000
,
0201
0000
0000
2300
0000
0000
3200
0000
,
0000
0302
0000
0000
0013
0000
0000
0000
,
0210
1300
0210
0301
,
0210
1300
0110
0000
,
0000
0000
0001
0100
0010
0000
0010
1000
,
0000
1000
0200
0000
0000
0300
0000
0000
,
0000
0000
0001
1000
0100
1000
0000
0010
,
0000
0100
0002
0000
0000
0000
0003
0000
,
1020
0000
0000
0032
0000
0000
0023
0000
,
0000
2030
0000
0000
3100
0000
0000
0000
,
0201
1300
1200
0301
,
0201
1300
1200
0301
,
0220
0000
0000
0000
,
0000
0000
0000
0000
0000
0000
0000
0330
,
1001
0000
0000
0110
0000
0000
0000
2002
,
0000
0000
0000
0000
0000
0000
0000
3003
,
0001
1000
0001
1000
,
0010
0000
0100
0001
0010
0000
0010
0100
,
0000
1001
0000
0000
0000
0000
0000
1000
,
0001
0000
0001
0100
0000
0010
0000
0110
,
0000
0000
0000
0000
0000
0000
0001
1000
,
0000
1000
0000
0001
0000
0001
0000
0020
,
0000
0000
0130
0010
0000
0000
1000
0001
,
0000
0001
0000
1000
0000
0100
0000
1001
,
0000
0000
1001
0110
,
1001
0000
0001
1000
0001
0000
0100
0010
,
0000
0110
0000
0000
0000
0000
0000
0000
,
0010
0100
0000
0101
0000
1001
0000
1100
,
0000
0000
0000
0000
0000
0000
1000
0001
,
0000
0001
0000
1000
0000
1000
0000
0020
,
0000
0030
0100
0010
0000
0000
0010
0100
,
0000
0100
0000
0001
0000
1000
0000
1001
,
0000
0000
0000
0000
0000
1000
0100
2000
,
0000
0000
0000
0000
0000
0000
0001
3002
,
0000
0000
0000
0000
0000
0000
0100
0003
,
0101
0000
0001
2000
0000
0000
0000
0000
,
3000
0000
0000
0000
0000
0010
0100
0010
,
0000
0010
0000
0100
0000
0100
0000
0001
,
0000
0000
1000
0001
0000
0010
0000
0000
,
0110
0000
1000
0020
0000
0000
0000
0000
,
0100
0001
0100
0031
,
0010
0000
1000
0200
0000
0000
0000
0000
,
0010
1000
0010
1300
,
0000
0101
0000
0000
1001
0000
0000
0000
,
0101
0101
0011
0101
,
1001
0000
1000
0100
1000
0010
0000
0100
,
0000
0001
0020
0000
0000
0000
0030
0000
,
0001
0000
0100
0010
1000
0010
0000
0100
,
0000
0001
2000
0000
0000
0000
3000
0000
,
1020
0000
0000
0032
0000
0000
0023
0000
,
0000
2030
0000
0000
3100
0000
0000
0000
,
0120
0031
0120
1030
,
0120
0031
0110
0000
,
0000
0000
1000
0010
0100
0000
0100
0001
,
0000
0001
0020
0000
0000
0030
0000
0000
,
0000
0000
1000
0001
0010
0001
0000
0100
,
0000
0010
2000
0000
0000
0000
3000
0000
,
0201
0000
0000
2300
0000
0000
3200
0000
,
0000
0302
0000
0000
0013
0000
0000
0000
,
1020
0031
0021
1030
,
1020
0031
0021
1030
,
0220
0000
0000
0000
,
0000
0000
0000
0000
0000
0000
0000
0330
,
1001
0000
0000
0110
0000
0000
0000
2002
,
0000
0000
0000
0000
0000
0000
0000
3003
,
1000
0000
0000
0000
0001
0100
0000
0001
,
0000
0000
1000
0200
0000
0320
0000
0000
,
0031
0000
0101
0000
,
0220
0000
0000
0000
0000
0000
0000
0330
,
1001
0000
0000
0000
0001
1000
0000
0001
,
0000
0000
0100
0010
0000
1000
0000
0000
,
2002
0000
0000
0000
,
0000
0000
0000
0000
0000
0000
0000
3003
,
0000
0000
0000
0100
0000
0000
0010
0000
,
0000
1000
0000
0000
1000
0000
0000
0000
,
0001
0001
0001
0001
,
1000
0010
0100
0001
,
0100
0010
1000
0001
,
0010
0001
0100
0010
,
1000
0100
1000
0100
0000
0010
0001
0010
,
0001
0100
0010
1000
,
0001
0100
0010
1000
,
0001
0100
0010
1000
,
0001
0100
0001
1000
0100
1000
0001
0100
,
0001
0001
1000
0100
,
1000
1000
0010
0100
,
0001
0001
1000
0100
,
1000
0010
1000
0010
0000
0100
0001
0100
,
0001
0010
0001
0100
,
0010
1000
0100
1000
,
0001
0100
0001
1000
,
0001
0000
0000
0001
0000
0000
1000
0000
,
0000
1000
0000
0000
0110
0000
0000
0000
,
0011
0011
0101
0011
,
1001
0000
1000
0100
1000
0010
0000
0100
,
0000
0001
0020
0000
0000
0000
0030
0000
,
0001
0000
0100
0010
1000
0010
0000
0100
,
0000
0001
2000
0000
0000
0000
3000
0000
,
1020
0000
0000
0032
0000
0000
0023
0000
,
0000
2030
0000
0000
3100
0000
0000
0000
,
0120
0031
0120
1030
,
0120
0031
0110
0000
,
0000
0000
1000
0010
0100
0000
0100
0001
,
0000
0001
0020
0000
0000
0030
0000
0000
,
0000
0000
1000
0001
0010
0001
0000
0100
,
0000
0010
2000
0000
0000
0000
3000
0000
,
0201
0000
0000
2300
0000
0000
3200
0000
,
0000
0302
0000
0000
0013
0000
0000
0000
,
1020
0031
0021
1030
,
1020
0031
0021
1030
,
0220
0000
0000
0000
,
0000
0000
0000
0000
0000
0000
0000
0330
,
1001
0000
0000
0110
0000
0000
0010
0000
,
1001
0000
1000
0100
1000
0010
0000
0100
,
0000
0001
0020
0000
0130
1000
0100
1000
,
0010
0000
0100
0001
0100
0010
0000
1000
,
0000
0001
2000
0000
3010
1000
0010
1000
,
1020
0000
0000
0032
0000
0000
0023
0000
,
0000
2030
0000
0000
3100
0000
0000
0000
,
0120
1000
0002
1030
,
0203
0000
0001
0300
0110
0000
0000
0000
;

//---------------dance-single - Copied from Copied f----------------
#NOTES:
     dance-single:
     Copied from Copied f:
     Hard:
     8:
     0.633,0.649,0.510,0.288,0.000:
1000
0010
0100
0010
0000
0100
0001
0010
,
0001
1000
0100
0020
0000
0001
0031
0000
,
0001
0010
0100
2000
0000
0100
3100
0000
,
1000
0010
0100
0010
0000
0100
0001
0010
,
0001
0100
0010
2000
0000
0100
0100
3100
,
1000
0010
0100
0002
0000
0010
0013
0000
,
0001
0100
0010
2000
0000
0100
0100
3000
,
2000
0000
0000
3200
0000
0000
0320
0000
,
0031
0100
0000
0220
0000
0000
0000
0000
,
0330
0000
0000
0000
,
1001
0000
0001
0100
0001
0000
0010
0100
,
0000
1100
0000
1010
0000
1100
0000
0000
,
0101
0000
0001
0020
0000
1000
0230
0000
,
0000
0000
0300
0000
0000
0001
1000
0001
,
0000
0101
0000
1001
0000
1100
0000
1010
,
0000
1001
0000
0011
0000
0000
0001
1000
,
0100
0000
1000
0020
0000
0001
0000
0230
,
0000
0300
0110
1001
,
0110
0000
1000
0010
1000
0000
0100
0010
,
0000
0011
0000
0101
0000
0011
0000
0000
,
1010
0000
1000
0200
0000
0001
0320
0000
,
0000
0000
0030
0000
0000
1000
0001
1000
,
0000
1010
0000
1001
0000
0011
0000
0101
,
0000
1001
0000
1100
0000
0101
0000
0000
,
0001
2000
0000
0200
3000
0002
0300
0020
,
0003
0000
0030
0000
0000
1000
0001
2000
,
0000
3100
0010
0002
0000
0103
0010
0200
,
0000
0310
1000
0002
0000
0103
0010
0100
,
0010
1000
0010
0200
0000
0000
0000
0300
,
0000
0120
0000
0000
0130
0001
1000
0010
,
0000
0010
1000
0100
0000
0100
0010
0001
,
0000
0001
0100
0010
0000
0010
1010
0000
,
1000
0100
0010
0002
0000
0000
0000
0000
,
0010
0000
1000
0000
0010
0000
1000
0003
,
0001
0010
0100
2000
0000
0000
0000
0000
,
0001
0000
0010
0000
0001
0000
0010
3000
,
0000
1001
0000
0000
0110
0000
0000
0000
,
0011
0011
0101
0011
,
1001
0000
1000
0100
0010
0100
0010
0001
,
0000
0100
0010
0000
1000
0010
0100
0010
,
0000
0100
0001
0010
0001
1000
0100
0010
,
0000
0010
0100
0000
0100
1000
1001
0000
,
0001
0000
0001
0010
0000
0010
1000
0000
,
1000
0100
0000
0100
1001
0000
0000
0000
,
1000
0100
1000
0100
0010
0001
0010
0001
,
1000
0100
0010
0001
1001
0000
0000
0000
,
1001
0000
0001
0010
0100
0010
0100
1000
,
0000
0010
0100
0000
0001
0100
0010
0100
,
0000
0010
1000
0100
1000
0001
0010
0100
,
0000
0100
0010
0000
0010
0001
1001
0000
,
1000
0000
1000
0010
0000
0010
0001
0000
,
0001
0100
0000
0100
1001
0000
0000
0000
,
0001
0010
0001
0010
0100
1000
0100
1000
,
0001
0010
0100
1000
1001
0000
0000
0000
,
0220
0000
0000
0000
,
0000
0000
0000
0000
0000
0000
0000
0330
,
0100
0010
1000
0001
0000
0110
0000
2002
,
0000
0000
0000
0000
0000
0000
0000
0003
,
0010
0010
0010
0010
,
3001
0000
0001
0100
0001
0000
0010
0100
,
0000
1100
0000
1010
0000
1100
0000
0001
,
0100
0000
0001
0020
0000
2000
0000
0230
,
3000
0000
0000
0300
0000
0001
1000
0001
,
0000
0101
0000
1001
0000
1100
0000
1010
,
0000
0000
1000
1010
0000
0000
0001
0011
,
0000
0110
0000
1010
0000
0110
0000
0011
,
0000
0000
0110
1001
,
0110
0000
1000
0010
1000
0000
0100
0010
,
0000
0011
0000
0101
0000
0011
0000
0000
,
1000
0200
0000
0002
0000
0023
0300
2000
,
0030
0000
3000
0000
0000
0001
1000
0001
,
0000
1010
0000
1001
0000
0011
0000
0101
,
0000
0000
0001
1000
0000
0000
1000
0200
,
0000
0002
0300
0020
0003
2000
0030
0200
,
3000
0000
0300
0000
0000
0001
1000
0002
,
0000
0013
0100
2000
0000
3010
0100
0020
,
0000
0130
0001
2000
0000
3010
0100
0010
,
0100
0001
0100
0020
0000
0000
0000
0030
,
0000
0210
0000
0000
0310
1000
0001
0100
,
0000
0100
0001
0010
0000
0010
0100
1000
,
0000
1000
0010
0100
0000
0100
0101
0000
,
0001
0010
0100
2000
0000
0000
0000
0000
,
0100
0000
0001
0000
0100
0000
0001
3000
,
1000
0100
0010
0002
0000
0000
0000
0000
,
1000
0000
0100
0000
1000
0000
0100
0003
,
0000
1001
0000
0000
0110
0000
0000
0000
,
1100
1100
1010
1100
,
1001
0000
0001
0010
0100
0010
0100
1000
,
0000
0010
0100
0000
0001
0100
0010
0100
,
0000
0010
1000
0100
1000
0001
0010
0100
,
0000
0100
0010
0000
0010
0001
1001
0000
,
1000
0000
1000
0100
0000
0100
0001
0000
,
0001
0010
0000
0010
1001
0000
0000
0000
,
0001
0010
0001
0010
0100
1000
0100
1000
,
0001
0010
0100
1000
1001
0000
0000
0000
,
1001
0000
1000
0100
0010
0100
0010
0001
,
0000
0100
0010
0000
1000
0010
0100
0010
,
0000
0100
0001
0010
0001
1000
0100
0010
,
0000
0010
0100
0000
0100
1000
1001
0000
,
0001
0000
0001
0100
0000
0100
1000
0000
,
1000
0010
0000
0010
1001
0000
0000
0000
,
1000
0100
1000
0100
0010
0001
0010
0001
,
1000
0100
0010
0001
1001
0000
0000
0000
,
0220
0000
0000
0000
,
0000
0000
0000
0000
0000
0000
0000
0330
,
0010
0100
0001
1000
0000
0010
0100
0110
,
0000
1010
0000
1100
0000
1010
0010
0000
,
1001
0000
0001
0000
0100
0010
1000
0010
,
0000
0100
0001
0010
0000
0010
0100
0000
,
1000
0100
0010
0001
0100
0010
1000
0001
,
0100
0010
0100
0010
0000
0110
0000
1001
,
0001
0000
1000
0000
0010
0100
0001
0100
,
0000
0010
1000
0100
0000
0100
0010
0000
,
2002
0000
0000
0000
,
0000
0000
0000
0000
0000
0000
0000
3003
,
0001
0010
0100
0010
0000
0100
1000
0010
,
0000
1100
0000
0000
0101
0000
0000
0000
,
1100
1100
1010
1100
,
1000
0001
1000
0000
0001
0100
0001
0100
,
0010
1000
0100
0010
0001
0010
0001
0000
,
0100
0010
0100
0010
1000
0001
1000
0001
,
0010
0100
1000
0010
0000
0010
0100
0001
,
0010
0100
0010
0100
1000
0010
0100
0001
,
1000
0001
1000
0100
0000
0100
0010
0001
,
1000
0001
1000
0100
0000
0100
0010
0001
,
0100
0010
0100
0010
0100
0010
0100
0010
,
1000
0001
0010
0001
0000
1000
0010
1000
,
0001
0010
0100
0010
0000
0100
0010
0100
,
1000
0010
1000
0010
0100
0001
0100
0001
,
0010
0100
1000
0001
0000
0001
0100
0010
,
1000
0100
0001
0100
0000
0010
0001
0100
,
1000
0100
0000
0010
1000
0100
0001
0100
,
0010
0001
0100
1000
0100
0010
1000
0100
,
0010
0001
0001
0010
0100
0100
1000
0010
,
0010
0100
0000
0001
1000
0000
0000
0000
,
0011
0011
0101
0011
,
1001
0000
0001
0010
0100
0010
0100
1000
,
0000
0010
0100
0000
0001
0100
0010
0100
,
0000
0010
1000
0100
1000
0001
0010
0100
,
0000
0100
0010
0000
0010
0001
1001
0000
,
1000
0000
1000
0100
0000
0100
0001
0000
,
0001
0010
0000
0010
1001
0000
0000
0000
,
0001
0010
0001
0010
0100
1000
0100
1000
,
0001
0010
0100
1000
1001
0000
0000
0000
,
1001
0000
1000
0100
0010
0100
0010
0001
,
0000
0100
0010
0000
1000
0010
0100
0010
,
0000
0100
0001
0010
0001
1000
0100
0010
,
0000
0010
0100
0000
0100
1000
1001
0000
,
0001
0000
0001
0100
0000
0100
1000
0000
,
1000
0010
0000
0010
1001
0000
0000
0000
,
1000
0100
1000
0100
0010
0001
0010
0001
,
1000
0100
0010
0001
1001
0000
0000
0000
,
0220
0000
0000
0000
,
0000
0000
0000
0000
0000
0000
0000
0330
,
0010
0100
0001
1000
0000
0100
0010
0001
,
0100
0010
0100
0010
1000
0001
0000
0200
,
0000
1000
1300
0100
0002
0010
0013
0001
,
1000
0000
0010
0100
0010
0100
0000
0001
,
0000
0020
1000
1030
0020
0001
0031
1000
,
0001
0100
0001
1000
0100
1000
0001
0010
,
0001
1000
0010
1000
1001
0000
0000
0000
,
0021
0000
0002
0030
,
0200
0000
0003
0300
1100
0000
0000
0000
;
