#TITLE:Get Back Up! (Long Version);
#SUBTITLE:;
#ARTIST:NMR Runners;
#TITLETRANSLIT:;
#SUBTITLETRANSLIT:;
#ARTISTTRANSLIT:;
#CREDIT:;
#BANNER:Get Back Up!-bn.png;
#BACKGROUND:Get Back Up!-bg.png;
#LYRICSPATH:;
#CDTITLE:;
#MUSIC:Get Back Up!.mp3;
#OFFSET:-0.315;
#SAMPLESTART:103.200;
#SAMPLELENGTH:12.600;
#SELECTABLE:YES;
#BPMS:0.000=155.000;
#STOPS:;
#BGCHANGES:;

//---------------dance-single - ----------------
#NOTES:
     dance-single:
     :
     Challenge:
     9:
     0.661,0.735,0.522,0.263,0.256: // measure 1
0000
0000
0000
0000
,  // measure 2
0000
0000
0000
0000
,  // measure 3
0000
0000
0000
0000
,  // measure 4
0000
0000
0000
0000
,  // measure 5
1000
0010
0100
0000
0001
0010
0100
1100
,  // measure 6
0000
1010
0000
0101
0000
0011
0010
0001
,  // measure 7
0100
0010
1000
0000
1000
0100
0010
0011
,  // measure 8
0000
0101
0000
1010
0000
1100
0100
1000
,  // measure 9
0010
0100
0001
0000
0001
0010
0100
1100
,  // measure 10
0000
0110
0000
0101
0000
0110
0010
1000
,  // measure 11
0010
0100
0001
0000
1000
0100
0010
0011
,  // measure 12
0000
0110
0000
1010
0000
0110
0000
0000
,  // measure 13
0001
0100
0020
0030
0010
1000
0100
0020
,  // measure 14
0030
0010
0001
0100
1000
0100
0001
0000
,  // measure 15
1000
0100
0020
0030
0010
0001
0100
0020
,  // measure 16
0030
0010
1000
0100
0001
0100
1000
0000
,  // measure 17
0001
0100
0020
0030
0010
0100
0001
0020
,  // measure 18
0030
0010
0100
1000
0010
0001
0010
0000
,  // measure 19
0100
0010
2000
3000
0100
0010
0001
0200
,  // measure 20
0300
0100
0010
1000
0100
0001
0100
0000
,  // measure 21
0010
0001
0100
1000
0000
0100
0010
1000
,  // measure 22
0100
0000
0000
0100
0010
0000
0000
0010
0001
0000
0000
0001
1000
0000
0000
0000
,  // measure 23
1010
0000
0010
0000
0001
0000
0020
0000
0000
0030
0100
0000
0010
0000
1000
0000
,  // measure 24
0100
0100
0010
0001
0100
1000
0100
0000
,  // measure 25
0010
0000
1000
0000
0100
0000
0002
0000
0000
0003
0100
0000
1000
0000
0010
0000
,  // measure 26
0200
0000
0001
0000
0010
0000
1000
0300
,  // measure 27
0100
0001
0010
1000
0000
0010
0001
0100
,  // measure 28
0020
0000
0001
0130
,  // measure 29
0110
0000
0010
1000
0000
1000
0100
0010
,  // measure 30
0011
0000
0000
0001
1000
0000
0100
0000
0010
0000
0000
0001
0100
0000
0010
0000
,  // measure 31
1000
0000
0000
0100
0010
0000
0000
0010
0001
0000
0000
0001
0100
0000
0010
0000
,  // measure 32
1020
1000
0100
0031
,  // measure 33
0110
0000
0100
0001
0000
0001
0010
0100
,  // measure 34
1100
0000
0000
1000
0010
0000
0100
0000
0001
0000
0000
0010
0001
0000
0100
0000
,  // measure 35
0010
1000
0000
0000
0100
0000
0010
0001
0000
0000
0100
0000
0010
0000
1000
0000
,  // measure 36
2002
0000
0000
3000
0010
0000
1003
0000
,  // measure 37
1001
0000
0001
0100
0000
0100
0010
1000
,  // measure 38
1100
0000
0000
1000
0001
0000
0010
0000
0001
0000
0000
0100
0010
0000
1000
0000
,  // measure 39
0010
0000
0000
0100
0001
0000
0000
0001
0010
0000
0000
0010
0100
0000
1000
0000
,  // measure 40
1200
0001
0010
1300
,  // measure 41
0101
0000
0001
0100
0000
0010
1000
0100
,  // measure 42
0011
0000
0000
0001
0100
0000
0010
0000
1000
0000
0000
0100
1000
0000
0010
0000
,  // measure 43
0100
0001
0000
0000
0010
0000
0100
1000
0000
0000
0010
0000
0100
0000
0001
0000
,  // measure 44
1001
1000
0010
0000
0001
0010
0100
1100
,  // measure 45
0000
0110
0000
0011
0000
0101
0001
0100
,  // measure 46
0010
1000
0001
0000
1000
0100
0010
0011
,  // measure 47
0000
0101
0000
1010
0000
1100
1000
0010
,  // measure 48
0100
0001
1000
0000
0001
0010
0100
1100
,  // measure 49
0000
1010
0000
0101
0000
0011
0001
0100
,  // measure 50
1000
0100
0010
0000
1000
0100
0010
0011
,  // measure 51
0000
0202
0000
0000
0000
0303
0001
0000
,  // measure 52
1000
0010
0200
0300
0100
0001
0010
0200
,  // measure 53
0300
0100
1000
0010
0001
0010
1000
0000
,  // measure 54
0001
0010
0200
0300
0100
1000
0010
0200
,  // measure 55
0300
0100
0001
0010
1000
0010
0001
0000
,  // measure 56
1000
0010
0200
0300
0100
0010
1000
0200
,  // measure 57
0300
0100
0010
0001
0100
1000
0100
0000
,  // measure 58
0010
0100
0002
0003
0010
0100
1000
0020
,  // measure 59
0030
0010
0100
0001
0010
1000
0010
0000
,  // measure 60
0100
1000
0010
0001
0000
0010
0100
0001
,  // measure 61
0010
0000
0000
0010
0100
0000
0000
0100
1000
0000
0000
1000
0001
0000
0000
0000
,  // measure 62
0101
0000
0100
0000
1000
0000
0200
0000
0000
0300
0010
0000
0100
0000
0001
0000
,  // measure 63
0010
0010
0100
1000
0010
0001
0010
0000
,  // measure 64
0100
0000
0001
0000
0010
0000
2000
0000
0000
3000
0010
0000
0001
0000
0100
0000
,  // measure 65
0020
0000
1000
0000
0100
0000
0001
0030
,  // measure 66
0010
1000
0100
0001
0000
0100
1000
0010
,  // measure 67
0200
0000
1000
0310
,  // measure 68
0110
0000
0100
0001
0000
0001
0010
0100
,  // measure 69
1100
0000
0000
1000
0001
0000
0010
0000
0100
0000
0000
1000
0010
0000
0100
0000
,  // measure 70
0001
0000
0000
0010
0100
0000
0000
0100
1000
0000
0000
1000
0010
0000
0100
0000
,  // measure 71
0201
0001
0010
1300
,  // measure 72
0110
0000
0010
1000
0000
1000
0100
0010
,  // measure 73
0011
0000
0000
0001
0100
0000
0010
0000
1000
0000
0000
0100
1000
0000
0010
0000
,  // measure 74
0100
0001
0000
0000
0010
0000
0100
1000
0000
0000
0010
0000
0100
0000
0001
0000
,  // measure 75
2002
0000
0000
0003
0100
0000
3001
0000
,  // measure 76
1001
0000
1000
0010
0000
0010
0100
0001
,  // measure 77
0011
0000
0000
0001
1000
0000
0100
0000
1000
0000
0000
0010
0100
0000
0001
0000
,  // measure 78
0100
0000
0000
0010
1000
0000
0000
1000
0100
0000
0000
0100
0010
0000
0001
0000
,  // measure 79
0021
1000
0100
0031
,  // measure 80
1010
0000
1000
0010
0000
0100
0001
0010
,  // measure 81
1100
0000
0000
1000
0010
0000
0100
0000
0001
0000
0000
0010
0001
0000
0100
0000
,  // measure 82
0010
1000
0000
0000
0100
0000
0010
0001
0000
0000
0100
0000
0010
0000
1000
0000
,  // measure 83
2002
3010
1000
0013
,  // measure 84
1000
0000
0000
0100
0000
0000
0110
0000
0000
0000
0010
0000
0001
0000
0100
0000
,  // measure 85
1100
0000
0000
0100
0000
0000
0001
0000
1001
0000
0100
0000
1100
0000
0000
0000
,  // measure 86
1000
0000
0000
0010
0000
0000
0110
0000
0000
0000
0100
0000
0001
0000
0010
0000
,  // measure 87
0011
0000
0000
0001
0000
0000
1000
0000
1001
0000
0010
0000
0011
0000
0000
0000
,  // measure 88
0001
0000
0000
0101
0000
0000
0110
0000
0000
0000
0010
0000
1000
0000
0100
0000
,  // measure 89
0011
0000
0000
0001
0000
0000
0100
0000
0110
0000
0001
0000
0011
0000
0000
0000
,  // measure 90
1000
0000
0000
1010
0000
0000
0110
0000
0000
0000
0100
0000
0001
0000
0010
0000
,  // measure 91
0110
0000
0000
0100
0000
0000
1000
0000
1010
0000
0000
0000
0110
0000
0000
0000
,  // measure 92
0101
0000
0001
0000
0100
0010
0000
1000
0100
0000
0010
0001
0000
0100
0010
0000
,  // measure 93
1000
0000
0100
0000
1000
0010
0000
0100
0001
0000
0010
0100
0000
1000
0010
0000
,  // measure 94
0100
0000
0001
0000
0010
0100
0000
1000
0010
0000
0100
0001
0000
0010
0100
0000
,  // measure 95
1000
0000
0010
0000
0100
0001
0000
0010
0100
0000
1000
0010
0000
0100
0001
0000
,  // measure 96
1000
0000
0100
0000
0010
0001
0000
0001
0100
0000
0100
0010
0000
0010
1000
0000
,  // measure 97
0100
0000
1000
0000
0010
0100
0000
0100
0001
0000
0001
0010
0000
0010
0100
0000
,  // measure 98
0001
0000
1000
0000
0100
0010
0000
0010
1000
0000
0010
0001
0000
0001
0100
0000
,  // measure 99
0010
0000
1000
0000
0100
0010
0000
0010
0001
0000
0010
1000
0000
0010
0001
0100
,  // measure 100
0000
0000
0010
1000
,  // measure 101
2002
0000
0000
0000
3200
0000
0000
0003
,  // measure 102
0001
0010
2000
0300
,  // measure 103
0200
0000
0000
0300
0002
0000
0000
0003
,  // measure 104
3200
0000
0302
0000
0023
0000
0000
0030
,  // measure 105
2020
3000
0002
0003
,  // measure 106
1000
0000
0100
0000
0002
0030
0100
0003
,  // measure 107
0110
0000
0010
1000
0000
0100
0010
0001
,  // measure 108
0201
0000
0001
0010
,  // measure 109
0310
0000
0100
0001
0000
0001
0010
0100
,  // measure 110
1100
0000
0000
1000
0001
0000
0010
0000
0100
0000
0000
1000
0010
0000
0100
0000
,  // measure 111
0001
0000
0000
0010
0100
0000
0000
0100
1000
0000
0000
1000
0010
0000
0100
0000
,  // measure 112
0201
0001
0010
1300
,  // measure 113
0110
0000
0010
1000
0000
1000
0100
0010
,  // measure 114
0011
0000
0000
0001
0100
0000
0010
0000
1000
0000
0000
0100
1000
0000
0010
0000
,  // measure 115
0100
0001
0000
0000
0010
0000
0100
1000
0000
0000
0010
0000
0100
0000
0001
0000
,  // measure 116
2002
0000
0000
0003
0100
0000
3001
0000
,  // measure 117
0110
0000
0010
1000
0000
1000
0100
0010
,  // measure 118
0011
0000
0000
0001
1000
0000
0100
0000
0010
0000
0000
0001
0100
0000
0010
0000
,  // measure 119
1000
0000
0000
0100
0010
0000
0000
0010
0001
0000
0000
0001
0100
0000
0010
0000
,  // measure 120
1020
1000
0100
0031
,  // measure 121
0110
0000
0100
0001
0000
0001
0010
0100
,  // measure 122
1100
0000
0000
1000
0010
0000
0100
0000
0001
0000
0000
0010
0001
0000
0100
0000
,  // measure 123
0010
1000
0000
0000
0100
0000
0010
0001
0000
0000
0100
0000
0010
0000
1000
0000
,  // measure 124
2002
0000
0000
3000
0010
0000
1003
0000
,  // measure 125
0001
0100
0000
0000
0110
0000
0010
1000
0000
0000
1100
0000
0100
0010
0001
0000
,  // measure 126
0201
0000
1000
0000
0010
0000
0001
0300
,  // measure 127
0001
0100
1000
0000
0100
0001
0010
1100
,  // measure 128
0000
1010
0000
0011
0000
1010
1000
0100
,  // measure 129
0001
0100
0010
0000
0001
0100
1000
1100
,  // measure 130
0000
0101
0000
0011
0000
0101
0100
0001
,  // measure 131
0010
1000
0010
0000
0100
1000
0010
0011
,  // measure 132
0000
1010
0000
1100
0000
1010
0010
0001
,  // measure 133
0010
1000
0100
0000
0010
1000
0100
0101
,  // measure 134
0000
0022
0000
0000
0000
0000
0033
0000
,  // measure 135
0001
0000
0010
0100
1000
0000
0100
0000
0010
0000
0100
1000
0010
0000
0011
0000
,  // measure 136
0000
0101
0000
1100
0000
0101
0001
0010
,  // measure 137
0100
0000
1000
0010
0100
0000
0001
0000
0010
0000
0001
0100
1000
0000
1100
0000
,  // measure 138
0000
0101
0000
0011
0000
0101
0100
0001
,  // measure 139
0010
0000
0100
1000
0010
0000
0100
0000
0001
0000
0010
0100
1000
0000
1100
0000
,  // measure 140
0000
1010
0000
0011
0000
1010
1000
0100
,  // measure 141
0010
0000
0001
0100
1000
0000
0100
0000
0010
0000
1000
0100
0010
0000
0100
0000
,  // measure 142
1000
0010
0100
0000
0001
0010
0100
0000
1000
0010
0100
0001
0010
0100
0200
0000
,  // measure 143
0000
0000
0000
0000
,  // measure 144
0000
0000
0000
0000
,  // measure 145
0000
0000
0000
0000
,  // measure 146
0000
0000
0000
0000
0000
0000
0000
0300
;
