#TITLE:未完成ノ蒸氣驅動乙女 (DDR Edition);
#SUBTITLE:;
#ARTIST:U1 overground;
#TITLETRANSLIT:Mikansei no jouki kudou otome (DDR Edition);
#SUBTITLETRANSLIT:;
#ARTISTTRANSLIT:;
#GENRE:;
#CREDIT:;
#MENUCOLOR:;
#METERTYPE:DDR;
#BANNER:Mikansei no jouki kudou otome (DDR Edition).png;
#BACKGROUND:Mikansei no jouki kudou otome (DDR Edition)-bg.png;
#LYRICSPATH:;
#CDTITLE:DDR_A20_Logo.png;
#MUSIC:Mikansei no jouki kudou otome (DDR Edition).ogg;
#OFFSET:0.000;
#SAMPLESTART:73.412;
#SAMPLELENGTH:15.000;
#SELECTABLE:YES;
#LISTSORT:;
#BPMS:0.000=85.000,10.000=170.000,134.000=85.000,158.000=170.000;
#STOPS:;
#BGCHANGES:;
#ATTACKS:;

//---------------dance-single - ----------------
#NOTES:
     dance-single:
     :
     Beginner:
     3:
     0.202,0.277,0.095,0.121,0.000:
0000
0000
0000
0000
,
0000
0000
0000
0000
,
0000
0000
0010
0000
,
0010
0000
0010
0000
,
0000
0000
0100
0000
,
0100
0000
0100
0000
,
0000
0000
0001
0000
,
0001
0000
0001
0000
,
0000
0000
1000
0000
,
1000
0000
1000
0000
,
0000
0000
0001
0001
,
0010
0000
1000
1000
,
0010
0000
0001
0001
,
0100
0000
1000
1000
,
0100
0000
0010
0100
,
0010
0000
0100
0010
,
0100
0000
0001
1000
,
0001
0000
1000
0001
,
1000
0000
0001
0000
,
0001
0000
0100
0000
,
0010
0000
1000
0000
,
1000
0000
0100
0100
,
0100
0000
0010
0000
,
0001
0000
1000
0000
,
0100
0000
0010
0000
,
0100
0000
0010
0000
,
0100
0000
2000
0000
,
0000
3000
0000
0000
,
0000
0002
0000
0000
,
0003
0000
0000
0000
,
0020
0000
0000
0030
,
0000
0000
0000
0200
,
0000
0000
0300
0000
,
0000
0000
0001
0000
,
0001
0000
1000
0000
,
1000
0000
0010
0000
,
0100
0000
1001
0000
,
1001
0000
0100
0000
,
0010
0000
1001
0000
,
1001
0000
2000
0000
,
3000
0000
0002
0000
,
0003
0000
2000
0000
,
3000
0000
0002
0000
,
0003
0000
0010
0001
,
0010
0000
0100
1000
,
0100
0000
0001
0100
,
0001
0000
1000
0100
,
1000
0000
0100
0010
,
0100
0000
0010
0001
,
0010
0000
1000
0010
,
1000
0000
0001
0010
,
0001
0000
1001
0000
,
0000
0000
0010
0000
,
0100
0000
1001
0000
,
0000
0000
0100
0000
,
0010
0000
1001
0000
,
0000
0000
1001
0000
,
0000
0000
1001
0000
,
1001
0000
2002
0000
,
3003
0000
0001
0001
,
0010
0000
1000
1000
,
0010
0000
0001
0001
,
0100
0000
1000
1000
,
0100
0000
0010
0010
,
0010
0000
0100
0100
,
0100
0000
0001
0001
,
0010
0010
0100
0100
,
1000
1000
0002
0000
,
0003
0000
0020
0000
,
0030
0000
2000
0000
,
3000
0000
0200
0000
,
0300
0000
0000
0000
;

//---------------dance-single - ----------------
#NOTES:
     dance-single:
     :
     Easy:
     6:
     0.448,0.651,0.269,0.459,0.017:
0000
0000
0000
0000
,
0000
0000
0000
0000
,
0000
0000
0001
0001
,
0010
0100
1000
1000
,
0110
1001
0010
0010
,
0100
0001
0010
0010
,
0100
1000
0010
0010
,
0100
0100
0001
0001
,
0100
0110
1001
0110
,
1000
1000
0001
0001
,
1001
0110
0001
0001
,
1000
1000
0010
0100
,
0010
0100
0010
0000
1000
0000
1000
0000
,
0001
0001
0100
0010
,
0100
0010
0100
0010
1000
0000
1000
0000
,
0010
0010
0100
0001
,
0100
0001
0100
0000
0001
0000
0001
0000
,
0010
0010
0100
1000
,
0100
1000
0100
0000
2000
0000
3010
0000
,
0200
0310
2000
3100
,
0110
1001
0002
0103
,
0020
0130
0002
0103
,
0110
0000
1001
0000
0001
0010
0100
0000
,
1000
0000
0001
0000
1000
0010
0100
0000
,
0110
0000
1001
0000
1000
0100
0010
0000
,
0001
0000
1000
0000
0001
0100
0010
0000
,
0110
0000
1001
0000
0110
0000
0001
0010
,
0000
0100
1000
0000
1001
0000
0002
0000
,
0203
0000
0320
0000
1030
0100
0000
0010
,
0001
1001
2000
3020
,
0230
0302
0023
0230
,
0310
0001
0100
0000
0010
0000
1001
0000
,
0010
0100
0000
0100
0010
0000
2000
0000
,
3002
0000
0000
0000
0203
0000
0000
0000
0310
0000
0000
0010
0000
0000
0110
0000
,
1000
0000
0000
1000
0000
0000
1001
0000
0010
0000
0000
0010
0000
0000
0110
0000
,
0100
0000
0000
0100
0000
0000
0110
0000
0001
0000
0000
0000
0001
0000
0000
0000
,
1000
0000
1000
0000
0020
0230
0302
2003
,
3020
0230
0302
0023
0130
0000
0100
0000
,
0010
0000
0010
0000
0002
0023
0230
2300
,
3020
0230
0302
0023
0230
0000
0000
0000
,
0000
0000
0320
0000
,
0000
0000
0032
0000
,
0000
0000
2003
0000
,
0000
0000
3001
0010
,
0100
1000
0100
0000
0010
0000
0100
0000
,
0110
1001
1000
0010
,
0100
0001
0100
0000
0010
0000
0100
0000
,
0110
1001
0001
0010
,
0100
1000
0010
0100
,
0001
1000
0001
1000
0001
0000
0010
0000
,
0100
1000
0001
1000
,
0100
0010
0100
0010
0200
0000
0000
0000
,
1300
0010
0100
0001
,
1000
0100
0120
0000
,
0130
1000
0010
0001
,
0010
1000
0002
0000
,
0023
0000
0230
0000
,
2300
0000
3020
0000
,
0230
0000
0301
1000
,
0010
1001
0001
0100
,
0001
0100
0010
0000
1000
0000
1000
0000
,
0010
0110
1000
0010
,
0100
0000
0001
0000
0010
0100
0010
0000
,
0001
1000
0002
0103
,
0220
0330
0010
1000
,
0001
0100
0010
1000
,
0001
0010
0100
1000
,
0010
0100
0010
0100
0020
0000
0000
0000
,
0000
0000
2030
0000
,
0000
0000
3002
0000
,
0000
0000
0023
0000
,
0000
0000
0030
0000
;

//---------------dance-single - ----------------
#NOTES:
     dance-single:
     :
     Medium:
     9:
     0.678,0.867,0.390,0.303,0.329:
0000
0000
0000
0000
,
0000
0000
0000
0000
,
0000
0000
0000
0000
1010
0010
0100
0000
,
0101
0100
0010
0000
0110
0010
1000
0000
,
0001
0100
0200
0000
0310
0000
0100
0010
,
1000
0000
0000
0000
0100
0000
0000
0000
1000
0001
1000
0001
1000
0000
0000
0000
,
0200
0000
0310
0000
0011
0010
0100
0000
,
1100
0100
0010
0000
0110
0100
0010
0000
,
0100
0120
0032
2003
,
3001
0010
0100
0000
0010
0000
0000
0000
0001
1000
0001
1000
0001
0000
0000
0000
,
0010
0000
1001
0000
1000
0100
0010
0001
,
0100
0010
1000
0001
0010
0100
1000
0001
,
0100
1000
0100
0001
0010
0100
1000
0001
,
1000
0010
0100
0001
0010
0100
1000
0001
,
0010
1000
0010
0001
1000
0010
0100
0001
,
0010
0100
0010
0001
1000
0100
0010
0001
,
0100
1000
0100
0001
0010
0100
1000
0001
,
0100
0010
1000
0001
0100
0010
0100
0001
,
0010
1000
0010
0001
1000
0000
1100
0000
,
0001
0000
0100
0000
0020
0000
0000
0000
0130
0000
0010
0100
0001
0000
1000
0000
,
0200
0000
0000
0000
0320
0000
0000
0000
0031
0000
0000
0001
0100
0000
0010
0000
,
1000
0010
0100
0100
0001
1000
0002
0000
,
0023
0000
0000
0000
0130
0000
0000
0000
1001
0000
0000
0000
1000
0000
0010
0100
,
0010
1000
0001
0000
1000
1000
0001
0001
,
0010
0000
0100
0000
0010
0000
0000
0000
0100
0000
0010
0100
1000
0000
0010
0100
,
0001
0010
0100
0000
0010
0010
0100
1000
,
0010
0100
0001
0000
2001
0000
3001
0102
,
0000
1003
2200
0000
3300
0000
0010
0001
,
1000
0010
0200
0000
0310
0120
0000
0130
,
0110
0000
1001
0000
0001
0010
1000
0010
,
0001
1000
0010
0001
0010
1000
0100
0010
,
0001
1000
0100
0010
0010
0000
0011
0000
,
1000
2100
0000
3001
0201
0000
0301
0010
,
1000
0000
0001
0000
0100
0000
1000
0000
0020
0000
0000
1000
0000
0100
0130
0000
,
0002
0000
0000
0010
0000
1000
1003
0000
0200
0000
0000
0010
0000
1000
1300
0000
,
0002
0000
0000
0010
0000
1000
1003
0000
1000
0000
0100
0000
0001
0000
0100
0000
,
1000
0000
0000
0010
0000
0000
0001
0000
0000
0010
0000
0000
1000
0100
1000
0100
0000
0000
1000
0010
1000
0010
0000
0000
,
0100
0000
0001
0000
0100
0000
0001
0000
0000
0000
0000
0000
0010
0000
0001
0000
0010
0000
0001
0000
0000
0000
0000
0000
1000
0000
0000
0100
0000
0000
1000
0000
0000
0100
0000
0000
0000
0000
0000
0010
0000
0000
0001
0000
0000
0100
0000
0000
,
0000
0000
0000
0100
0000
0000
0010
0000
0000
1000
0000
0000
0000
0000
0000
1000
0000
0000
0001
0000
0000
0010
0000
0000
0000
0000
0000
0001
0000
0000
0010
0000
0000
0100
0000
0000
1000
0000
0100
0000
1000
0000
0100
0000
1000
0000
0100
0000
,
0010
0001
0010
0001
0010
0001
0100
0010
0100
0010
0100
0010
0200
0000
0000
0000
0000
0000
0000
0000
0000
0000
0000
0000
,
0000
0000
0320
0000
,
0000
0000
2030
0000
,
0000
0000
3002
0000
,
0000
0000
0000
0000
1003
0010
0001
0010
,
0100
0001
0010
1000
0010
0001
1000
0100
,
0010
0010
0100
0100
1000
0001
0100
1000
,
0001
0010
1000
0100
0010
0100
1000
0001
,
0010
0010
0100
0100
1000
0010
1000
0001
,
0100
1000
0001
0010
0001
1000
0100
0001
,
0010
0010
0100
0100
0010
0001
0100
1000
,
0001
0010
0001
1000
0100
0010
1000
0001
,
1000
0000
0000
0010
0000
0000
0100
0000
0000
0001
0000
0000
0101
0000
0000
0000
1001
0000
0000
0000
1010
0000
0000
0000
,
0100
0001
0010
0100
1000
0010
0001
0010
,
1000
0000
0000
0100
0000
0000
0001
0000
0000
0100
0000
0000
0110
0000
0000
0000
1001
0000
0000
0000
0110
0000
0000
0000
,
1000
0100
0010
0001
0010
0100
1000
0010
,
0100
0000
0000
0001
0000
0000
1000
0000
0000
0100
0000
0000
1100
0000
0000
0000
1100
0000
0000
0000
1001
0000
0000
0000
,
0101
0000
0101
0000
0110
0000
1010
0000
1010
0000
1001
0000
,
0011
0000
0011
0000
0110
0000
1100
0000
1100
0000
0110
0000
,
0101
0000
0101
0000
1001
0000
0001
1000
0001
1000
0001
1000
,
0010
0100
0010
0100
0002
0000
1003
0100
,
0020
0000
0230
0000
1300
0010
0100
0001
,
0001
0000
0000
1000
0001
0000
1000
0001
1000
0000
0010
0000
0100
0000
0010
0000
,
1000
0001
0100
0010
0200
0000
0000
0310
,
1000
0000
0000
0001
0000
0000
0100
0000
0000
0010
0000
0000
0100
0000
0010
0000
0100
0000
0000
0000
0001
0000
1000
0000
,
0001
0000
1000
0000
0001
0000
1000
0000
0000
0000
0000
0000
0010
0000
0000
0100
0000
0000
0000
0000
0000
0110
0000
0000
,
0000
1000
0000
0110
0000
0010
0100
0010
,
1000
0100
0010
0001
1000
0001
0100
0010
,
2000
0000
3002
0000
,
0000
0000
0023
0000
,
0000
0000
0230
0000
,
0000
0000
2300
0000
,
0000
0000
3000
0000
;

//---------------dance-single - ----------------
#NOTES:
     dance-single:
     :
     Hard:
     12:
     0.978,1.000,0.312,0.416,1.000:
0000
0000
0000
0000
,
0000
0000
0000
0000
,
0000
0000
0000
0000
0000
0000
0000
0000
0001
0010
0100
0010
0001
0000
0100
0000
,
0010
0100
0001
0100
0010
0000
1000
0000
0001
1000
0100
1000
0001
0000
0010
0000
,
0100
0000
0100
0000
2000
0000
0000
0000
3001
0000
0100
0000
0001
0100
0001
0100
,
0010
0000
1000
0000
0001
0000
1000
0000
0001
0010
0100
0010
0100
0000
1000
0000
,
0010
0100
0001
0000
0101
0000
0000
0000
0010
0100
0001
0100
0002
0000
0000
0000
,
1003
0010
1000
0010
0200
0000
0000
0000
0310
0100
0010
0100
0002
0000
0000
0000
,
0013
0100
0010
0000
0120
0000
0000
0000
0032
0000
0000
0000
2003
0000
0000
0000
,
3010
0100
0010
0000
0110
0000
0000
0000
0001
1000
0001
1000
0100
0000
0000
0000
,
0020
0000
0000
0000
0230
0000
0000
0000
0310
0001
1000
0010
0100
0001
0010
0100
,
1000
0010
0100
0010
1000
0001
0010
0100
1000
0100
0010
0100
1000
0001
0100
0010
,
0200
0000
0302
0000
2003
0000
3020
0000
0130
0010
1000
0001
0010
0100
1000
0010
,
0100
0010
1000
0001
0100
0010
1000
0100
0010
0001
1000
0010
0100
0001
0100
0010
,
2000
0000
3002
0000
0023
0000
0230
0000
1300
0100
0010
0001
0100
0010
1000
0010
,
0100
0001
0010
0100
1000
0010
0100
0001
1000
0100
0010
0001
0100
1000
0100
0001
,
0200
0000
0302
0000
2003
0000
3200
0000
0310
0001
1000
0010
0100
0001
0010
0100
,
1000
0010
0100
0010
1000
0100
0010
0001
0100
0010
1000
0100
0010
0001
0100
0010
,
1000
0100
0001
0100
1000
0010
0100
0001
1000
0000
0000
0000
1000
0000
0100
0000
,
0010
0000
0001
0010
0200
0000
0000
0000
0310
0000
0001
0100
0010
0000
1000
0100
,
1000
0000
0010
0100
0001
0000
0100
0000
0010
0000
0100
0001
0010
0000
0200
0000
,
0310
0000
0100
1000
0010
0000
1000
0100
1000
0000
0001
0100
0002
0000
0000
0000
,
2003
0000
0000
0000
3010
0000
0000
0000
1001
0000
0000
0000
0100
0000
1000
0100
,
1000
0000
0010
0100
0020
0000
0000
0000
1030
0000
0100
0010
0001
0000
0100
0010
,
1000
0000
0001
0000
1000
0000
0001
0000
0100
0000
0001
0100
1000
0000
1000
0100
,
0001
0000
1000
0100
0001
0000
0001
0100
1000
0000
0100
0000
0010
0000
0001
0000
,
0100
0010
1001
0000
2010
0000
3010
0102
,
0000
0000
0013
0000
1100
0000
0000
0000
1001
0000
0000
0000
0001
0100
0010
1000
,
0001
0100
0010
1000
0002
0000
0000
0000
0013
0000
2100
0000
0000
0000
3010
0000
,
0101
0000
0000
0000
0110
0000
0000
0000
1000
0100
0010
0001
1000
0100
0010
0001
,
1000
0010
0100
0001
1000
0010
0100
0001
1000
0000
0100
0000
0110
0000
0000
0000
,
0010
0001
0100
0000
0010
0000
0100
0000
0100
0000
0000
0000
2100
0000
0000
0000
,
3010
0000
0120
0000
0000
0000
0130
0000
0201
0000
0000
0000
0301
0100
0010
1000
,
0001
0100
0010
1000
0001
0010
0100
1000
0001
0000
0000
1100
0000
0001
0002
0000
,
1003
0000
0000
0101
0000
1000
2000
0000
3010
0100
0000
0010
0000
1000
1001
0000
,
0010
0200
0000
0310
0000
0001
1001
0000
1000
0100
1000
0100
0010
0001
0010
0001
,
0100
0000
0000
0001
0000
0000
0100
0000
0000
0001
0000
0000
1000
0000
0000
0010
0000
0000
1000
0000
0000
0010
0000
0000
1000
0000
0010
0000
1000
0000
0010
0000
0100
0000
0001
0000
0010
0000
0001
0000
0010
0000
0100
0000
1000
0000
0001
0000
,
0010
0000
0001
0000
0010
0000
1000
0000
0010
0000
0001
0000
1000
0000
0010
0000
1000
0000
0010
0000
0001
0000
0010
0000
0100
0000
0000
0010
0000
0000
0100
0000
0000
0010
0000
0000
1000
0000
0000
0001
0000
0000
1000
0000
0000
0001
0000
0000
,
0010
0000
0000
0100
0000
0000
0010
0000
0000
0100
0000
0000
1000
0000
0000
0001
0000
0000
1000
0000
0000
0001
0000
0000
1000
0000
0000
0100
0000
0000
0010
0000
0000
0001
0000
0000
0010
0000
0001
0000
0001
0000
1000
0000
0010
0000
0010
0000
,
0100
0001
0001
0010
0100
0100
1000
0010
0100
1000
0100
0010
2000
0000
0000
0000
0000
0000
0000
0000
0000
0000
0000
0000
,
0000
0000
3002
0000
,
0000
0000
0023
0000
,
0000
0000
0230
0000
,
0000
0000
0000
0000
0000
0000
0000
0000
0310
0001
0100
0010
1000
0001
0100
0010
,
1000
0001
1000
0100
0010
0001
0100
0010
1000
0001
0100
0010
1000
0010
0100
0001
,
0010
1000
0010
0001
1000
0010
0001
0010
1000
0100
0010
0001
1000
0010
0100
0001
,
0010
0100
1000
0001
0100
0010
1000
0100
0010
0100
1000
0001
0100
0010
0100
0001
,
0020
0000
0230
0000
2300
0000
3002
0000
1003
0100
0010
0001
0100
0010
1000
0001
,
0100
0010
1000
0100
0010
0001
0100
0010
0100
0001
0010
0100
1000
0001
1000
0001
,
0010
1000
0010
0001
1000
0100
0001
0100
1000
0010
0100
0001
0100
0010
1000
0001
,
0010
0100
1000
0100
0010
0001
1000
0010
0100
0001
0010
0100
1000
0001
0100
0001
,
0100
0000
0000
1000
0000
0000
0100
0000
0000
0001
0000
0000
1000
0000
0000
0010
0000
0000
1000
0000
0000
0000
0000
0000
1010
0000
0000
0000
0000
0000
0000
0000
0101
0000
0000
0000
0000
0000
0000
0000
1010
0000
0000
0000
0000
0000
0000
0000
,
1000
0000
0010
0000
0100
0000
0001
0000
0010
0001
0100
0000
0010
1000
0100
0000
,
0010
0000
0000
0001
0000
0000
1000
0000
0000
0000
0000
0000
0010
0000
0000
1000
0000
0000
0001
0000
0000
0000
0000
0000
1100
0000
0000
0000
0000
0000
0000
0000
0011
0000
0000
0000
0000
0000
0000
0000
1001
0000
0000
0000
0000
0000
0000
0000
,
1000
0000
0001
0000
0100
0000
0010
0000
0100
0001
0010
0001
0100
0010
1000
0010
,
0100
0000
0000
0010
0000
0000
1000
0000
0000
0100
0000
0000
0010
0000
0000
0001
0000
0000
1000
0000
0000
0100
0000
0000
0010
0000
0000
0000
0000
0000
0000
0000
1100
0000
0000
0000
0000
0000
0000
0000
0001
0000
0000
0000
0100
0000
0000
0000
,
1100
0000
0110
0000
1000
0100
0101
0000
0110
0000
0001
0010
,
1010
0000
1001
0000
0010
0001
1000
0010
0001
0010
0100
1000
,
0001
0010
0100
0010
1000
0001
0010
0010
0010
0100
0100
0100
,
1000
0100
1000
0100
0010
0001
0010
0001
1000
0000
0000
0000
0001
0000
0100
0000
,
0010
0000
1000
0010
0100
0000
0000
0001
0010
0000
1000
0000
0010
0000
0001
0000
,
0100
0000
0010
0000
1000
0000
0100
0000
0010
0001
0100
0000
0010
0000
1000
0000
,
0100
0000
0000
0001
0100
0000
1000
0000
0010
1000
0010
1000
0010
0000
0100
0000
,
0001
0000
0000
0000
0000
0000
0010
0000
0000
0001
0000
0000
1000
0000
0000
0000
0000
0000
0000
0000
0000
0000
0000
0000
0010
0000
0000
0000
0010
0000
0000
0000
0010
0000
0000
0000
0000
0000
0000
0000
0100
0000
0000
0000
0100
0000
0000
0000
,
0100
0000
0100
0000
0100
0000
0010
0000
0000
0100
0000
0000
0010
0000
0000
1010
0000
0000
0100
0000
0000
0101
0000
0000
,
0001
0000
0000
1000
0100
0000
0110
0000
0010
0000
0001
0000
1000
0000
0100
0000
,
0001
0000
1000
0000
0010
0000
0100
0000
1000
0001
0000
0100
0010
0000
1000
0000
,
0001
0100
0010
1000
0100
0010
0002
0000
0000
0000
0000
0000
,
0000
0000
0023
0000
,
0000
0000
0230
0000
,
0000
0000
2300
0000
,
0000
0000
3000
0000
;

//---------------dance-double - ----------------
#NOTES:
     dance-double:
     :
     Easy:
     6:
     0.449,0.651,0.277,0.451,0.017:
00000000
00000000
00000000
00000000
,
00000000
00000000
00000000
00000000
,
00000000
00000000
00000001
00000010
,
00000100
00001000
00000100
00010000
,
00011000
00110000
00100000
00001000
,
00010000
01000000
00100000
00010000
,
00110000
10010000
00100000
00100000
,
00001000
00001000
00010000
00010000
,
00000100
00000020
00000032
00002003
,
00003010
00000010
00000100
00000010
,
00001000
00011000
00010000
00001000
,
00100000
00010000
01000000
00100000
,
10000000
01000000
10000000
00000000
01000000
00000000
00100000
00000000
,
00001000
00010000
00001000
00000100
,
00000010
00000100
00000010
00000000
00001000
00000000
00000001
00000000
,
00000100
00000010
00001000
00000100
,
00010000
00001000
00010000
00000000
00001000
00000000
01000000
00000000
,
00010000
00100000
01000000
10000000
,
00010000
00100000
00010000
00000000
01000000
00000000
01100000
00000000
,
00001000
00011000
00100000
00110000
,
00001000
00010000
00001000
00011000
,
00010000
00001100
00000010
00000110
,
00002000
00000000
00003002
00000000
00001003
00000010
00001000
00000000
,
00000100
00000000
00010000
00000000
00001000
00010000
00001000
00000000
,
00020000
00000000
02030000
00000000
03100000
00010000
01000000
00000000
,
00100000
00000000
01000000
00000000
00100000
10000000
01000000
00000000
,
00100000
00000000
00001000
00000000
00011000
00000000
00001000
00010000
,
00000000
00010000
00000100
00000000
00001001
00000000
00000020
00000000
,
00000230
00000000
00000302
00000000
00000013
00000001
00000000
00000001
,
00001000
00001100
00000200
00020300
,
00032000
00203000
00320000
02030000
,
03100000
10000000
01000000
00000000
00100000
00000000
10010000
00000000
,
00100000
00001000
00000000
00001000
00010000
00000000
00002000
00000000
,
00023000
00000000
00000000
00000000
00030200
00000000
00000000
00000000
00010300
00000000
00000000
00001000
00000000
00000000
00011000
00000000
,
00001000
00000000
00000000
00010000
00000000
00000000
00010100
00000000
00000100
00000000
00000000
00001000
00000000
00000000
00001100
00000000
,
00001000
00000000
00000000
00000001
00000000
00000000
00001001
00000000
00000001
00000000
00000000
00000000
00000010
00000000
00000000
00000000
,
00000100
00000000
00001000
00000000
00000200
00002300
00003200
00020300
,
00032000
02003000
03020000
00230000
01300000
00000000
01000000
00000000
,
00100000
00000000
00100000
00000000
02000000
23000000
30200000
02300000
,
03020000
00230000
00302000
00023000
00030200
00000000
00000000
00000000
,
00000000
00000000
00002300
00000000
,
00000000
00000000
00003020
00000000
,
00000000
00000000
00000230
00000000
,
00000000
00000000
00000310
00001000
,
00000100
00010000
00000100
00000000
00010000
00000000
00001000
00000000
,
00110000
10010000
01000000
00010000
,
00001000
00010000
00001000
00000000
00000100
00000000
00000010
00000000
,
00000110
00001001
00000001
00000100
,
00001000
00010000
01000000
00000000
10000000
00000000
00100000
00000000
,
00110000
10010000
10000000
01000000
,
00010000
00001000
00000100
00000000
00000010
00000000
00000100
00000000
,
00000110
00001001
00000021
00000000
,
00000130
00001000
00000100
00010000
,
00001000
00010000
01000000
00000000
02100000
00000000
00000000
00000000
,
03100000
00010000
01000000
00001000
,
00010000
00001000
00000100
00000000
00000002
00000000
00000000
00000000
,
00000203
00000000
00002300
00000000
,
00023000
00000000
00230000
00000000
,
20300000
00000000
31000000
00100000
,
00010000
10010000
01000000
00001000
,
00010000
00001000
00000100
00000000
00001000
00000000
00010000
00000000
,
00001000
00011000
00001000
00000010
,
00000001
00000000
00000100
00000000
00000010
00000100
00000010
00000000
,
00001000
00000000
00000100
00000000
00010000
00001000
00010000
00000000
,
00001000
00010000
00001000
00000000
00010000
00000000
00100000
00000000
,
10000000
00000000
01000000
00000000
10000000
01000000
00100000
00000000
,
00010000
00100000
00001000
00000000
00010000
00000000
00001000
00000000
,
00012000
00000000
00003020
00000000
,
00000000
00000000
00000032
00000000
,
00000000
00000000
00002003
00000000
,
00000000
00000000
00003200
00000000
,
00000000
00000000
00000300
00000000
;

//---------------dance-double - ----------------
#NOTES:
     dance-double:
     :
     Medium:
     9:
     0.646,0.867,0.191,0.303,0.312:
00000000
00000000
00000000
00000000
,
00000000
00000000
00000000
00000000
,
00000000
00000000
00000000
00000000
00011000
00001000
00010000
00000100
,
00000010
00000001
00000100
00000010
00001000
00000100
00010000
00001000
,
01000000
00100000
00200000
00000000
01300000
00000000
00100000
10000000
,
01000000
00000000
00000000
00000000
00100000
00000000
00000000
00000000
00001000
00010000
00001000
00010000
00001000
00000000
00000000
00000000
,
00020000
00000000
00031000
00000000
00001000
00000100
00000001
00000000
,
00000001
00000010
00001000
00000000
00010000
01000000
10000000
00000000
,
00100000
02000000
03200000
20300000
,
30010000
00100000
00001000
00000000
00010000
00000000
00000000
00000000
00001000
00010000
00001000
00010000
00001000
00000000
00000000
00000000
,
00001000
00000000
00001100
00000000
00000100
00000010
00000001
00000100
,
00001000
00010000
01000000
00010000
01000000
10000000
00100000
01000000
,
00010000
00100000
10000000
00100000
00010000
00001000
00000100
00000001
,
00001000
00000010
00000001
00000100
00001000
00000100
00000001
00000100
,
00000010
00000100
00000001
00000100
00001000
00010000
00001000
00100000
,
01000000
00100000
00010000
01000000
10000000
01000000
00010000
00100000
,
00001000
00010000
00000100
00000010
00000100
00001000
00000010
00000100
,
00000010
00001000
00000100
00010000
00001000
00010000
01000000
10000000
,
00100000
00010000
10000000
01000000
00100000
00000000
01100000
00000000
,
10000000
00000000
00010000
00000000
02000000
00000000
00000000
00000000
03100000
00000000
01000000
00001000
00010000
00000000
00001000
00000000
,
00020000
00000000
00000000
00000000
00032000
00000000
00000000
00000000
00013000
00000000
00000000
00000100
00001000
00000000
00000100
00000000
,
00010000
00001000
00000100
00000100
00000010
00001000
00000002
00000000
,
00000203
00000310
00001001
00001100
,
00001000
00000100
00010000
00000000
00001000
00010000
00001000
00000100
,
00001000
00010000
00100000
00000000
01000000
00100000
10000000
00010000
,
01000000
00100000
00100000
00000000
10000000
01000000
00010000
00001000
,
00010000
00001000
00000100
00000000
00000210
00000000
00000310
00002010
,
00000000
00003100
00020200
00000000
00030300
00000000
00001000
00010000
,
01000000
10000000
00200000
00000000
10300000
20100000
00000000
30100000
,
10010000
00000000
00110000
00000000
00010000
00100000
00001000
00010000
,
00000100
00001000
00000010
00000100
00000001
00000000
00001000
00000010
,
00010000
00001000
00100000
01000000
01000000
00000000
11000000
00000000
,
00010000
00120000
00000000
00130000
00201000
00000000
00301000
00010000
,
00001000
00000000
00000100
00000000
00000001
00000000
00000010
00000000
00000200
00000000
00000000
00000010
00000000
00000010
00000310
00000000
,
00000002
00000000
00000000
00001000
00000000
00001000
00001003
00000000
00000200
00000000
00000000
00010000
00000000
00010000
00010300
00000000
,
00002000
00000000
00000000
00100000
00000000
00100000
00103000
00000000
00010000
00000000
00100000
00000000
00001000
00000000
00010000
00000000
,
00100000
00000000
00000000
01000000
00000000
00000000
00010000
00000000
00000000
00100000
00000000
00000000
00010000
00100000
00010000
00100000
00000000
00000000
01000000
00100000
01000000
00100000
00000000
00000000
,
00001000
00000000
00010000
00000000
00001000
00000000
00010000
00000000
00000000
00000000
00000000
00000000
00000100
00000000
00001000
00000000
00000100
00000000
00001000
00000000
00000000
00000000
00000000
00000000
00000010
00000000
00000000
00001000
00000000
00000000
00000010
00000000
00000000
00000100
00000000
00000000
00000000
00000000
00000000
00000001
00000000
00000000
00000100
00000000
00000000
00001000
00000000
00000000
,
00000000
00000000
00000000
00000100
00000000
00000000
00001000
00000000
00000000
00010000
00000000
00000000
00000000
00000000
00000000
00001000
00000000
00000000
00010000
00000000
00000000
00100000
00000000
00000000
00000000
00000000
00000000
10000000
00000000
00000000
01000000
00000000
00000000
00100000
00000000
00000000
00010000
00000000
00100000
00000000
00010000
00000000
00100000
00000000
00010000
00000000
00100000
00000000
,
00001000
00010000
00001000
00010000
00001000
00010000
00000100
00001000
00000100
00001000
00000100
00000010
00000200
00000000
00000000
00000000
00000000
00000000
00000000
00000000
00000000
00000000
00000000
00000000
,
00000000
00000000
00000320
00000000
,
00000000
00000000
00000032
00000000
,
00000000
00000000
00002003
00000000
,
00000000
00000000
00000000
00000000
00003010
00000100
00000100
00000100
,
00001000
00010000
00001000
00000100
00001000
00010000
01000000
10000000
,
00100000
00100000
01000000
01000000
00010000
00100000
00100000
00100000
,
10000000
00100000
00010000
00100000
01000000
00010000
00001000
00000100
,
00000001
00000010
00001000
00000010
00000001
00000100
00000100
00000100
,
00000010
00001000
00000100
00010000
00001000
00010000
00100000
01000000
,
00010000
00010000
00100000
00100000
01000000
10000000
10000000
10000000
,
01000000
00010000
00001000
00010000
01000000
00010000
00001000
00000100
,
00000001
00000000
00000000
00000010
00000000
00000000
00000100
00000000
00000000
00000010
00000000
00000000
00000100
00000000
00000000
00000000
00000100
00000000
00000000
00000000
00000100
00000000
00000000
00000000
,
00000010
00000001
00000010
00000010
00000100
00001000
00000100
00010000
,
00001000
00000000
00000000
00100000
00000000
00000000
00010000
00000000
00000000
01000000
00000000
00000000
00100000
00000000
00000000
00000000
00100000
00000000
00000000
00000000
00100000
00000000
00000000
00000000
,
10000000
01000000
00010000
00001000
00010000
01000000
00100000
00001000
,
00010000
00000000
00000000
00001000
00000000
00000000
00000100
00000000
00000000
00000001
00000000
00000000
00000010
00000000
00000000
00000000
00000010
00000000
00000000
00000000
00000110
00000000
00000000
00000000
,
00001000
00000000
00001000
00000000
00001100
00000000
00000100
00000000
00000100
00000000
00010100
00000000
,
00010000
00000000
00010000
00000000
00011000
00000000
00001000
00000000
00001000
00000000
00101000
00000000
,
00100000
00000000
00100000
00000000
01100000
00000000
01000000
00100000
01000000
00100000
01000000
00100000
,
00010000
10000000
00010000
10000000
00020000
00000000
00130000
00001000
,
00020000
00000000
00032000
00000000
00003100
00000010
00001000
00000001
,
00000001
00000000
00000000
00001000
00000001
00000000
00000010
00000000
00000010
00000000
00000001
00000000
00000100
00000000
00000010
00000000
,
00001000
00000100
00010000
00001000
00200000
00000000
00000000
00310000
,
01000000
00000000
00000000
10000000
00000000
00000000
01000000
00000000
00000000
00010000
00000000
00000000
00100000
00000000
00001000
00000000
00010000
00000000
00000000
00000000
00001000
00000000
00010000
00000000
,
00000100
00000000
00001000
00000000
00000010
00000000
00000100
00000000
00000000
00000000
00000000
00000000
00000100
00000000
00000000
00000001
00000000
00000000
00000000
00000000
00000000
00000101
00000000
00000000
,
00000000
00001000
00000000
00001100
00000000
00001000
00000100
00010000
,
00001000
00010000
00100000
01000000
00010000
00100000
00001000
00010000
,
00002000
00000000
00023000
00000000
,
00000000
00000000
00030200
00000000
,
00000000
00000000
00000320
00000000
,
00000000
00000000
00000032
00000000
,
00000000
00000000
00000003
00000000
;

//---------------dance-double - ----------------
#NOTES:
     dance-double:
     :
     Hard:
     12:
     0.897,1.000,0.381,0.260,1.000:
00000000
00000000
00000000
00000000
,
00000000
00000000
00000000
00000000
,
00000000
00000000
00000000
00000000
00000000
00000000
00000000
00000000
10000000
00100000
10000000
00100000
01000000
00000000
00100000
00000000
,
01000000
00010000
00100000
00010000
00100000
00000000
00001000
00000000
00010000
00001000
00010000
00001000
00000100
00000000
00000010
00000000
,
00000100
00000000
00000001
00000000
00000012
00000000
00000000
00000000
00000013
00000000
00000001
00000000
00000100
00000001
00000100
00000001
,
00001000
00000000
00000100
00000000
00010000
00000000
00001000
00000000
00010000
00001000
00010000
00001000
00100000
00000000
00010000
00000000
,
01000000
00100000
10000000
00000000
10100000
00000000
00000000
00000000
10000000
00100000
01000000
00000000
00010000
00000000
00100000
00000000
,
00001000
00100000
00010000
00000000
00100000
00000000
00001000
00000000
00010000
00001000
00000100
00000000
00001000
00000000
00000100
00000000
,
00000010
00000100
00000010
00000000
00000120
00000000
00000000
00000000
00002030
00000000
00000000
00000000
00003002
00000000
00000000
00000000
,
00001003
00000001
00001000
00000000
00001001
00000000
00000000
00000000
00001000
00000100
00010000
00001000
00010000
00000000
00000000
00000000
,
00002000
00000000
00000000
00000000
00023000
00000000
00000000
00000000
00031000
00010000
00001000
00100000
00010000
01000000
00100000
00000000
,
10000000
00000000
01000000
00000000
00100000
00000000
00010000
00100000
01000000
10000000
01000000
00100000
01000000
10000000
00010000
00100000
,
00001000
00000000
00010000
00000000
00000100
00000000
00000010
00000000
00000001
00000100
00000010
00001000
00000010
00000100
00000001
00000000
,
00000010
00000000
00001000
00000000
00010000
00000000
00001000
00010000
00001000
00100000
00010000
00100000
00001000
00010000
00000100
00010000
,
00001000
00000000
00010000
00000000
01000000
00000000
00100000
00000000
00010000
01000000
00100000
10000000
00100000
01000000
00100000
00000000
,
01000000
00000000
00010000
00000000
00100000
00000000
00001000
00010000
00000100
00001000
00000010
00000100
00000010
00001000
00000001
00000010
,
00000100
00000000
00001000
00000000
00000100
00000000
00010000
00000000
00001000
00100000
00010000
01000000
00100000
10000000
01000000
00000000
,
00100000
00000000
00010000
00000000
10000000
00000000
01000000
00100000
01000000
00100000
00010000
01000000
00010000
01000000
00001000
00010000
,
00001000
00010000
00000100
00001000
00000100
00000010
00000001
00001000
00000200
00000000
00000000
00000000
00001300
00000000
00000100
00000000
,
00010000
00000000
00001000
00010000
02000000
00000000
00000000
00000000
03100000
00000000
00001000
00100000
00010000
00000000
01000000
00100000
,
01000000
00000000
00100000
01000000
10000000
00000000
01000000
00000000
00010000
00000000
00100000
00001000
00010000
00000000
00002000
00000000
,
00013000
00000000
00001000
00000100
00000010
00000000
00000001
00000010
00000100
00000000
00001000
00010000
00002000
00000000
00000000
00000000
,
00023000
00000000
00000000
00000000
00031000
00000000
00000000
00000000
00110000
00000000
00000000
00000000
00100000
00000000
00010000
00100000
,
00001000
00000000
00010000
00001000
00200000
00000000
00000000
00000000
00310000
00000000
01000000
00100000
10000000
00000000
00100000
01000000
,
00010000
00000000
00100000
00000000
01000000
00000000
10000000
00000000
01000000
00000000
00100000
00010000
00001000
00000000
00000100
00001000
,
00000010
00000000
00000100
00000001
00000010
00000000
00000001
00000100
00001000
00000000
00010000
00000000
00001000
00000000
00000100
00000000
,
00000010
00000100
00000110
00000000
00002001
00000000
00003010
00001020
,
00000000
00000000
00010030
00000000
00011000
00000000
00000000
00000000
00101000
00000000
00000000
00000000
00001000
00100000
00010000
01000000
,
00001000
00100000
00010000
01000000
00200000
00000000
00000000
00000000
01300000
00000000
02001000
00000000
00000000
00000000
03001000
00000000
,
00101000
00000000
00000000
00000000
00011000
00000000
00000000
00000000
00100000
00010000
00100000
00010000
01000000
00001000
01000000
00001000
,
00010000
00000100
00010000
00000100
00001000
00000010
00001000
00000010
00000100
00000010
00000100
00000010
00000100
00000000
00000000
00000000
,
00001000
00100000
00010000
01000000
00100000
00000000
01200000
00000000
,
10300000
00000000
20100000
00000000
00000000
00000000
30100000
00000000
02010000
00000000
00000000
00000000
03010000
00100000
00001000
00010000
,
00100000
01000000
00010000
00100000
01000000
10000000
00010000
00100000
00001000
00000000
00000000
00011000
00000000
00010000
00020000
00000000
,
00030100
00000000
00000000
00010100
00000000
00000100
00000200
00000000
00001300
00000010
00000000
00000100
00000000
00000010
00000110
00000000
,
00000001
00002000
00000000
00003001
00000000
00001000
00001001
00000000
00000001
00000100
00000001
00000000
00000010
00000100
00000010
00000000
,
00000100
00000000
00000000
00010000
00000000
00000000
00000100
00000000
00000000
00000000
00000000
00000000
00010000
00000000
00000000
00001000
00000000
00000000
00100000
00000000
00000000
00000000
00000000
00000000
00010000
00000000
00100000
00000000
00010000
00000000
00100000
00000000
01000000
00000000
10000000
00000000
01000000
00000000
10000000
00000000
00100000
00000000
00010000
00000000
00001000
00000000
00010000
00000000
,
00100000
00000000
10000000
00000000
01000000
00000000
00010000
00000000
00001000
00000000
00000100
00000000
00000001
00000000
00000010
00000000
00000100
00000000
00000010
00000000
00000001
00000000
00001000
00000000
00000100
00000000
00000000
00000010
00000000
00000000
00000100
00000000
00000000
00000010
00000000
00000000
00000000
00000000
00000000
00000001
00000000
00000000
00000100
00000000
00000000
00000010
00000000
00000000
,
00000000
00000000
00000000
00001000
00000000
00000000
00000100
00000000
00000000
00000010
00000000
00000000
00000000
00000000
00000000
00000001
00000000
00000000
00000010
00000000
00000000
00000100
00000000
00000000
00000000
00000000
00000000
00000001
00000000
00000000
00000010
00000000
00000000
00000001
00000000
00000000
00000010
00000000
00000001
00000000
00000010
00000000
00001000
00000000
00000010
00000000
00000001
00000000
,
00000100
00001000
00010000
00001000
00000100
00001000
00010000
00100000
10000000
00100000
00010000
00001000
00020000
00000000
00000000
00000000
00000000
00000000
00000000
00000000
00000000
00000000
00000000
00000000
,
00000000
00000000
00032000
00000000
,
00000000
00000000
00003020
00000000
,
00000000
00000000
00000032
00000000
,
00000000
00000000
00000000
00000000
00000000
00000000
00000000
00000000
00001003
00000100
00000010
00000100
00001000
00000001
00000010
00000100
,
00001000
00000000
00000100
00000000
00010000
00000000
00001000
00010000
00001000
00100000
00010000
00100000
01000000
00100000
01000000
10000000
,
01000000
00100000
00010000
00000000
10000000
00100000
01000000
00000000
00100000
10000000
01000000
00010000
00001000
00010000
00001000
00000000
,
00010000
00000000
00000100
00000000
00001000
00000000
00000010
00001000
00000010
00001000
00000001
00000010
00000001
00000010
00000100
00010000
,
00000100
00010000
00001000
00000000
00010000
00001000
00100000
00000000
00010000
00100000
01000000
00100000
00010000
10000000
00100000
01000000
,
00100000
00000000
01000000
00000000
00001000
00000000
00010000
00001000
00010000
00000100
00001000
00000010
00000100
00000010
00000100
00000000
,
00000010
00000000
00001000
00000000
00000100
00000000
00010000
00000000
00001000
00010000
00001000
00010000
00100000
01000000
00100000
01000000
,
00100000
00000000
10000000
00000000
00010000
00000000
01000000
00000000
00100000
01000000
00100000
01000000
00001000
00010000
00001000
00010000
,
00000100
00000000
00000000
00000010
00000000
00000000
00000100
00000000
00000000
00000010
00000000
00000000
00000001
00000000
00000000
00001000
00000000
00000000
00000001
00000000
00000000
00000000
00000000
00000000
00001010
00000000
00000000
00000000
00000000
00000000
00000000
00000000
00000101
00000000
00000000
00000000
00000000
00000000
00000000
00000000
00001010
00000000
00000000
00000000
00000000
00000000
00000000
00000000
,
00000001
00000000
00000100
00000000
00001000
00000000
00010000
00000000
00001000
00010000
00000100
00000000
00001000
00000100
00010000
00000000
,
00001000
00000000
00000000
00010000
00000000
00000000
01000000
00000000
00000000
10000000
00000000
00000000
11000000
00000000
00000000
00000000
00110000
00000000
00000000
00000000
10010000
00000000
00000000
00000000
,
10000000
00000000
01000000
00000000
00010000
00000000
01000000
00000000
00100000
00001000
00010000
00001000
00100000
00010000
01000000
00100000
,
10000000
00000000
00000000
00010000
00000000
00000000
01000000
00000000
00000000
00100000
00000000
00000000
10000000
00000000
00000000
00010000
00000000
00000000
01000000
00000000
00000000
00100000
00000000
00000000
01000000
00000000
00000000
00000000
00000000
00000000
00000000
00000000
10100000
00000000
00000000
00000000
00000000
00000000
00000000
00000000
11000000
00000000
00000000
00000000
00000000
00000000
00000000
00000000
,
01010000
00000000
00011000
00000000
00001010
00000000
00000011
00000000
00000101
00000000
00001100
00000000
,
00011000
00000000
00110000
00000000
10100000
00000000
11000000
00000000
01010000
00000000
00011000
00000000
,
00001010
00000000
00001100
00000000
00011000
00000000
00001000
00001000
00001000
00010000
00010000
00010000
,
00001000
00010000
00000010
00001000
00000001
00000010
00000100
00001000
00000001
00000000
00000000
00000000
00001000
00000000
00000100
00000000
,
00000001
00000000
00000100
00000000
00001000
00000000
00000000
00000100
00010000
00000000
00001000
00000000
00100000
00000000
10000000
00000000
,
00100000
00000000
00010000
00000000
01000000
00000000
00100000
00000000
01000000
00001000
00010000
00000000
00001000
00000000
00010000
00000000
,
00000100
00000000
00000000
00000100
00000010
00000000
00000001
00000000
00001000
00000100
00000010
00000100
00001000
00000000
00000010
00000000
,
00000100
00000000
00000000
00000000
00000000
00000000
00000010
00000000
00000000
00000100
00000000
00000000
00000001
00000000
00000000
00000000
00000000
00000000
00000000
00000000
00000000
00000000
00000000
00000000
00000001
00000000
00000000
00000000
00000100
00000000
00000000
00000000
00001000
00000000
00000000
00000000
00000000
00000000
00000000
00000000
00001000
00000000
00000000
00000000
00010000
00000000
00000000
00000000
,
01000000
00000000
10000000
00000000
01000000
00000000
00100000
00000000
00000000
01000000
00000000
00000000
00100000
00000000
00000000
00010000
00000000
00000000
10000000
00000000
00000000
00100000
00000000
00000000
,
01000000
00000000
00000000
00010000
00100000
00000000
00110000
00000000
00010000
00000000
00100000
00000000
00001000
00000000
00010000
00000000
,
00000100
00000000
00000010
00000000
00000001
00000000
00001000
00000000
00000100
00001000
00000000
00000100
00010000
00000000
00001000
00000000
,
00010000
01000000
10000000
00100000
00010000
00001000
00020000
00000000
00000000
00000000
00000000
00000000
,
00000000
00000000
00032000
00000000
,
00000000
00000000
00003200
00000000
,
00000000
00000000
00000320
00000000
,
00000000
00000000
00000030
00000000
;

//---------------dance-single - Copied from----------------
#NOTES:
     dance-single:
     Copied from:
     Challenge:
     14:
     1.000,1.000,0.260,0.208,1.000: // measure 1
0000
0000
0000
0000
,  // measure 2
0000
0000
0000
0000
,  // measure 3
0000
0000
0000
0000
0000
0000
0000
0000
1000
0100
0010
0100
1000
0000
0010
0000
,  // measure 4
0100
0010
1000
0010
0100
0000
0001
0000
1000
0001
0010
0001
1000
0000
0100
0000
,  // measure 5
0010
0000
0010
0000
0002
0000
0000
0000
1003
0000
0010
0000
1000
0010
1000
0010
,  // measure 6
0100
0000
0001
0000
1000
0000
0001
0000
1000
0100
0010
0100
0010
0000
0001
0000
,  // measure 7
0100
0010
1000
0000
1010
0000
0000
0000
0100
0010
1000
0010
2000
0000
0000
0000
,  // measure 8
3001
0100
0001
0100
0020
0000
0000
0000
0130
0010
0100
0010
2000
0000
0000
0000
,  // measure 9
3100
0010
0100
0000
0210
0000
0000
0000
2300
0000
0000
0000
3002
0000
0000
0000
,  // measure 10
0103
0010
0100
0000
0110
0000
0000
0000
1000
0001
1000
0001
0010
0000
0000
0000
,  // measure 11
0200
0000
0000
0000
0320
0000
0000
0000
0130
1000
0001
0100
0010
1000
0100
0010
,  // measure 12
0001
0100
0010
0100
0001
1000
0100
0010
0001
0010
0100
0010
0001
1000
0010
0100
,  // measure 13
0001
0000
0100
0000
0001
0000
0100
0000
0010
0000
1000
0000
0010
0000
1000
0000
0001
0000
1000
0000
0001
0000
0100
0000
0010
0000
0000
0100
0000
0000
0001
0000
0000
1000
0000
0000
0100
0000
0000
0010
0000
0000
0001
0000
0000
0100
0000
0000
,  // measure 14
0010
0100
0001
1000
0010
0100
0001
0010
0100
1000
0001
0100
0010
1000
0010
0100
,  // measure 15
0001
0010
0100
1000
0001
1000
0100
0010
0001
0010
0100
1000
0010
0100
0001
0100
,  // measure 16
0010
1000
0100
0010
0001
0100
0010
1000
0001
0010
0100
1000
0010
0001
0010
1000
,  // measure 17
0001
0000
1000
0000
0001
0000
1000
0000
0100
0000
0010
0000
0001
0000
1000
0000
0001
0000
0010
0000
0100
0000
1000
0000
0100
0000
0000
1000
0000
0000
0001
0000
0000
0100
0000
0000
0010
0000
0000
1000
0000
0000
0100
0000
0000
0010
0000
0000
,  // measure 18
0001
0100
0010
0100
0001
0010
0100
1000
0010
0100
0001
0010
0100
1000
0010
0100
,  // measure 19
0001
0010
1000
0010
0001
0100
0010
1000
0001
0000
0000
0000
0001
0000
0010
0000
,  // measure 20
0100
0000
1000
0100
0020
0000
0000
0000
0130
0000
1000
0010
0100
0000
0001
0010
,  // measure 21
0001
0000
0100
0010
1000
0000
0010
0000
0100
0000
0010
1000
0100
0000
0020
0000
,  // measure 22
0130
0000
0010
0001
0100
0000
0001
0010
0001
0000
1000
0010
2000
0000
0000
0000
,  // measure 23
3002
0000
0000
0000
0103
0000
0000
0000
1001
0000
0000
0000
0010
0000
0001
0010
,  // measure 24
0001
0000
0100
0010
0200
0000
0000
0000
0301
0000
0010
0100
1000
0000
0010
0100
,  // measure 25
0001
0000
1000
0000
0001
0000
1000
0000
0010
0000
1000
0010
0001
0000
0001
0010
,  // measure 26
1000
0000
0001
0010
1000
0000
1000
0010
0001
0000
0010
0000
0100
0000
1000
0000
,  // measure 27
0010
0100
1001
0000
0102
0000
0103
2010
,  // measure 28
0000
0000
3100
0000
0011
0000
0000
0000
1001
0000
0000
0000
1000
0010
0100
0001
,  // measure 29
1000
0010
0100
0001
2000
0000
0000
0000
3100
0000
0012
0000
0000
0000
0103
0000
,  // measure 30
1010
0000
0000
0000
0110
0000
0000
0000
0001
0010
0100
1000
0001
0010
0100
1000
,  // measure 31
0001
0100
0010
1000
0001
0100
0010
1000
0001
0000
0010
0000
0110
0000
0000
0000
,  // measure 32
0100
1000
0010
0000
0100
0000
0010
0000
0010
0000
0000
0000
0012
0000
0000
0000
,  // measure 33
0103
0000
0210
0000
0000
0000
0310
0000
1020
0000
0000
0000
1030
0010
0100
0001
,  // measure 34
1000
0010
0100
0001
1000
0100
0010
0001
1000
0000
0000
0011
0000
1000
2000
0000
,  // measure 35
3001
0000
0000
1010
0000
0001
0002
0000
0103
0010
0000
0100
0000
0001
1001
0000
,  // measure 36
0100
0020
0000
0130
0000
1000
1001
0000
0001
0010
0001
0010
0100
1000
0100
1000
,  // measure 37
0010
0000
0000
1000
0000
0000
0010
0000
0000
1000
0000
0000
0001
0000
0000
0100
0000
0000
0001
0000
0000
0100
0000
0000
0001
0000
0100
0000
0001
0000
0100
0000
0010
0000
1000
0000
0100
0000
1000
0000
0100
0000
0010
0000
0001
0000
1000
0000
,  // measure 38
0100
0000
1000
0000
0100
0000
0001
0000
0100
0000
1000
0000
0001
0000
0100
0000
0001
0000
0100
0000
1000
0000
0100
0000
0010
0000
0000
0100
0000
0000
0010
0000
0000
0100
0000
0000
0001
0000
0000
1000
0000
0000
0001
0000
0000
1000
0000
0000
,  // measure 39
0100
0000
0000
0010
0000
0000
0100
0000
0000
0010
0000
0000
0001
0000
0000
1000
0000
0000
0001
0000
0000
1000
0000
0000
0001
0000
0000
0010
0000
0000
0100
0000
0000
1000
0000
0000
0100
0000
1000
0000
1000
0000
0001
0000
0100
0000
0100
0000
,  // measure 40
0010
0000
1000
0000
1000
0000
0100
0000
0010
0000
0010
0000
0001
0000
0100
0000
0010
0000
0001
0000
0010
0000
0100
0000
0001
0000
0000
0100
0000
0000
0001
0000
0000
0100
0000
0000
0001
0000
0000
0100
0000
0000
0001
0000
0000
0100
0000
0000
,  // measure 41
0001
0010
0100
1000
0001
1000
0100
0010
0001
0100
0001
0100
0001
0100
0001
0100
,  // measure 42
0001
0000
1000
0000
0001
0000
1000
0000
0100
0000
0010
0000
0001
0000
0010
0000
0100
0000
1000
0000
0001
0000
1000
0000
0100
0000
0000
1000
0000
0000
0100
0000
0000
1000
0000
0000
0100
0000
0000
1000
0000
0000
0100
0000
0000
1000
0000
0000
,  // measure 43
0001
1000
0100
0010
0001
1000
0001
0010
0100
1000
0100
1000
0001
1000
0001
1000
,  // measure 44
0001
0000
1000
0000
0001
0000
1000
0000
0100
0000
0010
0000
0001
0000
1000
0000
0001
0000
0010
0000
0100
0000
1000
0000
0100
0000
0000
1000
0000
0000
0010
0000
0000
0100
0000
0000
0001
0000
0000
1000
0000
0000
0010
0000
0000
0100
0000
0000
,  // measure 45
0001
1000
0001
0010
0100
1000
0010
0100
0001
1000
0010
0100
0001
0100
0010
1000
,  // measure 46
0100
0000
0010
0000
0001
0000
1000
0000
0001
0000
1000
0000
0001
0000
0000
0100
0000
0000
1000
0000
0000
0100
0000
0000
0001
0000
0000
0010
0000
0000
0100
0000
0000
1000
0000
0000
0001
0000
0000
0100
0000
0000
0010
0000
0000
1000
0000
0000
,  // measure 47
0100
0010
0001
1000
0010
0100
0001
0010
0100
0010
0001
1000
0010
0100
0010
1000
,  // measure 48
0100
0000
0010
0000
0001
0000
1000
0000
0001
0000
0010
0000
0100
0000
1000
0000
0001
0000
1000
0000
0100
0000
0010
0000
0001
0000
0000
0010
0000
0000
0100
0000
0000
1000
0000
0000
0010
0000
0000
0100
0000
0000
0001
0000
0000
1000
0000
0000
,  // measure 49
0010
0100
0001
0010
0100
1000
0010
0100
0010
1000
0100
0010
0001
1000
0001
1000
,  // measure 50
0100
0000
0010
0000
0001
0000
1000
0000
0001
0000
1000
0000
0001
0000
0000
0010
0000
0000
1000
0000
0000
0010
0000
0000
0001
0000
0000
0100
0000
0000
0010
0000
0000
1000
0000
0000
0010
0000
0000
0100
0000
0000
0001
0000
0000
1000
0000
0000
,  // measure 51
0100
0000
0000
0010
0000
0000
0001
0000
0000
0010
0000
0000
0100
0000
1000
0000
0001
0000
1000
0000
0001
0100
0000
0000
0010
0000
0000
1000
0000
0000
0100
0000
0000
0010
0000
0000
0001
0000
0000
1000
0000
0000
0010
0000
0000
1000
0000
0000
,  // measure 52
0010
0000
0000
0001
0000
0000
0010
0000
0100
0000
1000
0000
0001
0000
1000
0000
0100
0000
0010
0000
0001
0000
0000
0000
1000
0000
0010
0000
1000
0000
0001
0000
0010
0000
0001
0000
1000
0000
0010
0000
1000
0000
0001
0000
0000
1000
0000
0000
,  // measure 53
0001
0000
0100
0000
0010
0000
1000
0000
0100
1000
0010
0000
0100
0001
0010
0000
,  // measure 54
0100
0000
0000
1000
0000
0000
0001
0000
0000
0000
0000
0000
0100
0000
0000
0001
0000
0000
1000
0000
0000
0000
0000
0000
0001
0000
0010
0000
0001
0000
1000
0000
0010
0000
1000
0000
0001
0000
0010
0000
0001
0000
1000
0000
0000
0000
0000
0000
,  // measure 55
0001
0000
1000
0000
0010
0000
0100
0000
0010
1000
0100
1000
0010
0100
0001
0100
,  // measure 56
0010
0000
0000
0100
0000
0000
0001
0000
0000
0010
0000
0000
0100
0000
0000
1000
0000
0000
0001
0000
0000
0010
0000
0000
0100
0000
0000
0000
0000
0000
0000
0000
0011
0000
0000
0000
0000
0000
0000
0000
1000
0000
0000
0000
0010
0000
0000
0000
,  // measure 57
0011
0000
0110
0000
0001
0010
1010
0000
0110
0000
1000
0100
,  // measure 58
0101
0000
0000
0000
1001
0000
0000
0000
0100
0000
1000
0000
0001
0010
0100
0000
1000
0010
0100
0000
0010
1000
0001
0000
,  // measure 59
1000
0000
0100
0000
0010
0000
0100
0000
1000
0001
0010
0000
0100
0000
0100
0000
0100
0000
0010
0000
0010
0000
0010
0000
,  // measure 60
0001
0010
0100
1000
0001
0100
0010
1000
0100
0010
0001
1000
0001
0000
0000
0000
0000
0000
1000
0000
0000
0010
0000
0000
,  // measure 61
0100
0000
0001
0100
0010
0000
0000
1000
0100
0000
0001
0000
0100
0000
1000
0000
,  // measure 62
0010
0000
0100
0000
0001
0000
0010
0000
0100
1000
0010
0000
0100
0000
0001
0000
,  // measure 63
0010
0000
0000
1000
0010
0000
0001
0000
0100
0001
0100
0001
0100
0000
0010
0000
,  // measure 64
1000
0000
0000
0000
0000
0000
0100
0000
0000
1000
0000
0000
0001
0000
0000
0000
0000
0000
0000
0000
0000
0000
0000
0000
0100
0000
0000
0000
0100
0000
0000
0000
0100
0000
0000
0000
0000
0000
0000
0000
0010
0000
0000
0000
0010
0000
0000
0000
,  // measure 65
0010
0000
0010
0000
0010
0000
0100
0000
0000
0010
0000
0000
0100
0000
0000
0101
0000
0000
0010
0000
0000
1010
0000
0000
,  // measure 66
1000
0000
0000
0001
0010
0000
0110
0000
0100
0000
1000
0000
0001
0000
0010
0000
,  // measure 67
1000
0000
0001
0000
0100
0000
0010
0000
0001
1000
0000
0010
0100
0000
0001
0000
,  // measure 68
1000
0000
0000
0000
0010
0000
0000
0000
0100
0000
0000
0000
0001
0000
0000
0000
0010
0000
0000
0000
0100
0000
0000
0000
1000
0000
0000
0010
0000
0000
1000
0000
0000
0010
0000
0000
1000
0000
0000
0010
0000
0000
1000
0000
0000
0010
0000
0000
,  // measure 69
1000
0100
0010
0001
1000
0001
0010
0100
1000
0010
1000
0010
1000
0010
1000
0010
,  // measure 70
1000
0000
0001
0000
1000
0000
0001
0000
0010
0000
0100
0000
1000
0000
0100
0000
0010
0000
0001
0000
1000
0000
0001
0000
0010
0000
0000
0001
0000
0000
0010
0000
0000
0001
0000
0000
1000
0000
0000
0001
0000
0000
1000
0000
0000
0001
0000
0000
,  // measure 71
1000
0000
0100
0000
0010
0000
0001
0000
0010
0000
0100
0000
1000
0000
0001
0000
1000
0000
0001
0000
0000
0010
0000
0000
0100
0000
0000
1000
0000
0000
0100
0000
0000
1000
0000
0000
0001
0000
0000
1000
0000
0000
0001
0000
0000
1000
0000
0000
,  // measure 72
0001
1000
0001
1000
0100
0010
0001
1000
0001
0010
0100
1000
0100
0000
0000
0000
0000
0000
0000
0000
0000
0000
0000
0000
;
