#TITLE:Won't Stop, Just Go;
#SUBTITLE:(From Sonic Adventure 2);
#ARTIST:Sonic Team;
#TITLETRANSLIT:;
#SUBTITLETRANSLIT:;
#ARTISTTRANSLIT:;
#CREDIT:;
#BANNER:Banner.png;
#BACKGROUND:;
#LYRICSPATH:;
#CDTITLE:;
#MUSIC:Won't Stop_Just Go.mp3;
#OFFSET:0.260;
#SAMPLESTART:5.480;
#SAMPLELENGTH:15.000;
#SELECTABLE:YES;
#BPMS:0.000=308.800;
#STOPS:;
#BGCHANGES:0.000=Green Forest.avi=1.000=0=0=0,
99999=-nosongbg-=1.000=0=0=0 // don't automatically add -songbackground-
;

//---------------dance-single - Copied from----------------
#NOTES:
     dance-single:
     Copied from:
     Beginner:
     3:
     0.191,0.504,0.155,0.000,0.000: // measure 1
0000
0000
0000
0000
,  // measure 2
0000
0000
0000
0000
,  // measure 3
0000
0000
0000
0000
,  // measure 4
0000
0000
0000
0000
,  // measure 5
0000
0000
0000
0000
,  // measure 6
0000
0000
0000
0000
,  // measure 7
0000
0000
0000
0000
,  // measure 8
0000
0000
0000
0000
,  // measure 9
1000
0000
0000
0000
,  // measure 10
0000
0000
0000
0000
,  // measure 11
0001
0000
0000
0000
,  // measure 12
0000
0000
0000
0000
,  // measure 13
1000
0000
0000
0000
,  // measure 14
0000
0000
0000
0000
,  // measure 15
0001
0000
0000
0000
,  // measure 16
0000
0000
0000
0000
,  // measure 17
1000
0000
0000
0000
,  // measure 18
1000
0000
0000
0000
,  // measure 19
1000
0000
0000
0000
,  // measure 20
1000
0000
0000
0000
,  // measure 21
0001
0000
0000
0000
,  // measure 22
0001
0000
0000
0000
,  // measure 23
0001
0000
0000
0000
,  // measure 24
0001
0000
0000
0000
,  // measure 25
0100
0000
0000
0000
,  // measure 26
0000
0000
0000
0000
,  // measure 27
0010
0000
0000
0000
,  // measure 28
0000
0000
0000
0000
,  // measure 29
0100
0000
0000
0000
,  // measure 30
0000
0000
0000
0000
,  // measure 31
0010
0000
0000
0000
,  // measure 32
0000
0000
0000
0000
,  // measure 33
1000
0000
0000
0000
,  // measure 34
0000
0000
0000
0000
,  // measure 35
0001
0000
0000
0000
,  // measure 36
0000
0000
0000
0000
,  // measure 37
1000
0000
0000
0000
,  // measure 38
0000
0000
0000
0000
,  // measure 39
0001
0000
0000
0000
,  // measure 40
0000
0000
0000
0000
,  // measure 41
1000
0000
0000
0000
,  // measure 42
1000
0000
0000
0000
,  // measure 43
0001
0000
0000
0000
,  // measure 44
0001
0000
0000
0000
,  // measure 45
0100
0000
0000
0000
,  // measure 46
0100
0000
0000
0000
,  // measure 47
0010
0000
0000
0000
,  // measure 48
0010
0000
0000
0000
,  // measure 49
1000
0000
0000
0000
,  // measure 50
1000
0000
0000
0000
,  // measure 51
0100
0000
0000
0000
,  // measure 52
0100
0000
0000
0000
,  // measure 53
0010
0000
0000
0000
,  // measure 54
0010
0000
0000
0000
,  // measure 55
0001
0000
0000
0000
,  // measure 56
0001
0000
0000
0000
,  // measure 57
1000
0000
0000
0000
,  // measure 58
0001
0000
1000
0000
,  // measure 59
0100
0000
0000
0000
,  // measure 60
1000
0000
0001
0000
,  // measure 61
0100
0000
0000
0000
,  // measure 62
0001
0000
1000
0000
,  // measure 63
0000
0100
0000
0000
,  // measure 64
1000
0000
1000
0000
,  // measure 65
0001
0000
0000
0000
,  // measure 66
0100
0000
0001
0000
,  // measure 67
1000
0000
0000
0000
,  // measure 68
0010
0000
1000
0000
,  // measure 69
0001
0000
0000
0000
,  // measure 70
0100
0000
0001
0000
,  // measure 71
1001
0000
0000
0000
,  // measure 72
0000
0000
0000
0000
,  // measure 73
1001
0000
0000
0000
,  // measure 74
0000
0000
0000
0000
,  // measure 75
0100
0000
0000
0000
,  // measure 76
1000
0000
0000
0000
,  // measure 77
0001
0000
0000
0000
,  // measure 78
0010
0000
0000
0000
,  // measure 79
0100
0000
0000
0000
,  // measure 80
1000
0000
0000
0000
,  // measure 81
0001
0000
0000
0000
,  // measure 82
0010
0000
0000
0000
,  // measure 83
0001
0000
0000
0000
,  // measure 84
0001
0000
0000
0000
,  // measure 85
1000
0000
0000
0000
,  // measure 86
1000
0000
0000
0000
,  // measure 87
0001
0000
0000
0000
,  // measure 88
0001
0000
0000
0000
,  // measure 89
0100
0000
0000
0000
,  // measure 90
0100
0000
0010
0000
,  // measure 91
0100
0000
0000
0000
,  // measure 92
0100
0000
0000
0000
,  // measure 93
0001
0000
0000
0000
,  // measure 94
0001
0000
0000
0000
,  // measure 95
1000
0000
0000
0000
,  // measure 96
1000
0000
0000
0000
,  // measure 97
0010
0000
0000
0000
,  // measure 98
0010
0000
0000
0000
,  // measure 99
1001
0000
0000
0000
,  // measure 100
0000
0000
0000
0000
,  // measure 101
0110
0000
0000
0000
,  // measure 102
0000
0000
0000
0000
,  // measure 103
1001
0000
0000
0000
,  // measure 104
0000
0000
0000
0000
,  // measure 105
0110
0000
0000
0000
,  // measure 106
1001
0000
1001
0000
,  // measure 107
0110
0000
0000
0000
,  // measure 108
0010
0000
1000
0000
,  // measure 109
0001
0000
0000
0000
,  // measure 110
0010
0000
0001
0000
,  // measure 111
1000
0000
0000
0000
,  // measure 112
0100
0000
1000
0000
,  // measure 113
0000
0001
0000
0000
,  // measure 114
0100
0000
0100
0000
,  // measure 115
1001
0000
0000
0000
,  // measure 116
0100
0000
1000
0000
,  // measure 117
0001
0000
0000
0000
,  // measure 118
0100
0000
0001
0000
,  // measure 119
1000
0000
0000
0000
,  // measure 120
0100
0000
1000
0000
,  // measure 121
0001
0000
0000
0000
,  // measure 122
0000
0000
0000
0000
,  // measure 123
1000
0000
0000
0000
,  // measure 124
0000
0000
0000
0000
,  // measure 125
0001
0000
0000
0000
,  // measure 126
1000
0000
0000
0000
,  // measure 127
0001
0000
0000
0000
,  // measure 128
1000
0000
0000
0000
,  // measure 129
0010
0000
0000
0000
,  // measure 130
0100
0000
0000
0000
,  // measure 131
0010
0000
0000
0000
,  // measure 132
0100
0000
0000
0000
,  // measure 133
1000
0000
0000
0000
,  // measure 134
0001
0000
0000
0000
,  // measure 135
1000
0000
0000
0000
,  // measure 136
0001
0000
0000
0000
,  // measure 137
0100
0000
0000
0000
,  // measure 138
0010
0000
0000
0000
,  // measure 139
0100
0000
0000
0000
,  // measure 140
0010
0000
0000
0000
,  // measure 141
1001
0000
0000
0000
,  // measure 142
0000
0000
0000
0000
,  // measure 143
1001
0000
0000
0000
,  // measure 144
0000
0000
0000
0000
,  // measure 145
1001
0000
0000
0000
,  // measure 146
0000
0000
0000
0000
,  // measure 147
0110
0000
0000
0000
,  // measure 148
1001
0000
1001
0000
,  // measure 149
0110
0000
0000
0000
,  // measure 150
0000
0000
0000
0000
,  // measure 151
1100
0000
0000
0000
,  // measure 152
0000
0000
0000
0000
,  // measure 153
0011
0000
0000
0000
,  // measure 154
0000
0000
0000
0000
,  // measure 155
1001
0000
0000
0000
,  // measure 156
0010
0000
1000
0000
,  // measure 157
0001
0000
0000
0000
,  // measure 158
0000
0000
0000
0000
,  // measure 159
0000
0000
0000
0000
,  // measure 160
0000
0000
0000
0000
,  // measure 161
0110
0000
0000
0000
,  // measure 162
0010
0000
1000
0000
,  // measure 163
0001
0000
0000
0000
,  // measure 164
0010
0000
0001
0000
,  // measure 165
1000
0000
0000
0000
,  // measure 166
0100
0000
1000
0000
,  // measure 167
0000
0001
0000
0000
,  // measure 168
0100
0000
0100
0000
,  // measure 169
1001
0000
0000
0000
,  // measure 170
0100
0000
1000
0000
,  // measure 171
0001
0000
0000
0000
,  // measure 172
0100
0000
0001
0000
,  // measure 173
1000
0000
0000
0000
,  // measure 174
0100
0000
1000
0000
,  // measure 175
0001
0000
0000
0000
,  // measure 176
0000
0000
0000
0000
,  // measure 177
1000
0000
0000
0000
,  // measure 178
0000
0000
0000
0000
,  // measure 179
0001
0000
0000
0000
,  // measure 180
1000
0000
0000
0000
,  // measure 181
0001
0000
0000
0000
,  // measure 182
1000
0000
0000
0000
,  // measure 183
0010
0000
0000
0000
,  // measure 184
0100
0000
0000
0000
,  // measure 185
0010
0000
0000
0000
,  // measure 186
0100
0000
0000
0000
,  // measure 187
1000
0000
0000
1001
;

//---------------dance-single - Copied from Copied f----------------
#NOTES:
     dance-single:
     Copied from Copied f:
     Easy:
     5:
     0.424,0.567,0.243,0.169,0.003:
0000
0000
0000
0000
,
0000
0000
0000
0000
,
0000
0000
0000
0000
,
0000
0000
0000
0000
,
0000
0000
0000
0000
,
0000
0000
0000
0000
,
0000
0000
0000
0000
,
0000
0000
0000
0000
,
1000
0000
1000
0000
,
0001
0000
0001
0000
,
0100
0000
0100
0000
,
0010
0000
0010
0000
,
0000
1001
0000
0000
,
1000
0000
1000
0000
,
0010
0000
0010
0000
,
0100
0000
0100
0000
,
0001
0000
1000
0000
,
0001
0000
1000
0000
,
0010
0000
0100
0000
,
0010
0000
0100
0000
,
0001
0000
0010
0000
,
0001
0000
0010
0000
,
0100
0000
1000
0000
,
0100
0000
1000
0000
,
1001
0000
1000
0000
,
0001
0000
0100
0000
,
0001
0000
1000
0000
,
0010
0000
0100
0000
,
0110
0000
0010
0000
,
1000
0000
0100
0000
,
1000
0000
0001
0000
,
0100
0000
0010
0000
,
1001
0000
1000
0000
,
0010
0000
0100
0000
,
0001
0000
0010
0000
,
0100
0000
1000
0000
,
1001
0000
0010
0000
,
0100
0000
0001
0000
,
0010
0000
0100
0000
,
2002
0000
3003
0000
,
2000
0000
3100
0000
,
0001
0000
0100
0000
,
0002
0000
0013
0000
,
1000
0000
0010
0000
,
2000
0000
3010
0000
,
0001
0000
0010
0000
,
0002
0000
0103
0000
,
0001
1000
0200
0300
,
0020
0000
0031
0000
,
1000
0000
0001
0000
,
0200
0000
1300
0000
,
0001
0000
1000
0000
,
0020
0000
1030
0000
,
0001
0000
1000
0000
,
0200
0000
0301
0000
,
1000
0010
0200
0300
,
0110
0000
0010
0000
,
1000
0000
0100
0000
,
1100
0000
1000
0000
,
0001
0000
0010
0000
,
0011
0000
0001
0000
,
1000
0000
0100
0000
,
0000
1001
0000
0001
,
1000
0000
0100
0000
,
1001
0000
1000
0000
,
0010
0000
0100
0000
,
0101
0000
0001
0000
,
1000
0000
0010
0000
,
1010
0000
1000
0000
,
0010
0000
0100
0000
,
0110
0000
0010
0000
,
1000
0000
0000
0001
0000
0000
1000
0000
,
0000
0010
0000
0100
,
0100
0000
0001
0000
,
1000
0000
0100
0000
,
0001
0000
0100
0000
,
1000
0000
0010
0000
,
0001
0000
0010
0000
,
1000
0000
0001
0000
,
0100
0000
1000
0000
,
0100
0000
0001
0000
,
1000
0000
0100
0000
,
1001
0000
1000
0000
,
0001
0000
0010
0001
,
0001
0000
1000
0000
,
0010
0000
0100
0000
,
0110
0000
1000
0000
,
0001
0000
1000
0100
,
0100
0000
1000
0000
,
0001
1000
0200
0300
,
0110
0000
0010
0000
,
0001
0000
1000
0001
,
0001
0000
0100
0000
,
0001
1000
0100
0000
,
1001
0000
1000
0000
,
0010
0000
0100
0001
,
0100
0000
0010
1000
,
0200
0000
0300
0000
,
1000
0000
0010
0000
,
0100
0000
0001
0000
,
0010
0000
0100
0000
,
1000
0000
0001
0000
,
0100
0000
0010
0000
,
1000
0000
0100
0000
,
1000
0000
0001
0000
,
0100
0001
0001
0000
,
1001
0000
1000
0000
,
0010
0000
0100
0001
,
0001
0000
1000
0000
,
0100
0000
1000
0010
,
0010
0000
0100
0000
,
0001
0000
1000
0001
,
0000
0110
0000
1000
,
0001
0000
0100
0000
,
1001
0000
0001
0000
,
1000
0000
0010
1000
,
1000
0000
0100
0000
,
1000
0000
0001
0010
,
0010
0000
0001
0000
,
1000
0000
0010
1000
,
1001
0000
1000
0000
,
0010
0000
0000
0100
0000
0000
0010
0000
,
0000
1000
0000
0001
,
0001
0000
1000
0000
,
1001
0000
1000
0000
,
0010
0000
0100
0000
,
0101
0000
0001
0000
,
1000
0000
0010
0000
,
1010
0000
1000
0000
,
0001
0000
0010
0000
,
0110
0000
0100
0000
,
1000
0000
0001
0000
,
0101
0000
1000
0000
,
0100
0000
1000
0000
,
1010
0000
0001
0000
,
0010
0000
0001
0000
,
0101
0000
1000
0000
,
0001
0000
0010
0000
,
1010
0000
0010
0000
,
0001
0000
0100
0000
,
0002
0000
1000
0000
,
0100
0000
1000
0000
,
2003
0000
0001
0000
,
0010
0000
0001
0000
,
3020
0000
0100
0000
,
1000
0000
0100
0000
,
2030
0000
0001
0000
,
3001
1000
1001
0000
,
0002
0000
0010
0000
,
1000
0000
0010
0000
,
2003
0000
0010
0000
,
0001
0000
0010
0000
,
3020
0000
1000
0000
,
0001
0000
1000
0000
,
0230
0000
0001
0000
,
1000
0000
0001
0300
,
2002
0000
0000
0000
,
0000
0000
0000
0000
,
3003
0000
0000
0000
,
0000
0000
0000
0000
,
1000
0000
0100
0000
,
1000
0000
0001
0000
,
0010
0000
0001
0000
,
0100
0000
0010
0000
,
1000
0000
0100
0000
,
0010
0000
0001
0000
,
0000
1001
0000
0010
,
0200
0300
0110
0000
,
1000
0000
0001
0000
,
0010
0000
0100
0000
,
1000
0000
0010
0000
,
0100
0000
0001
0000
,
1000
0000
0100
0000
,
0010
0000
0001
0000
,
1001
0000
0001
0000
,
1000
0000
0000
0010
0000
0000
1000
0000
,
0000
0001
0000
0100
,
0001
0000
1000
0001
,
1000
1000
0100
0000
,
0001
0001
0100
0000
,
0010
1000
1000
0000
,
0010
0001
0001
0000
,
0100
0001
1000
0000
,
0010
1000
0100
0000
,
0010
0001
0100
0000
,
0001
1000
0100
0000
,
1000
0000
0000
0000
0000
0000
0001
0000
0000
0000
0000
0000
0000
1000
0000
0000
0000
0000
0000
0000
0000
1001
0000
0000
;

//---------------dance-single - Copied from Copied f----------------
#NOTES:
     dance-single:
     Copied from Copied f:
     Medium:
     8:
     0.744,0.758,0.884,0.358,0.003:
0000
0000
0000
0000
,
0000
0000
0000
0000
,
0000
0000
0000
0000
,
0000
0000
0000
0000
,
0000
0000
0000
0000
,
0000
0000
0000
0000
,
0000
0000
0000
0000
,
0000
0000
0000
0000
,
0001
1000
0100
1000
,
0010
0100
0001
0001
,
1000
0010
0100
0001
,
1000
0000
0000
0001
0000
0000
1000
0000
,
0000
1001
1000
0010
,
0100
0001
1000
1000
,
0100
1000
0010
0100
,
0001
0101
1000
1100
,
0002
0103
0001
1000
,
0020
0130
0001
1000
,
0200
1300
0010
0100
,
0002
0013
0001
1000
,
0020
1030
0100
1000
,
0002
0013
0001
0100
,
0020
1030
0100
1000
,
0200
0310
0001
1000
,
1001
0000
0000
1000
0000
0000
0001
0000
,
0000
0100
0001
0001
,
1000
0000
0000
0010
0000
0000
0100
0000
,
0000
0010
1000
1000
,
0001
0000
0000
0100
0000
0000
0001
0000
,
0000
1000
0010
0010
,
0100
0000
0000
0010
0000
0000
1000
0000
,
1001
0010
0110
0000
,
1001
0000
0000
0010
0000
0000
1000
0000
,
0000
0100
1000
1000
,
0010
0000
0000
0100
0000
0000
0001
0000
,
0000
1000
0010
0010
,
0100
0000
0000
0010
0000
0000
1000
0000
,
0000
0001
0010
0010
,
0011
0001
1000
1100
,
2002
0000
3003
0000
,
1010
0000
0000
0010
0000
0000
0100
0000
,
0101
0000
0000
0001
0000
0000
1000
0000
,
1010
0000
0000
1000
0000
0000
0100
0000
,
1100
0000
0000
1000
0000
0000
0010
0000
,
0110
0000
0000
0100
0000
0000
0001
0000
,
0011
0000
0000
0001
0000
0000
1000
0000
,
1100
0000
0000
0001
0000
0000
0010
0000
,
0011
1000
1010
0000
,
0101
0000
0000
0100
0000
0000
0010
0000
,
1010
0000
0000
1000
0000
0000
0001
0000
,
0101
0000
0000
0001
0000
0000
0010
0000
,
0011
0000
0000
0001
0000
0000
0100
0000
,
0110
0000
0000
0010
0000
0000
1000
0000
,
1100
0000
0000
1000
0000
0000
0001
0000
,
0011
0000
0000
1000
0000
0000
0100
0000
,
1100
0001
0101
0000
,
1000
0010
0100
0001
,
0101
0000
0000
1001
0000
0000
1010
0000
,
0010
0100
0001
1000
,
1100
0000
0000
1001
0000
0000
0011
0000
,
0001
1000
0010
0100
,
0101
0000
0000
1001
0000
0000
1100
0000
,
0000
1001
0000
0001
,
1001
0100
0110
0000
,
1000
0010
0100
0001
,
0011
0000
0000
1001
0000
0000
1100
0000
,
1000
0001
0010
0100
,
1100
0000
0000
1001
0000
0000
0011
0000
,
1000
0100
0010
0001
,
0101
0000
0000
1001
0000
0000
1010
0000
,
1001
0000
0000
1001
0000
0000
0100
0000
,
0110
0000
0000
1100
0000
0000
1001
0000
,
0000
0110
0000
1001
,
1001
0000
0000
1000
0000
0000
0001
0000
,
0200
0310
0001
1000
,
0020
0130
0001
1000
,
0002
0013
0100
1000
,
0200
1300
0010
0100
,
0002
0013
0100
1000
,
0200
1300
0010
0100
,
0002
0013
0001
1000
,
0020
0130
0001
1000
,
1001
0000
0000
0001
0000
0000
1000
0000
,
0000
0010
1000
1000
,
0001
0000
0000
0100
0000
0000
0010
0000
,
0000
0100
0001
0001
,
1000
0000
0000
0010
0000
0000
1000
0000
,
0000
0001
0100
0100
,
0010
0000
0000
0100
0000
0000
0001
0000
,
1001
0100
0110
0000
,
1001
0000
0000
0010
0000
0000
1000
0000
,
0000
0010
1000
1000
,
0001
0000
0000
0100
0000
0000
0010
0000
,
0000
1000
0010
0010
,
0100
0000
0000
0100
0000
0000
0001
0000
,
0000
1000
0100
0100
,
1100
1000
0001
0011
,
2002
0000
3003
0000
,
0101
0000
0000
0100
0000
0000
0010
0000
,
1010
0000
0000
1000
0000
0000
0001
0000
,
0101
0000
0000
0001
0000
0000
0010
0000
,
0011
0000
0000
0001
0000
0000
0100
0000
,
0110
0000
0000
0010
0000
0000
1000
0000
,
1100
0000
0000
1000
0000
0000
0001
0000
,
0011
0000
0000
1000
0000
0000
0100
0000
,
1100
0001
0101
0000
,
1000
0010
0100
0001
,
0011
0000
0000
1001
0000
0000
1100
0000
,
1000
0010
0100
0001
,
1010
0000
0000
1001
0000
0000
0101
0000
,
0001
0100
0010
1000
,
1010
0000
0000
0110
0000
0000
0101
0000
,
0000
1001
0000
0010
,
0200
0301
0101
0000
,
0001
0100
0010
1000
,
1100
0000
0000
1001
0000
0000
0011
0000
,
0001
0100
0010
1000
,
0101
0000
0000
1001
0000
0000
1010
0000
,
1000
0010
0100
0001
,
0101
0000
0000
0110
0000
0000
1010
0000
,
1001
0000
0000
0010
0000
0000
0100
0000
,
0101
0000
0000
0110
0000
0000
1010
0000
,
0000
1100
0000
1000
,
1001
0000
0000
0011
0000
0000
0101
0000
,
2000
3010
0100
0001
,
0020
0031
0100
0010
,
2000
3100
1000
0010
,
0200
0301
0010
0001
,
2000
3001
0010
0100
,
0020
0031
1000
0010
,
0200
0301
1000
0100
,
0020
0031
1000
0100
,
2000
0100
3001
0100
,
0020
0001
0130
0001
,
2000
0010
3001
0010
,
0200
0010
1300
0010
,
0020
1000
0130
1000
,
0002
0010
1003
0010
,
0200
1000
0310
1000
,
0020
0001
0130
0001
,
0002
0000
0000
1000
0000
0000
0100
0000
,
0100
0000
0000
1000
0000
0000
0010
0000
,
0203
0000
0000
0010
0000
0000
0001
0000
,
0001
0000
0000
0010
0000
0000
0001
0000
,
2300
0000
0000
0001
0000
0000
0010
0000
,
0010
0000
0000
0001
0000
0000
0100
0000
,
3020
0000
0000
1000
0000
0000
0100
0030
,
1001
1000
0110
0000
,
2000
0000
0000
0001
0000
0000
0010
0000
,
0010
0000
0000
0001
0000
0000
0100
0000
,
3020
0000
0000
0100
0000
0000
1000
0000
,
1000
0000
0000
0100
0000
0000
1000
0000
,
0032
0000
0000
1000
0000
0000
0100
0000
,
0100
0000
0000
1000
0000
0000
0010
0000
,
0203
0000
0000
0001
0000
0000
0010
0000
,
0001
0000
0000
0000
1000
0000
0000
0300
,
0220
0000
0000
0000
,
0330
0000
0000
0000
,
0000
0000
0000
0000
,
0000
0000
0000
0000
,
0010
1000
0100
0010
,
0011
0000
0000
1010
0000
0000
1100
0000
,
1000
0001
0100
0001
,
0011
0000
0000
0101
0000
0000
1100
0000
,
1000
0010
0100
0001
,
0011
0000
0000
0110
0000
0000
2100
0000
,
3000
1001
0000
0010
,
0110
0001
1001
0000
,
0100
0001
0010
0100
,
1100
0000
0000
0101
0000
0000
0011
0000
,
0001
1000
0010
1000
,
1100
0000
0000
1010
0000
0000
0011
0000
,
0001
0100
0010
1000
,
1100
0000
0000
0110
0000
0000
0010
0000
,
1010
0000
0000
1000
0000
0000
0100
0000
,
1100
0000
0000
1001
0000
0000
0012
0000
,
0003
1001
0000
0100
,
0100
0000
0000
0010
0000
0000
0001
0000
,
1000
0000
0100
0000
1000
0001
1000
0000
,
0001
0000
0100
0000
0001
1000
0001
0000
,
0100
0000
0010
0000
1000
0001
1000
0000
,
0010
0200
0301
1000
,
0100
0000
1000
0000
0010
0100
0010
0000
,
0100
0000
0001
0000
0100
0010
0100
0000
,
0010
0000
1000
0000
0010
0100
0010
0000
,
0100
0002
1003
0100
,
1000
0000
0000
0000
0000
0000
0010
0000
0000
0000
0000
0000
0000
0110
0000
0000
0000
0000
0000
0000
0000
2002
0000
0000
,
0000
3003
0000
0000
;

//---------------dance-single - Copied from Copied f----------------
#NOTES:
     dance-single:
     Copied from Copied f:
     Hard:
     10:
     0.957,0.948,0.709,0.256,0.003:
0000
0000
0000
0000
,
0000
0000
0000
0000
,
0000
0000
0000
0000
,
0000
0000
0000
0000
,
0000
0000
0000
0000
,
0000
0000
0000
0000
,
0000
0000
0000
0000
,
0000
0000
0000
0000
,
0001
0000
1000
0100
1000
0100
1000
0100
,
1000
0000
0010
0100
0010
0100
0010
0100
,
0010
0000
0100
0001
0100
0001
0100
0001
,
0100
0000
0000
0101
0000
0000
1001
0000
,
0000
0000
1001
0000
0010
1000
0010
1000
,
0010
0000
1000
0100
1000
0100
1000
0100
,
1000
0000
0001
0100
0001
0100
0001
0100
,
0001
0000
1000
0001
0000
0100
0010
0000
,
1001
0000
1000
0000
0010
0100
0010
0100
,
0010
0000
1000
0000
0001
1000
0001
1000
,
0001
0000
1000
0000
0010
0100
0010
0100
,
0010
0110
0001
1001
,
1000
0000
0010
0000
1000
0001
1000
0001
,
1000
0000
0010
0000
0100
0001
0100
0001
,
0100
0000
0001
0000
1000
0010
1000
0010
,
1000
1001
0010
0110
,
1001
0000
1000
0010
0000
0100
0010
0000
,
0200
0310
1000
0001
,
1001
0000
1000
0001
0000
0010
0001
0000
,
0100
0001
1001
1000
,
0110
0000
1000
0010
0000
1000
0001
0000
,
0200
0301
1000
0010
,
0110
0000
0100
0001
0000
0010
0001
0000
,
1001
0010
0110
0000
,
1000
0000
0001
1000
0000
0100
1000
0000
,
0020
0130
0001
1000
,
0100
0000
1000
0010
0000
0100
0001
0000
,
0020
0031
0100
0001
,
1000
0000
0001
0010
0000
0100
1000
0000
,
0020
0130
0001
1000
,
0001
1000
0000
0010
1000
0010
1000
0000
,
2002
0000
0000
3003
,
1000
0000
0001
1000
0000
0100
1000
0000
,
0001
0000
1000
0010
0000
0100
0001
0000
,
0010
0000
0001
0100
0000
0010
1000
0000
,
0100
0000
1000
0001
0000
0100
0001
0000
,
0010
0000
0001
1000
0000
0100
1000
0000
,
0010
0000
0100
0010
0000
1000
0001
0000
,
0100
0000
0001
1000
0000
0010
0100
0000
,
0101
1001
1100
0000
,
0001
0000
1000
0001
0000
0010
0001
0000
,
1000
0000
0001
0100
0000
0010
1000
0000
,
0100
0000
1000
0010
0000
0100
0001
0000
,
0010
0000
0001
1000
0000
0010
1000
0000
,
0100
0000
1000
0001
0000
0010
0001
0000
,
0100
0000
0010
0100
0000
0001
1000
0000
,
1010
0000
0000
1001
0000
0000
0101
0000
,
1001
0010
0110
0000
,
1000
0000
0001
0100
0001
0100
0001
0100
,
0001
0000
1000
0100
0000
1000
0001
0000
,
0010
0000
0001
0100
0001
0100
0001
0100
,
0001
0000
0100
0001
0000
1000
0010
0000
,
1000
0000
0100
1000
0100
1000
0100
1000
,
0100
0000
0010
0001
0000
0100
0010
0000
,
0000
1001
0000
0110
,
1001
0010
0110
0000
,
1000
0000
0010
1000
0010
1000
0010
1000
,
0010
0000
0100
0001
0000
0010
0001
0000
,
0100
0000
0010
0001
0010
0001
0010
0001
,
0010
0000
0100
1000
0000
0010
0100
0000
,
0001
0000
1000
0001
1000
0001
1000
0001
,
1000
0000
0010
0100
0000
0001
1000
0000
,
1100
0000
1000
0001
0000
0000
0100
0000
,
0101
0000
0000
1001
0000
0000
1100
0000
,
0000
1001
0000
0110
,
1001
0000
0000
0010
0000
0000
0100
0000
,
0001
0000
1000
0000
0010
1000
0010
1000
,
0100
0000
1000
0000
0010
0100
0010
0100
,
0001
0000
1000
0000
0001
0010
0001
0010
,
0100
0010
0011
1001
,
1010
0000
1000
0000
0001
1000
0001
1000
,
0100
0000
1000
0000
0010
0100
0010
0100
,
0001
0000
1000
0000
0010
1000
0010
1000
,
0001
0101
1000
1100
,
1001
0000
0001
0100
0000
0010
0100
0000
,
0020
0130
0001
1000
,
1001
0000
0001
1000
0000
0100
1000
0000
,
0010
1000
1001
0001
,
0110
0000
0001
0100
0000
0001
1000
0000
,
0020
1030
0001
0100
,
0110
0000
0010
1000
0000
0100
1000
0000
,
1001
0100
0110
0000
,
0001
0000
1000
0001
0000
0010
0001
0000
,
0200
0310
1000
0001
,
0010
0000
0001
0100
0000
0010
1000
0000
,
0200
1300
0010
1000
,
0001
0000
1000
0100
0000
0010
0001
0000
,
0200
0310
1000
0001
,
1000
0001
0000
0100
0001
0100
0001
0000
,
2002
0000
0000
3003
,
0001
0000
1000
0001
0000
0010
0001
0000
,
1000
0000
0001
0100
0000
0010
1000
0000
,
0100
0000
1000
0010
0000
0100
0001
0000
,
0010
0000
0001
1000
0000
0010
1000
0000
,
0100
0000
1000
0001
0000
0010
0001
0000
,
0100
0000
0010
0100
0000
0001
1000
0000
,
0010
0000
1000
0001
0000
0100
0010
0000
,
1010
1001
0011
0000
,
1000
0000
0010
0100
0010
0100
0010
0100
,
0001
0000
1000
0100
0000
0010
0001
0000
,
0100
0000
0001
1000
0001
1000
0001
1000
,
0010
0000
0100
0010
0000
1000
0001
0000
,
1000
0000
0100
1000
0100
1000
0100
1000
,
0010
0000
0100
0001
0000
0010
0001
0000
,
0000
1001
0000
1000
,
0110
0001
1001
0000
,
0110
0000
1000
0010
1000
0010
0100
0001
,
0100
0000
0001
0010
0000
0100
1000
0000
,
0010
0000
0100
0001
0100
0001
1000
0010
,
1000
0000
0010
1000
0000
0001
0100
0000
,
0001
0000
1000
0100
1000
0100
0010
0001
,
0010
0000
0001
1000
0000
0100
1000
0000
,
1001
0000
0010
0200
0000
0000
0301
0000
,
0101
0000
0000
1001
0000
0000
1010
0000
,
0000
1001
0000
0110
,
1001
0000
0000
1000
0000
0000
0010
0000
,
0110
0000
1000
0000
0001
1000
0001
1000
,
0100
0000
1000
0000
0010
0100
0010
0100
,
0001
0000
1000
0000
0010
1000
0010
1000
,
0001
0101
1000
1100
,
1001
0000
0010
0000
0100
0010
1000
0010
,
0100
0000
0010
0000
1000
0001
0100
0001
,
1000
0000
0010
0000
0100
0001
1000
0001
,
0100
0101
1000
1100
,
1001
0000
0001
0000
0100
0010
1000
0001
,
0100
0000
0001
0000
0100
0001
1000
0010
,
0100
0000
0001
0000
1000
0010
0100
0001
,
1000
1100
0001
0101
,
1001
0000
1000
0000
0001
0010
0100
1000
,
0010
0000
0100
0000
0010
0100
1000
0001
,
0100
0000
0001
0000
1000
0100
0010
0001
,
0100
0101
1000
1100
,
2001
0000
0000
0100
0000
0000
0001
0000
,
0002
0000
0000
0010
0000
0000
0100
0000
,
3213
0000
0000
0001
0000
0000
0010
0000
,
0020
0000
0000
1000
0000
0000
0001
0000
,
1332
0000
0000
0010
0000
0000
0100
0000
,
0200
0000
0000
0010
0000
0000
1000
0000
,
2313
0000
0000
0002
0000
0000
3103
0000
,
0101
1001
1100
0000
,
2001
0000
0000
0100
0000
0000
0001
0000
,
0002
0000
0000
0010
0000
0000
0100
0000
,
3213
0000
0000
0001
0000
0000
0010
0000
,
0020
0000
0000
1000
0000
0000
0001
0000
,
1332
0000
0000
0010
0000
0000
0100
0000
,
0200
0000
0000
0010
0000
0000
1000
0000
,
2313
0000
0000
0001
0000
0000
0010
0000
,
0002
0000
0000
0100
0000
0000
0010
0000
,
3123
0000
0000
0001
0000
0000
1000
0000
,
0100
0000
0000
1000
0000
0000
0200
0000
,
0000
0000
0001
0000
0000
1000
0001
0000
,
2002
0000
0000
0000
0000
0000
0000
3333
,
1001
0000
1000
0100
0010
0001
0010
0100
,
1000
0000
0001
0010
0000
0100
1000
0000
,
0100
0000
0010
0001
0010
0100
1000
0100
,
0010
0000
0001
1000
0000
0100
1000
0000
,
0001
0000
1000
0100
0010
0001
0100
0010
,
1000
0000
0010
0100
0000
0001
1000
0000
,
0000
1001
0000
1000
,
0110
0001
1001
0000
,
1000
0000
0001
0010
0100
1000
0010
0100
,
0001
0000
1000
0100
0000
0010
0001
0000
,
1000
0000
0010
1000
0100
0010
0001
1000
,
0010
0000
0100
0010
0000
1000
0001
0000
,
1000
0000
0100
0010
0001
1000
0010
0100
,
0001
0000
1000
0100
0000
0010
0001
0000
,
1001
0000
0010
0200
0000
0000
0310
0000
,
0110
0000
0000
1000
0001
0000
1001
0000
,
0000
0110
0000
1000
,
1001
0000
0001
0010
0000
0100
1000
0000
,
1001
0000
1000
0000
0001
0010
0100
1000
,
0010
0000
0100
0000
0010
1000
0100
0010
,
0001
0000
0100
0000
0001
1000
0100
0010
,
0001
1000
1100
1001
,
0101
0000
1000
0000
0010
1000
0010
0100
,
0001
0000
0010
0000
0100
1000
0010
0100
,
0001
0000
0100
0000
0001
1000
0100
0010
,
0001
0101
1000
0010
,
1010
0000
0000
0000
0000
0000
1001
0000
0000
0000
0000
0000
0000
0110
0000
0000
0000
0000
0000
0000
0000
2002
0000
0000
,
0000
3003
0000
0000
;
