#TITLE:Sword of Valiant -Dark Power-;
#SUBTITLE:;
#ARTIST:SYNC.ART;
#TITLETRANSLIT:;
#SUBTITLETRANSLIT:;
#ARTISTTRANSLIT:;
#CREDIT:;
#BANNER:Sword of Valiant -Dark Power-.png;
#BACKGROUND:Sword of Valliant -Dark Power-bg.png;
#LYRICSPATH:;
#CDTITLE:XeniSys 87 Logo.png;
#MUSIC:Sword of Valiant -Dark Power-.mp3;
#OFFSET:-0.220;
#SAMPLESTART:69.080;
#SAMPLELENGTH:17.100;
#SELECTABLE:YES;
#BPMS:0.000=170.000;
#STOPS:;
#BGCHANGES:;

//---------------dance-single - ----------------
#NOTES:
     dance-single:
     :
     Beginner:
     2:
     0.192,0.247,0.010,0.048,0.000: // measure 1
1000
0000
0000
0000
,  // measure 2
0100
0000
0000
0000
,  // measure 3
0010
0000
0000
0000
,  // measure 4
0001
0000
0000
0000
,  // measure 5
0100
0000
0000
0000
,  // measure 6
0010
0000
0000
0000
,  // measure 7
1000
0000
0000
0000
,  // measure 8
0001
0000
0000
0000
,  // measure 9
1000
0000
1000
0000
,  // measure 10
0001
0000
0001
0000
,  // measure 11
1000
0000
1000
0000
,  // measure 12
0001
0000
0001
0000
,  // measure 13
0100
0000
0100
0000
,  // measure 14
0010
0000
0010
0000
,  // measure 15
0100
0000
0100
0000
,  // measure 16
0010
0000
0010
0000
,  // measure 17
2000
0000
3000
0000
,  // measure 18
0001
0000
0100
0000
,  // measure 19
0001
0000
0100
0000
,  // measure 20
0010
0000
1000
0000
,  // measure 21
0100
0000
0000
0000
,  // measure 22
1000
0000
0100
0000
,  // measure 23
1000
0000
0100
0000
,  // measure 24
0010
0000
0001
0000
,  // measure 25
0100
0000
0000
0000
,  // measure 26
0010
0000
1000
0000
,  // measure 27
0100
0000
1000
0000
,  // measure 28
0001
0000
0010
0000
,  // measure 29
1000
0000
0000
0000
,  // measure 30
0100
0000
0001
0000
,  // measure 31
0010
0000
0001
0000
,  // measure 32
1000
0000
0010
0000
,  // measure 33
0001
0000
0000
0000
,  // measure 34
1000
0000
0100
0000
,  // measure 35
0001
0000
0100
0000
,  // measure 36
1000
0000
0100
0000
,  // measure 37
0001
0000
0100
0000
,  // measure 38
1000
0000
0010
0000
,  // measure 39
0001
0000
0010
0000
,  // measure 40
1000
0000
0000
0000
,  // measure 41
1001
0000
0000
0000
,  // measure 42
0002
0000
0000
0103
,  // measure 43
0100
0000
0010
0000
,  // measure 44
1000
0000
0001
0000
,  // measure 45
1000
0000
0000
0100
,  // measure 46
0200
0000
0000
0310
,  // measure 47
0010
0000
0001
0000
,  // measure 48
0010
0000
0001
0000
,  // measure 49
1000
0000
0000
0000
,  // measure 50
0002
0000
0000
1003
,  // measure 51
1000
0000
0001
0000
,  // measure 52
0100
0000
0010
0000
,  // measure 53
1000
0000
1000
0001
,  // measure 54
0002
0000
0103
0000
,  // measure 55
0010
0010
0010
0010
,  // measure 56
0010
0000
0000
0000
,  // measure 57
0100
0000
0000
0000
,  // measure 58
0010
0000
1000
0000
,  // measure 59
0010
0000
1000
0000
,  // measure 60
0001
0000
0100
0000
,  // measure 61
0001
0000
0100
0000
,  // measure 62
0010
0000
1000
0000
,  // measure 63
0001
0000
1000
0000
,  // measure 64
0001
0000
0010
0000
,  // measure 65
0001
0000
1000
0000
,  // measure 66
0100
0000
0010
0000
,  // measure 67
0001
0000
0100
0000
,  // measure 68
0001
0000
0010
0000
,  // measure 69
0100
0000
1000
0000
,  // measure 70
0010
0000
0100
0000
,  // measure 71
0001
0001
0001
0001
,  // measure 72
0001
0000
0000
0000
,  // measure 73
1000
0000
0000
0000
0000
0001
0000
0001
;

//---------------dance-single - Copied from----------------
#NOTES:
     dance-single:
     Copied from:
     Easy:
     5:
     0.444,0.494,0.329,0.136,0.000:
2000
0000
0000
0000
,
3200
0000
0000
0000
,
0320
0000
0000
0000
,
0032
0000
0000
0000
,
1003
0000
0000
0100
0000
0000
1000
0000
,
0001
0000
0000
0100
0000
0000
0001
0000
,
0100
0000
0000
0001
0000
0000
1000
0000
,
0010
0000
0000
1000
0000
0000
0001
0000
,
1000
0100
0001
0100
,
1000
0100
0001
0100
,
1000
0010
0001
0010
,
1000
0010
0001
0010
,
1000
1010
0001
0011
,
1000
1010
0001
0011
,
0100
1100
0010
0011
,
0100
1100
0010
0011
,
1001
0000
0000
0000
,
0000
1000
0000
1000
0000
0100
0000
0100
,
0000
0001
0000
0001
0000
0100
0000
0100
,
0000
1000
0000
1000
0000
0010
0000
0010
,
0000
0001
0000
0001
0000
0010
0000
0010
,
0000
1000
0000
0100
0000
0001
0000
0100
,
0000
1000
0000
0100
0000
0001
0000
0100
,
0000
1000
0000
0010
0000
0001
0000
0010
,
0000
1000
0000
0010
0000
0001
0000
0010
,
0000
1010
0000
0010
0000
1000
0000
0100
,
0000
0101
0000
0100
0000
1000
0000
0010
,
0000
0011
0000
0010
0000
1010
0000
1000
,
0000
1100
0000
0101
0000
1100
0000
1000
,
0000
1010
0000
0010
0000
1000
0000
0100
,
0000
0011
0000
0001
0000
0100
0000
0010
,
0000
1010
0000
1100
0000
0011
0000
0101
,
0000
1010
0000
0101
0000
1010
0000
0010
,
1000
0010
0100
0001
,
0020
0130
2000
3001
,
0010
0100
0001
1000
,
0200
0310
0002
1003
,
1100
1000
0101
0001
,
1010
1000
0011
0001
,
0220
0000
0000
0330
,
1001
0000
0000
1001
0000
0000
0000
0000
,
1000
0100
0000
0100
0000
0010
0000
0010
,
0000
0001
0000
0001
0000
0100
0000
0100
,
0000
0010
0000
0010
0000
1000
0000
1000
,
0000
0100
0000
0100
0000
1000
0000
1000
,
0001
0010
0000
0010
0000
0100
0000
0100
,
0000
1000
0000
1000
0000
0001
0000
0001
,
0000
0100
0000
0100
0000
0010
0000
0010
,
0000
1000
0000
1000
0000
0001
0000
0001
,
1000
0010
0000
0100
0000
0010
0000
0100
,
0001
1000
0000
0100
0000
1000
0000
0100
,
1000
0010
0000
0100
0000
0010
0000
0100
,
0001
0010
0000
0001
0000
0010
0000
0001
,
1000
0000
0000
0010
0000
0000
0100
0000
,
0001
0000
1000
0000
0001
1000
0000
2002
,
0000
0000
0000
0000
0000
0000
0000
3003
,
0000
0000
0000
0000
,
1000
0010
0000
0100
0000
0001
0000
0010
,
0000
0100
0000
1000
0000
0010
0000
0100
,
0001
1000
0000
0100
0000
0010
0000
0001
,
0000
0100
0000
0010
0000
1000
0000
0001
,
0100
0010
0000
1000
0000
0100
0000
1000
,
0000
0001
0000
0010
0000
0001
0000
0100
,
0010
1000
0000
0100
0000
1000
0000
0010
,
0000
0100
0000
0001
0000
0010
0000
0001
,
1000
0100
0000
1000
0000
0100
0000
1000
,
0010
0100
0000
0010
0000
0100
0000
0010
,
0100
0001
0000
0010
0000
0001
0000
0010
,
0001
0100
0000
0001
0100
0000
0001
1000
,
0100
0000
0000
1000
0000
0000
0010
0000
,
0100
0000
0001
0000
1000
0001
0000
2002
,
0000
0000
0000
0000
0000
3003
0000
0000
,
1000
0000
0001
0000
0100
0010
0100
0010
;

//---------------dance-single - Copied from Copied f----------------
#NOTES:
     dance-single:
     Copied from Copied f:
     Medium:
     8:
     0.638,0.671,0.872,0.184,0.005:
0002
0000
0000
0000
,
0023
0000
0000
0000
,
0230
0000
0000
0000
,
2300
0000
0000
0000
,
3001
0000
1000
0001
0000
0001
1000
0000
,
0110
0000
0010
0100
0000
0100
0010
0000
,
1001
0000
1000
0001
0000
0010
0100
0000
,
0110
0000
0001
1000
0000
0010
0100
0000
,
0010
1000
0010
1000
0001
1000
0001
0000
,
0100
0001
0100
0001
1000
0001
1000
0000
,
0001
0010
0001
0010
1000
0010
1000
0000
,
1000
0010
1000
0010
0001
0010
0001
0000
,
1000
0010
0100
0010
0001
0010
0100
0000
,
0001
0010
0100
0010
1000
0010
0100
0000
,
0001
0100
1000
0100
0001
0010
0100
0000
,
1000
0100
0001
0100
1000
0010
0100
0001
,
1001
0000
0000
0000
,
1000
0100
1000
0100
0010
0001
0100
0000
,
0011
0000
0001
1000
0000
1000
0001
0000
,
1000
0010
1000
0010
0100
0000
0001
0011
,
0000
0001
0000
0100
0000
0010
0000
1000
,
0001
0010
0001
0010
0100
1000
0010
0000
,
1010
0000
1000
0001
0000
0001
1000
0000
,
0001
0100
0001
0100
0010
0000
1000
1100
,
0000
0010
0000
0001
0000
0100
0000
0010
,
1000
0001
1000
0001
0100
0010
1000
0000
,
1010
0000
0010
0110
0000
0100
0001
0000
,
0010
0001
0010
0001
0100
0000
0010
0100
,
0000
0010
0000
1000
0000
0010
0000
0100
,
0001
1000
0001
1000
0010
0100
0001
0000
,
0011
0000
0010
0100
0000
0100
1000
0000
,
0100
1000
0100
1000
0010
0000
0100
0101
,
0000
0001
0000
0100
0000
0010
0000
1000
,
1020
1000
0001
0130
,
0021
0001
1000
0130
,
1020
0001
0100
1030
,
1200
1000
0010
0301
,
0021
0001
0100
1030
,
0200
0000
1300
0010
,
0220
0000
0000
0330
,
1000
0000
0000
0001
0000
0000
1001
0000
0000
0000
0000
0000
0000
0000
0000
0000
,
1000
1100
0000
0101
0000
1100
0000
1010
,
0001
0011
0000
1010
0000
0011
0000
0101
,
1000
1100
0000
0101
0000
1100
0000
0101
,
0001
1010
0000
0011
0000
1010
0000
0101
,
1000
1100
0000
1010
0000
1100
0000
1010
,
0001
0101
0000
0011
0000
0101
0000
0011
,
1000
0000
1000
0010
0000
0010
0100
0000
,
0202
0000
0000
0303
,
1000
1010
0000
0110
0000
0011
0000
0110
,
1000
1100
0000
0110
0000
0101
0000
0110
,
0010
0000
0100
0001
0000
0001
1000
0000
,
1000
0010
0100
0001
0010
0000
0001
0100
,
1100
0000
0000
1001
0000
0000
0101
0000
,
1000
0000
0010
0000
0100
0001
0000
2200
,
0000
0000
0000
0000
0000
0000
0000
3300
,
0000
0000
0000
0000
,
1000
1100
0000
0101
0000
1100
0000
1000
,
0010
1010
0000
0011
0000
1010
0000
1000
,
0010
1010
0000
0001
0100
0101
0000
1000
,
0010
1010
0000
0011
0000
1010
0000
0001
,
0100
0101
0000
1010
0000
0101
0000
0010
,
1000
1010
0000
1000
0001
0101
0001
0000
,
1000
0010
0100
0101
0000
1010
1000
0001
,
0020
0100
0001
0100
,
1030
1010
0000
0110
0000
1010
0000
1000
,
0001
0011
0000
0101
0000
0011
0000
0001
,
0100
0110
0000
0101
0000
0110
0000
0010
,
1000
1010
0000
1000
1001
0000
0010
0100
,
0110
0000
0001
1000
0000
0100
0010
0000
,
1001
0000
1100
0000
0010
0001
0000
0202
,
0000
0000
0010
0000
1000
0000
0010
0303
,
0001
0010
0100
1000
0010
0100
0001
1100
;

//---------------dance-single - Copied from Copied f----------------
#NOTES:
     dance-single:
     Copied from Copied f:
     Hard:
     10:
     0.880,0.954,1.000,0.358,0.276:
2000
0100
0001
0100
,
3200
0010
0001
0010
,
0320
0001
0100
0001
,
0032
1000
0010
1000
,
1003
0000
0000
0001
0000
0000
0010
0000
0000
0100
0000
0000
1000
0000
0000
0000
,
0001
0000
0000
1000
0000
0000
0100
0000
0000
0010
0000
0000
0001
0000
1000
0000
,
0100
0000
0000
1000
0000
0000
0010
0000
0000
0100
0000
0000
0001
0000
0000
0000
,
0010
0000
0000
0001
0000
0000
1000
0000
0000
0010
0000
0000
0100
0000
0001
0000
,
1100
0000
1000
0100
0000
1000
0100
0000
0010
0001
0000
0010
0001
0000
0100
0000
,
0101
0000
0001
0010
0000
0001
0010
0000
0100
1000
0000
0100
1000
0000
0010
0000
,
1010
0000
1000
0001
0000
1000
0001
0000
0100
0010
0000
0100
0010
0000
0100
0000
,
0101
0000
0001
1000
0000
0001
1000
0000
0010
0100
0000
0010
0100
0000
0010
0000
,
1010
0000
1000
0010
0000
0100
0001
0000
0010
0100
0000
1000
0010
0000
0100
0000
,
0101
0000
0001
0100
0000
0010
1000
0000
0100
0010
0000
0001
0100
0000
0010
0000
,
1010
0000
0100
0010
0000
1000
0010
0000
0100
0001
0000
0010
0001
0000
0100
0000
,
0101
0000
1000
0010
0000
0100
0001
0000
0010
0100
0000
1000
0010
0000
0100
0000
,
0220
0000
0000
0330
,
1100
0100
0010
0001
0100
1000
1100
0000
,
0011
0010
0100
1000
0010
0001
0011
0000
,
1100
0100
0010
0011
0101
0000
0101
0011
,
0000
0001
0000
0100
0000
0010
0000
1000
,
0011
0010
0100
1000
0010
0001
0011
0000
,
1100
0100
0010
0001
0100
1000
1100
0000
,
0011
0010
0100
1100
1010
0000
1010
1100
,
0000
0010
0000
0100
0000
0001
0000
1000
,
0101
0100
0010
1000
0010
0001
0011
0000
,
0101
0001
1000
0010
0100
1000
1100
0000
,
0110
1000
0001
0101
0110
0000
0110
0101
,
0000
1000
0000
0010
0000
0100
0000
0001
,
0110
0010
1000
0001
0010
1000
0011
0000
,
0110
0010
0001
1000
0010
0001
1010
0000
,
0101
0001
1000
1100
1001
0000
1001
1100
,
0000
0010
1000
0100
0001
0100
1000
0010
,
0200
0010
0010
0000
0002
1000
1000
0000
,
0323
1000
1000
0000
0200
0001
0001
0000
,
2330
0001
0001
0000
0020
0100
0100
0000
,
3032
1000
1000
0000
0200
0010
0010
0000
,
2313
0001
0001
0000
3020
0100
0100
0000
,
0232
1000
0010
1000
,
2323
0000
0000
0000
,
3131
0000
0000
1010
0000
0000
1001
0000
0000
0000
0000
0000
0000
0000
0000
0000
,
1000
1100
0000
0011
0000
1010
1000
0101
,
0001
1100
0000
0011
1000
1010
0001
1100
,
1010
0101
0000
0011
0101
0110
0000
1100
,
1010
0101
0000
0011
0000
1010
1000
0110
,
0100
0101
0000
1100
0000
1010
0101
0100
,
0102
0000
0010
0000
2000
0000
0100
3003
,
0010
1000
0010
1000
0010
0000
1000
0001
1000
0001
1000
0000
0001
0010
0001
0010
,
0002
1000
0010
0103
,
1000
0110
0000
1010
0000
0110
0000
0101
,
1010
1100
0000
1001
1010
0101
0000
1010
,
1002
0000
0000
0200
0000
0000
0020
0000
,
2000
0000
0003
0001
0002
3330
1003
0100
,
2200
0000
0000
0010
0000
0000
0301
3000
,
0101
0000
1001
0000
1000
0010
0000
0220
,
0000
0000
0000
0000
0000
0000
0000
0330
,
0000
0000
0000
0000
,
1100
0100
0010
0001
0100
0001
0011
0110
,
1100
1000
0010
0100
0011
0011
0101
0101
,
0011
0001
1000
0100
1100
1000
0010
0100
,
0101
0001
1000
0100
1000
0010
0101
0010
,
0101
0001
1000
0010
0100
0001
0110
1010
,
1100
1000
0110
0001
0101
1000
1100
0001
,
1000
0010
0100
0001
0100
0000
0001
0100
0010
1000
0010
0000
1000
0010
0100
0001
,
0100
0101
1000
1100
1000
0001
0110
0010
,
0110
1000
0100
0010
0011
0010
0100
1000
,
1010
0010
0100
0001
0011
0010
0100
1000
,
1100
0010
0100
0101
0001
0100
0110
1000
,
1001
0010
0100
0101
1001
1000
1100
0110
,
0011
1000
0100
1100
1000
0001
0101
1000
,
2020
0000
0002
0000
0100
0100
0030
3223
,
0000
0001
1000
0331
,
1000
0000
0010
0000
0100
0000
0001
0000
0010
0100
1000
0010
0100
0001
1000
0100
;
