#TITLE:PARANOiA (HADES);
#SUBTITLE:-Midnight Mix-;
#ARTIST:aTYPE-300;
#TITLETRANSLIT:;
#SUBTITLETRANSLIT:;
#ARTISTTRANSLIT:;
#CREDIT:cdtitle.png;
#BANNER:PARANOiA (HADES) ~Midnight Mix~.png;
#BACKGROUND:PARANOiA (HADES) ~Midnight Mix~-bg.png;
#LYRICSPATH:;
#CDTITLE:CD_Title.png;
#MUSIC:PARANOiA (HADES) ~Midnight Mix~.mp3;
#OFFSET:-0.015;
#SAMPLESTART:78.440;
#SAMPLELENGTH:20.000;
#SELECTABLE:YES;
#BPMS:0.000=600.000,32.000=300.000,128.000=600.000,136.000=300.000,164.000=600.000,172.000=300.000,264.000=1200.002,268.000=630.000,269.000=75.004,285.000=149.995,325.000=300.004,334.000=300.000,453.000=599.996,584.000=150.000;
#STOPS:0.000=0.040
,264.000=0.780
,265.000=0.150
,266.000=0.150
,267.000=0.155
,268.000=0.100
,581.000=0.110
,582.000=0.250
,583.000=0.140
,584.000=0.170
;
#BGCHANGES:0.000=PARANOiA (HADES) ~Midnight Mix~.avi=1.000=0=0=1,
585.000=PARANOiA (HADES) ~Midnight Mix~-bg.png=1.000=0=0=1,
99999=-nosongbg-=1.000=0=0=0 // don't automatically add -songbackground-
;

//---------------pump-single - ----------------
#NOTES:
     pump-single:
     :
     Challenge:
     1:
     0.000,0.000,0.000,0.000,0.000:
00000
00000
00000
00000
;

//---------------dance-single - Copied from----------------
#NOTES:
     dance-single:
     Copied from:
     Easy:
     6:
     0.375,0.556,0.173,0.166,0.000: // measure 1
0000
0000
0000
0000
,  // measure 2
0000
0000
0000
0000
,  // measure 3
0000
0000
0000
0000
,  // measure 4
0000
0000
0000
0000
,  // measure 5
0000
0000
0000
0000
,  // measure 6
0000
0000
0000
0000
,  // measure 7
0000
0000
0000
0000
,  // measure 8
0000
0000
0000
0000
,  // measure 9
1000
0000
0001
0000
,  // measure 10
1000
0000
0000
0000
,  // measure 11
0010
0000
0000
0000
,  // measure 12
0100
0000
0000
0000
,  // measure 13
0001
0000
1000
0000
,  // measure 14
0001
0000
0000
0000
,  // measure 15
0100
0000
0000
0000
,  // measure 16
0010
0000
0000
0000
,  // measure 17
1000
0000
1000
0001
,  // measure 18
1000
0100
0000
1100
,  // measure 19
0000
0000
1000
0000
,  // measure 20
0001
0000
0000
0000
,  // measure 21
1000
0000
0001
1000
,  // measure 22
0001
0010
0000
0011
,  // measure 23
0000
0000
0001
0000
,  // measure 24
1000
0000
0001
0000
,  // measure 25
0100
0000
0100
0010
,  // measure 26
1000
0010
0000
0110
,  // measure 27
0000
0000
0001
0000
,  // measure 28
1000
0000
0001
0010
,  // measure 29
0001
0000
0100
0001
,  // measure 30
0100
0010
0000
1010
,  // measure 31
1000
0000
0001
0000
,  // measure 32
0100
0010
1000
0001
,  // measure 33
0020
0000
0000
0000
,  // measure 34
0000
0000
0000
0000
,  // measure 35
0130
0000
0100
0000
,  // measure 36
0010
0000
1000
0000
,  // measure 37
0001
0000
0100
0000
,  // measure 38
0001
0000
0001
0000
,  // measure 39
1000
0000
0010
0000
,  // measure 40
1000
0000
0001
0000
,  // measure 41
0100
0000
0010
0000
,  // measure 42
2000
0000
0000
0000
,  // measure 43
0000
0000
0000
0000
,  // measure 44
3001
0000
0001
0000
,  // measure 45
0100
0000
0010
0000
,  // measure 46
1000
0000
0100
0000
,  // measure 47
1000
0000
1000
0000
,  // measure 48
0010
0000
0100
0000
,  // measure 49
0001
0000
0001
0000
,  // measure 50
0100
0000
0010
0000
,  // measure 51
1000
0000
0100
0000
,  // measure 52
1000
0010
0100
0001
,  // measure 53
0010
0000
0001
0000
,  // measure 54
0010
0001
0100
0010
,  // measure 55
1000
0000
0100
0000
,  // measure 56
1000
0001
0100
0010
,  // measure 57
1000
0000
0010
0000
,  // measure 58
0100
0001
0010
0100
,  // measure 59
1000
0000
0010
0000
,  // measure 60
0100
0001
1000
0010
,  // measure 61
0100
0000
0001
0000
,  // measure 62
1000
0100
0010
0001
,  // measure 63
0100
0000
0001
0000
,  // measure 64
1000
0010
0100
0001
,  // measure 65
0010
0000
0001
0000
,  // measure 66
0100
0100
0010
1000
,  // measure 67
0002
0000
0000
0000
,  // measure 68
0000
0003
1000
0100
,  // measure 69
1000
0010
0100
0001
,  // measure 70
0010
0011
0001
0100
,  // measure 71
0010
1000
0100
1000
,  // measure 72
0010
0100
0100
0010
,  // measure 73
1000
0100
0100
0010
,  // measure 74
0001
0100
0100
1000
,  // measure 75
0100
0001
0001
0010
,  // measure 76
0001
0100
0100
1000
,  // measure 77
0010
0001
0001
0010
,  // measure 78
1000
0100
0100
0001
,  // measure 79
0010
1000
1000
0001
,  // measure 80
0010
1000
0100
0001
,  // measure 81
0010
1000
0100
1000
,  // measure 82
0010
0001
0100
1000
,  // measure 83
0100
0010
0000
0110
,  // measure 84
0000
0010
1000
0100
,  // measure 85
0001
0100
0000
0110
,  // measure 86
0000
0010
0001
0100
,  // measure 87
1000
0100
0000
0110
,  // measure 88
0000
1000
0100
0001
,  // measure 89
0100
1000
0010
0001
,  // measure 90
0010
0010
1000
0100
,  // measure 91
0001
0100
0000
0110
,  // measure 92
0000
0001
0100
0001
,  // measure 93
0010
1000
0000
0110
,  // measure 94
0000
1000
0010
1000
,  // measure 95
0100
0001
0000
0110
,  // measure 96
0000
0001
1000
0010
,  // measure 97
0001
0100
0000
0110
,  // measure 98
0000
1000
0010
0100
,  // measure 99
0002
0000
1000
1003
,  // measure 100
0000
0010
0100
0001
,  // measure 101
0000
1000
0010
0100
,  // measure 102
0000
0001
0100
0010
,  // measure 103
1000
0100
0000
1100
,  // measure 104
0000
1001
0000
0110
,  // measure 105
0000
0010
0001
0200
,  // measure 106
0000
0300
0110
0000
0000
0000
0010
0000
,  // measure 107
1000
0001
0000
1001
,  // measure 108
0000
0110
0000
0010
,  // measure 109
1000
0100
0000
0110
,  // measure 110
0000
0011
0000
0010
,  // measure 111
0001
0100
0000
0110
,  // measure 112
0000
1010
0000
0010
,  // measure 113
1000
0001
0100
0110
,  // measure 114
0000
2000
0000
0000
,  // measure 115
0000
0000
0000
0000
,  // measure 116
0000
0000
0000
0000
,  // measure 117
0000
0000
0000
0000
,  // measure 118
0000
3002
0000
0000
,  // measure 119
0000
0000
0000
0000
,  // measure 120
0000
0000
0000
0000
,  // measure 121
0000
0000
0000
0000
,  // measure 122
0000
0203
0000
0000
,  // measure 123
0000
0000
0000
0000
,  // measure 124
0000
0000
0000
0000
,  // measure 125
0000
0000
0000
0000
,  // measure 126
0000
0320
0000
0000
,  // measure 127
0000
0000
0000
0000
,  // measure 128
0000
0000
0000
0000
,  // measure 129
0000
0000
0000
0000
,  // measure 130
0000
2030
0000
0000
,  // measure 131
0000
3020
0000
0000
,  // measure 132
0000
0230
0000
0000
,  // measure 133
0000
0302
0000
0000
,  // measure 134
0000
0023
0000
0000
,  // measure 135
0000
0230
0000
0000
,  // measure 136
0000
2300
0000
0000
,  // measure 137
0000
3002
0000
0000
,  // measure 138
0000
0203
0000
0000
,  // measure 139
0000
0320
0000
0000
,  // measure 140
0000
2030
0000
0000
,  // measure 141
0000
3002
0000
0000
,  // measure 142
0000
1003
0000
0000
,  // measure 143
0000
0001
0000
0000
,  // measure 144
0000
1000
0000
0001
,  // measure 145
0000
1000
0000
0001
,  // measure 146
0000
1000
0001
0001
,  // measure 147
1000
0002
0000
0000
0000
0000
0000
0000
,  // measure 148
0000
0000
0000
0000
0000
0003
0000
0000
;

//---------------dance-single - ----------------
#NOTES:
     dance-single:
     :
     Beginner:
     3:
     0.180,0.275,0.030,0.068,0.000:
0000
0000
0000
0000
,
0000
0000
0000
0000
,
0000
0000
0000
0000
,
0000
0000
0000
0000
,
0000
0000
0000
0000
,
0000
0000
0000
0000
,
0000
0000
0000
0000
,
0000
0000
0000
0000
,
1000
0000
0000
0000
,
0000
0000
0000
0000
,
0001
0000
0000
0000
,
0000
0000
0000
0000
,
0100
0000
0000
0000
,
0000
0000
0000
0000
,
0010
0000
0000
0000
,
0000
0000
0000
0000
,
1000
0000
0001
0000
,
1000
0000
0000
1001
,
0000
0000
0000
0000
,
0010
0000
0000
0000
,
0100
0000
0010
0000
,
0100
0000
0000
0110
,
0000
0000
0000
0000
,
1000
0000
0000
0000
,
0001
0000
0100
0000
,
0001
0000
0000
1001
,
0000
0000
0000
0000
,
1000
0000
0000
0000
,
0010
0000
1000
0000
,
0010
0000
0000
1000
,
1000
0000
1000
0000
,
0001
0000
0100
0000
,
0010
0000
0000
0000
,
0000
0000
0000
0000
,
0010
0000
0000
0000
,
0100
0000
0010
0000
,
1000
0000
0000
0000
,
0001
0000
0000
0000
,
1000
0000
0000
0000
,
0010
0000
1000
0000
,
0100
0000
0010
0000
,
0001
0000
0000
0000
,
0000
0000
0000
0000
,
0001
0000
0000
0000
,
0100
0000
0010
0000
,
1000
0000
0000
0000
,
0001
0000
0000
0000
,
1000
0000
0000
0000
,
0010
0000
0100
0000
,
0001
0000
1000
0000
,
0100
0000
0000
0000
,
1000
0000
0000
0000
,
0010
0000
0000
0000
,
0100
0000
0000
0000
,
0001
0000
0000
0000
,
1000
0000
0000
0000
,
0100
0000
0000
0000
,
0010
0000
0000
0000
,
0001
0000
0001
0000
,
0001
0000
0000
0000
,
1000
0000
1000
0000
,
1000
0000
0000
0000
,
0010
0000
0010
0000
,
0010
0000
0000
0000
,
0100
0000
0100
0000
,
0010
0000
0100
0000
,
0010
0000
0000
0000
,
0000
0000
0010
0000
,
0100
0000
0001
0000
,
1000
0000
0100
0000
,
0010
0000
0001
0000
,
0100
0010
0000
0010
,
0000
1000
0000
0001
,
0000
0100
0000
0100
,
0000
0010
0000
1000
,
0000
0001
0000
0100
,
0000
1000
0000
0010
,
0000
0001
0000
0010
,
0000
1000
0000
0100
,
0000
0001
0000
0010
,
0000
1000
0000
0001
,
0000
0100
0000
0010
,
0000
0100
0000
0000
,
0000
0001
0000
0000
,
0000
1000
0000
0000
,
0000
0001
0000
1000
,
0000
0001
0000
0000
,
0000
0100
0000
0000
,
0000
0010
0000
0000
,
0000
0100
0000
0001
,
0000
1000
0000
0000
,
0000
0010
0000
0000
,
0000
0100
0000
0000
,
0000
0001
0000
1000
,
0000
0010
0000
0000
,
0000
0100
0000
0000
,
0000
0010
0000
0000
,
0000
1000
0000
0010
,
0000
0100
0000
0000
,
0000
0001
0000
0001
,
0000
1000
0000
0000
,
0000
0010
0000
0100
,
0000
0001
0000
0000
,
0000
1000
0000
1000
,
0000
0001
0000
0100
,
0000
0110
0000
0000
,
0000
0010
0000
0000
,
0000
1000
0000
1000
,
0000
0001
0000
0100
,
0000
0010
0000
0000
,
0000
1000
0000
0000
,
0000
0001
0000
0001
,
0000
0100
0000
0010
,
0000
2000
0000
0000
,
0000
0000
0000
0000
,
0000
0000
0000
0000
,
0000
0000
0000
0000
,
0000
3002
0000
0000
,
0000
0000
0000
0000
,
0000
0000
0000
0000
,
0000
0000
0000
0000
,
0000
0203
0000
0000
,
0000
0000
0000
0000
,
0000
0000
0000
0000
,
0000
0000
0000
0000
,
0000
0320
0000
0000
,
0000
0000
0000
0000
,
0000
0000
0000
0000
,
0000
0000
0000
0000
,
0000
2030
0000
0000
,
0000
0000
0000
0000
,
0000
0000
0000
0000
,
0000
0000
0000
0000
,
0000
3200
0000
0000
,
0000
0000
0000
0000
,
0000
0000
0000
0000
,
0000
0000
0000
0000
,
0000
0320
0000
0000
,
0000
0000
0000
0000
,
0000
0000
0000
0000
,
0000
0000
0000
0000
,
0000
0032
0000
0000
,
0000
0000
0000
0000
,
0000
0000
0000
0000
,
0000
0000
0000
0000
,
0000
2003
0000
0000
,
0000
3001
0000
0000
0000
0000
0000
0000
;

//---------------dance-single - Copied from Copied f----------------
#NOTES:
     dance-single:
     Copied from Copied f:
     Medium:
     9:
     0.844,1.000,0.821,1.000,0.132:
0000
0000
0000
0000
,
0000
0000
0000
0000
,
0000
0000
0000
0000
,
0000
0000
0000
0000
,
0000
0000
0000
0000
,
0000
0000
0000
0000
,
0000
0000
0000
0000
,
0000
0000
0000
0000
,
1000
0000
0001
0100
0000
0001
1000
0000
,
1001
0000
0110
0000
,
0001
0000
1000
0010
0000
1000
0001
0000
,
0101
0000
1001
0000
,
0010
0000
0100
0001
0000
0100
0010
0000
,
0110
0000
1001
0000
,
1000
0000
0010
0100
0000
0010
1000
0000
,
1010
0000
0110
0000
,
1010
1000
0010
0100
,
0101
0011
0000
0011
,
0101
0000
0001
1000
0000
0100
1000
0000
,
1010
0110
0011
0000
,
0011
0001
0100
0010
,
1010
1100
0000
1100
,
1010
0000
1000
0010
0000
1000
0001
0000
,
0011
0110
1010
0000
,
1010
1000
0001
0010
,
0011
1001
0000
1001
,
0011
0000
0001
0010
0000
0001
1000
0000
,
1010
0110
0011
0110
,
1010
0010
1000
0100
,
0110
0101
0000
0101
,
0110
0010
1010
1000
,
1000
0100
1000
0000
0001
0100
0001
0100
,
0002
0000
2003
0000
,
3002
0000
2003
0000
,
3010
0110
1000
1001
,
0001
0011
1000
1010
,
0010
0110
1000
1001
,
0001
0010
0001
0000
1000
0010
1000
0000
,
0001
1000
0001
1000
0001
0000
0100
0000
,
0010
1000
0010
0000
0100
0001
0100
0000
,
0001
1000
0001
0000
1000
0100
1000
0100
,
2000
0000
3002
0000
,
2003
0000
3002
0000
,
0103
0101
0001
1001
,
1000
1010
1000
1001
,
0001
0011
0001
1001
,
1000
0100
1000
0000
0001
0100
0001
0000
,
0100
0010
0100
0000
0010
1000
0010
0000
,
1000
1010
0001
0011
,
0100
0000
0110
0000
1000
0001
1000
0001
,
2000
0000
0000
3200
0000
0000
0302
0000
,
0000
0203
0000
0000
2300
0000
3010
1000
,
0200
0000
0000
0302
0000
0000
0203
0000
,
0000
2300
0000
0000
3020
0000
0031
0010
,
2000
0000
0000
3002
0000
0000
0023
0000
,
0000
2030
0000
0000
3002
0000
0103
1000
,
0002
0000
0000
0203
0000
0000
2300
0000
,
0000
3200
0000
0000
0302
0000
1003
0001
,
0020
0230
0320
0230
,
0320
0000
2030
0000
3020
0000
2030
0010
,
3002
0023
0032
0023
,
2030
0000
3020
0000
2030
0000
3020
0001
,
2030
3002
2003
3002
,
0203
0000
0302
0000
0203
0000
0302
1000
,
0203
0320
0230
0320
,
2030
3020
2030
3020
,
1030
0010
0001
0100
,
1000
0020
0031
1000
,
0010
0200
0310
1000
,
0001
0010
0011
0000
1001
0000
1000
0000
,
0010
0100
0110
0001
,
1001
0000
0000
1000
0000
0000
1010
0000
0000
0000
0010
0000
1000
0000
0000
0000
0000
0000
1000
0000
0000
0000
0001
0000
,
0100
0000
0100
0010
0000
0010
1000
0000
0000
1000
0000
1000
,
0100
0000
0100
0010
0000
0010
0001
0000
0000
0001
0000
0001
,
0100
0000
0100
0010
0000
0010
1000
0000
0000
1000
0000
1000
,
0100
0000
0100
0001
0000
0001
0010
0000
0010
1000
0000
1000
,
0100
0000
0100
1000
0000
1000
0010
0000
0010
0001
0000
0001
,
0100
0000
0100
1000
0000
1000
0100
0000
0100
0001
0000
0001
,
0010
0000
0010
1000
0000
0100
0001
0000
0010
0001
0000
0100
,
1000
0000
0010
1000
0000
0100
0001
0000
0010
0001
0000
0100
,
1000
0000
0001
1000
0000
0100
0001
0000
0010
0001
0000
0100
,
1000
0010
0100
0000
0100
0010
0100
0000
,
0010
0110
0100
0101
,
0000
0000
0100
0000
0100
0010
0100
0000
,
0010
0110
1000
1010
,
0000
0000
0001
0000
0001
1000
0001
0000
,
1000
1001
0010
1010
,
0000
0000
1000
0000
1000
0001
1000
0000
,
0001
1001
0100
0101
,
0000
0000
1001
0000
0001
0100
0001
0000
,
1000
1010
0011
1010
,
0000
0000
1001
0000
1000
0001
1000
0000
,
0001
0011
1010
0011
,
0000
0000
0110
0000
0010
1000
0010
0000
,
0100
0101
1100
0101
,
0000
0000
0110
0000
0100
0001
0100
0000
,
0010
1010
0011
1010
,
0000
0000
1000
0000
0010
1000
0100
0000
,
0010
0001
0100
0110
,
0000
0000
0001
0000
0100
0010
1000
0000
,
0100
0010
0001
1001
,
0000
0000
1000
0000
0010
0100
0001
0000
,
0010
0100
1000
1001
,
0000
0011
1010
0011
,
0000
1100
0101
1100
,
0000
0000
1001
0000
0001
0100
1000
0000
,
0100
0001
1001
1100
,
0000
0000
1001
0000
1000
0100
0001
0000
,
0100
0001
0101
1001
,
0000
0000
0110
0000
1000
0010
0001
0000
,
0010
1000
1010
1001
,
0000
0000
0110
0000
0001
0010
1000
0000
,
0010
0001
0101
1001
,
0000
0002
0000
0203
,
0000
0320
0000
2030
,
0000
3200
0000
0320
,
0000
0032
0103
0020
,
0000
2030
0000
3020
,
0000
0230
0000
0302
,
0000
0023
0000
0230
,
0000
2300
3010
0200
,
0000
0320
0000
2030
,
0000
3002
0000
0023
,
0000
0032
0000
0023
,
0000
0230
1300
0020
,
0000
0230
0000
0302
,
0000
0023
0000
2030
,
0000
3020
0000
0032
,
0000
0203
0310
0002
,
0000
2003
0000
3200
,
0000
0302
0000
0203
,
0000
2300
0000
3020
,
0230
0302
0000
0023
,
0230
2300
0000
3020
,
0000
0032
0000
0023
,
0000
2030
0000
3002
,
0203
0320
0000
2030
,
3200
0302
0000
0203
,
0000
2300
0000
3020
,
0000
0032
0000
0023
,
2030
3200
0000
0302
,
0203
2300
0000
3020
,
0000
0032
0000
0023
,
0000
2030
3200
0302
,
0000
0203
2300
3020
,
0000
0030
1010
0000
0101
0000
0011
0000
,
1100
2002
0000
0000
0000
0000
0000
0000
,
0000
0000
0000
0000
0000
3003
0000
0000
;

//---------------dance-single - Copied from Copied f----------------
#NOTES:
     dance-single:
     Copied from Copied f:
     Hard:
     11:
     1.000,1.000,0.745,1.000,0.433:
0000
0000
0000
0000
,
0000
0000
0000
0000
,
0000
0000
0000
0000
,
0000
0000
0000
0000
,
0000
0000
0000
0000
,
0000
0000
0000
0000
,
0000
0000
0000
0000
,
0000
0000
0000
0000
,
1001
0000
0001
1000
0100
1000
0001
0000
,
1001
0000
0110
0000
,
1001
0000
1000
0001
0100
0001
1000
0000
,
1001
0000
0110
0000
,
1001
0000
0010
1000
0001
1000
0010
0000
,
1001
0000
0110
0000
,
1001
0000
0100
0001
1000
0001
0100
0000
,
1001
0000
0110
0000
,
1010
0000
1000
0010
1000
0000
0001
0010
,
0001
0201
0000
0310
,
1010
0000
1000
0001
1000
0001
0100
0000
,
0101
0000
0001
1000
0100
0000
1100
0000
,
1001
0000
0001
0010
0001
0000
1000
0010
,
1000
1020
0000
0130
,
0101
0000
0001
1000
0001
1000
0100
0000
,
1100
0000
1000
0001
0010
0000
0011
0000
,
1001
0000
1000
0100
1000
0000
0001
0100
,
0001
0201
0000
0310
,
1010
0000
1000
0001
1000
0001
0010
0000
,
0110
0000
0100
1000
0001
0000
0001
1000
,
0100
0000
1000
0100
1000
0000
0001
0100
,
0001
0201
0000
0310
,
1010
0000
1000
0001
1000
0001
0100
0000
,
0010
1000
0001
0000
0100
0010
0100
0010
,
2000
3002
2003
3002
,
2003
3002
2003
3002
,
1003
0000
1001
0000
0001
0100
1000
0000
,
0100
0000
0110
0000
1000
0100
0001
0000
,
0100
0000
0110
0000
0001
0010
1000
0000
,
1010
0000
0011
0000
0001
0100
1000
0000
,
1100
0000
0101
0000
0001
0010
1000
0000
,
0010
0001
0010
0000
0010
1000
0010
0000
,
0010
0001
0100
1000
0100
0010
1000
0000
,
0002
2003
3002
2003
,
3002
2003
3002
2003
,
3001
0000
1001
0000
1000
0010
0001
0000
,
0010
0000
0110
0000
0001
0010
1000
0000
,
0010
0000
0110
0000
1000
0100
0001
0000
,
0101
0000
1100
0000
1000
0010
0001
0000
,
0011
0000
1010
0000
1000
0100
0001
0000
,
0100
1000
0100
0000
0100
0001
0100
0000
,
0100
1000
0010
0001
0010
0100
0001
0000
,
2000
0000
3010
1000
0000
0100
0001
0000
,
0010
0001
0000
0100
1000
0000
0100
0001
,
0020
0000
1030
0010
0000
0001
0100
0000
,
1000
0010
0000
1000
0100
0000
0001
0010
,
2000
0000
3010
0001
0000
0100
1000
0000
,
0010
1000
0000
0100
0001
0000
0010
0001
,
0200
0000
0310
1000
0000
0001
1000
0000
,
0100
0001
0000
1000
0001
0000
0010
0001
,
1000
0100
0000
1000
0100
0000
1000
0010
,
0100
0010
0000
0100
0001
0100
0001
0010
,
0001
0010
0000
0010
0100
0000
0010
0100
,
1000
0100
0000
1000
0100
1000
0100
1000
,
0010
1000
0000
0010
0100
0000
0010
0100
,
0001
0100
0000
0001
0010
0001
0010
0100
,
0010
0100
0000
0100
1000
0000
0100
1000
,
0010
1000
0000
0010
0100
0010
0100
0001
,
0010
0011
0110
1100
,
1010
0000
0000
0000
0000
0000
0000
0000
0110
0000
0001
0010
0100
1000
0010
0000
0110
0000
0000
0000
1000
0000
0000
0000
1001
0000
0010
1000
0100
0010
0001
0000
,
1001
0000
0000
0000
0100
0000
0000
0000
0101
0000
0001
0010
0100
1000
0010
0000
1010
0000
0000
0000
1000
0000
0000
0000
1100
0000
0100
0010
0001
0100
0010
0000
,
1010
0000
1000
0000
1100
0000
0000
0000
1001
0000
0001
0010
0100
1000
0010
0000
0110
0000
1000
0000
1001
0000
0000
0000
0101
0000
0001
0100
0010
1000
0100
0000
,
1100
0000
1000
0000
1001
0000
0000
0000
0110
0000
0010
1000
0100
0010
0001
0000
0101
0000
0100
0000
0110
0000
0000
0000
1001
0000
0001
0100
0010
1000
0100
0000
,
1100
0000
0000
1000
0000
0000
1001
0000
0000
0000
0000
0000
0001
0000
0000
0000
0100
0000
0000
0000
0010
0000
0000
0000
1000
0000
0000
0000
0000
0000
0000
0000
1000
0000
0000
0000
0100
0000
0000
0000
0010
0000
0000
0000
0001
0000
0000
0000
,
0010
0100
1000
0010
0100
0001
0010
0000
0001
0101
0100
0010
,
1000
0100
0010
0011
0001
0100
0010
0000
1000
1100
0100
1000
,
1010
0010
0100
0101
0001
0010
0011
0000
0001
0010
0001
0010
,
0100
0010
0100
1000
0100
1000
0010
1000
0010
0100
0001
0100
,
0001
0010
0001
0010
0100
1000
0010
0100
0001
1000
0100
0010
,
0001
0100
0010
1000
0100
0001
0100
1000
0010
0001
0010
1000
,
0100
0001
0100
1000
0010
0001
0010
1000
0100
0100
0010
0001
,
0001
0100
0010
0010
1000
0100
0100
1000
0010
0010
0001
0010
,
0010
1000
0100
0100
0001
0100
0100
1000
1000
1000
0010
0010
,
0110
0000
0100
0000
0100
0000
0001
0000
0000
0000
0000
0000
0100
0000
0000
0010
0000
0000
1000
0000
0000
0100
0000
0000
,
0010
0000
0100
1000
0010
0000
1001
0000
,
0000
0000
1010
0000
0010
0100
0001
0010
,
0100
0000
0100
1000
0010
0000
1001
0000
,
0000
0000
0110
0000
0010
1000
0100
0001
,
0100
0000
0010
0001
0100
0000
1001
0000
,
0000
0000
0110
0000
0001
0100
1000
0100
,
0010
0000
1000
0100
0001
0000
1001
0000
,
0000
0000
0110
0000
0001
0100
1000
0100
,
0010
0000
1000
0100
0001
0000
0100
1000
,
0100
0000
0100
0001
0000
0010
0001
0100
,
1000
0000
0100
1000
0100
0000
0100
0001
,
0100
0000
0010
1000
0000
0010
1000
0100
,
0001
0000
0010
0001
0010
0000
0010
1000
,
0010
0000
0010
0001
0000
0001
0100
1000
,
0100
0000
0100
0001
0100
0000
0100
1000
,
0100
0000
0001
0010
1000
0010
0100
0000
,
0100
1000
0010
0000
0110
0000
0101
0000
,
0001
0000
1100
0000
0100
1000
0010
0001
,
0010
0000
0010
1000
0100
0000
1100
0000
,
1001
0000
0001
0000
0100
0010
0001
0010
,
1000
0000
0010
1000
0100
0000
0100
0001
,
0100
0010
0011
1001
,
0000
0000
1010
0000
0010
1000
0100
0000
,
0110
0000
0011
0000
0010
0001
0100
0000
,
0100
1000
0100
0000
0100
0001
0010
0000
,
0011
0000
1010
0000
0010
1000
0100
0000
,
0100
0001
0100
0000
0100
1000
0010
0000
,
1010
0000
1001
0000
0001
0100
0010
0000
,
0010
0001
0010
0000
0010
0100
0001
0000
,
0101
0000
1001
0000
1000
0100
0010
0000
,
0010
1000
0010
0000
0010
0100
1000
0000
,
0001
0200
0320
0230
,
0320
2030
3002
2003
,
3002
0203
0302
0203
,
0302
2003
3020
2030
,
3020
0230
0302
0023
,
0230
2300
3020
0230
,
0302
2003
3200
0320
,
0032
0203
0302
2003
,
3200
2300
3002
0203
,
0302
0023
0032
2003
,
3020
2030
3002
2003
,
3200
2300
3020
0230
,
0302
2003
3200
0320
,
0230
2300
3020
0230
,
0302
0023
0230
0320
,
0032
2003
3200
0320
,
0032
0203
0302
0203
,
2300
3200
0302
0203
,
2300
3200
0302
0023
,
2030
3020
0032
0023
,
2030
3020
0032
0203
,
2300
3200
0302
0023
,
2030
3020
0032
0203
,
2300
3200
0302
0023
,
0230
0320
0032
2003
,
3020
0032
0023
2030
,
3200
0320
0230
2300
,
3020
0032
0023
2030
,
3200
0302
0203
2300
,
3020
0032
0023
2030
,
3200
0320
0032
0203
,
2300
3200
0302
0023
,
0030
0000
0000
0000
0000
0000
0000
0000
0000
0000
0000
0000
0000
0000
0000
0000
0100
1000
0000
0000
0000
0000
0000
0000
0000
0000
0000
0000
0000
0000
0000
0000
0010
0000
0000
0100
0000
0000
0000
0000
0000
0000
0000
0000
0000
0000
0000
0000
0001
0000
0000
0000
0000
0000
0000
0000
1000
0000
0000
0000
0000
0000
0000
0000
,
0000
2002
0000
0000
0000
0000
0000
0000
,
0000
0000
0000
0000
0000
3003
0000
0000
;

//---------------dance-double - Copied from Copied f----------------
#NOTES:
     dance-double:
     Copied from Copied f:
     Easy:
     7:
     0.494,0.715,0.218,0.294,0.000:
00000000
00000000
00000000
00000000
,
00000000
00000000
00000000
00000000
,
00000000
00000000
00000000
00000000
,
00000000
00000000
00000000
00000000
,
00000000
00000000
00000000
00000000
,
00000000
00000000
00000000
00000000
,
00000000
00000000
00000000
00000000
,
00000000
00000000
00000000
00000000
,
10000000
00000000
01000000
00000000
,
00010000
00000000
00000000
00000000
,
00001000
00000000
00000010
00000000
,
00000001
00000000
00000000
00000000
,
00000001
00000000
00000100
00000000
,
00001000
00000000
00000000
00000000
,
00010000
00000000
00100000
00000000
,
10000000
00000000
00000000
00000000
,
10000000
00000000
10000000
00010000
,
00100000
00100000
00000000
00001000
,
00010000
00000000
00000001
00000000
,
00000100
00000010
00000100
00000000
,
00000001
00000000
00000001
00001000
,
00000100
00000100
00000000
00010000
,
00001000
00000000
10000000
00000000
,
00100000
01000000
00100000
00000000
,
01000000
00000000
00100000
01000000
,
00001000
00001000
00000000
00010000
,
00000010
00000000
00100000
00000000
,
00000010
00000000
00000100
00000010
,
00000100
00000000
00000010
00000100
,
00000010
00010000
00000000
00010000
,
00001000
00000000
01000000
00000000
,
00100000
10000000
01000000
00100000
,
00002000
00000000
00000000
00000000
,
00000000
00000000
00000000
00000000
,
00013000
00000000
00011000
00000000
,
00000100
00000000
00000110
00000000
,
00000001
00000000
00001001
00000000
,
00000100
00000000
00011000
00000000
,
00100000
00000000
01100000
00000000
,
10000000
00000000
10010000
00000000
,
00100000
10000000
01000000
00100000
,
00002000
00000000
00000000
00000000
,
00000000
00000000
00000000
00000000
,
00013000
00000000
00011000
00000000
,
01000000
00000000
01100000
00000000
,
00100000
00000000
10010000
00000000
,
10000000
01000000
10000000
00100000
,
01000000
00000000
01100000
00000000
,
00010000
00100000
00001000
00010000
,
00000100
00000000
00000110
00000000
,
00000010
00000000
00000000
00000001
00000000
00000000
00000100
00000000
,
00000000
00000010
00000000
00000000
00001000
00000000
00000100
00000010
,
00000100
00000000
00000000
00010000
00000000
00000000
00001000
00000000
,
00000000
01000000
00000000
00000000
00100000
00000000
10000000
00100000
,
10000000
00000000
00000000
00100000
00000000
00000000
01000000
00000000
,
00000000
00001000
00000000
00000000
00010000
00000000
00001000
00010000
,
00001000
00000000
00000000
00010000
00000000
00000000
00000010
00000000
,
00000000
00000100
00000000
00000000
00000001
00000000
00001000
00000001
,
00001000
00001000
00000001
00000001
,
00000100
00000000
00000010
00000000
00010000
00000000
00001000
00010000
,
00001000
00001000
00010000
00010000
,
00001000
00000000
01000000
00000000
00100000
00000000
10000000
00010000
,
10000000
10000000
00010000
00010000
,
00100000
00000000
00001000
00000000
00010000
00000000
00001000
00010000
,
00001000
00001000
00010000
00010000
,
00000010
00000100
00000001
00000010
,
00000200
00000000
00000000
00000000
,
00000300
00020000
00031000
01000000
,
00100000
20000000
30010000
00100000
,
00001000
00010000
00021000
00000000
00030010
00000000
00000100
00000000
,
00000001
00000020
00000130
00010000
,
00001000
00010000
00010000
00001000
,
00001000
00010000
00001000
00010000
,
00001000
01000000
01000000
00100000
,
00100000
01000000
00100000
01000000
,
00100000
10000000
01000000
00010000
,
00001000
00000010
00000001
00000100
,
00001000
00010000
00100000
10000000
,
01000000
00001000
00000001
00000100
,
00010000
10000000
00001000
00010000
,
00000001
00000010
00000100
01000000
,
00100000
10000000
10000000
00010000
,
01000000
00100000
10000000
10010000
,
00000000
01000000
01000000
00100000
,
01000000
00001000
00010000
00011000
,
00000000
00001000
00001000
00010000
,
00000100
00001000
00000010
00000110
,
00000000
00000001
00000001
00000100
,
00000001
00001000
00000100
00000100
,
00010000
00011000
00001000
01000000
,
01000000
00100000
00000000
01100000
,
00000000
10000000
01000000
00010000
,
00001000
00000100
00000000
00000110
,
00000000
00000001
00000100
00001000
,
00010000
00100000
00000000
01100000
,
00000000
10000000
01000000
00010000
,
00001000
00000100
00000000
00000110
,
00000000
00000100
00000001
00000100
,
00010000
00000100
00000010
00010000
,
00000000
00001000
01000000
10000000
,
01000000
00001000
00100000
01000000
,
00000000
10000000
01000000
00001000
,
01000000
00100000
00001000
00010000
,
00000000
00001000
00010000
00011000
,
00000000
00011000
00011000
00011000
,
00000000
00001000
01000000
10000000
,
01000000
00100000
10000000
10010000
,
00000000
10000000
01000000
00001000
,
01000000
00100000
00001000
00011000
,
00000000
00010000
00000010
00000001
,
00000010
00001000
00000100
00000110
,
00000000
00000001
00000100
00010000
,
00000100
00000010
00010000
00011000
,
00000000
00002000
00000000
00023000
,
00000000
00032000
00000000
00023000
,
00000000
00032000
00000000
02003000
,
00000000
03002000
00000000
02003000
,
00000000
03200000
00000000
02300000
,
00000000
03200000
00000000
02300000
,
00000000
03200000
00000000
20300000
,
00000000
30200000
00000000
20300000
,
00000000
32000000
00000000
23000000
,
00000000
32000000
00000000
23000000
,
00000000
32000000
00000000
03200000
,
00000000
02300000
00000000
03200000
,
00000000
02300000
00000000
03200000
,
00000000
00320000
00000000
00230000
,
00000000
00320000
00000000
00230000
,
00000000
00302000
00000000
00023000
,
00000000
00031000
00000000
00010000
,
00000000
00001000
00000000
00010000
,
00000000
00000100
00000000
00010000
,
00000000
00000100
00000000
00010000
,
00000000
00000010
00000000
00010000
,
00000000
00000010
00000000
00010000
,
00000000
00000010
00000000
00000100
,
00000000
00000010
00000000
00000100
,
00000000
00000001
00000000
00000100
,
00000000
00000001
00000000
00000100
,
00000000
00000001
00000000
00000010
,
00000000
00000100
00000000
00010000
,
00000000
00001000
00000000
01000000
,
00000000
00100000
00000000
10000000
,
00000000
01000000
00000000
00100000
,
00000000
00001000
00000000
00010000
,
00000000
00001000
00010000
00010000
,
00001000
00011000
00000000
00000000
00000000
00000000
00000000
00000000
;
