#TITLE:My Way;
#SUBTITLE:;
#ARTIST:Jason Koohi;
#TITLETRANSLIT:;
#SUBTITLETRANSLIT:;
#ARTISTTRANSLIT:;
#CREDIT:;
#BANNER:;
#BACKGROUND:;
#LYRICSPATH:;
#CDTITLE:;
#MUSIC:My Way.ogg;
#OFFSET:-0.070;
#SAMPLESTART:41.786;
#SAMPLELENGTH:12.000;
#SELECTABLE:YES;
#BPMS:0.000=230.001;
#STOPS:;
#BGCHANGES:;

//---------------dance-single - ----------------
#NOTES:
     dance-single:
     :
     Easy:
     5:
     0.278,0.473,0.053,0.043,0.000:
0000
0000
0000
0000
,
0000
0000
0000
0000
,
0000
0000
0000
0000
,
0000
0000
0000
0000
,
0000
0000
0000
0000
,
0000
0000
0000
0000
,
0000
0000
0000
0000
,
0000
0000
0000
0000
,
1000
0000
0001
0000
,
1000
0000
0001
0000
,
0100
0000
0010
0000
,
0100
0000
0010
0000
,
1000
0000
0100
0000
,
0010
0000
0001
0000
,
1000
0000
0000
0000
,
0001
0000
0000
0000
,
1000
0000
0002
0000
,
0000
0000
0000
0000
,
0000
0000
0003
0000
,
1000
0000
0001
0000
,
0100
0000
0100
0000
,
0010
0000
0010
0000
,
1000
0000
0100
0000
,
0010
0000
0001
0000
,
1000
0000
0020
0000
,
0000
0000
0000
0000
,
0000
0000
0030
0000
,
0100
0000
0001
0000
,
1000
0000
1000
0000
,
0010
0000
0010
0000
,
0100
0000
0001
0000
,
0010
0000
0100
0000
,
1000
1000
1000
0000
,
0001
0000
0100
0000
,
0010
0010
0010
0000
,
1000
0000
0001
0000
,
0100
0100
0100
0000
,
0010
0000
1000
0000
,
0001
0001
0001
0000
,
1000
1000
1000
0000
,
0001
0000
1000
0000
,
0001
0000
1000
0000
,
0010
0000
0000
0000
,
0100
0000
0000
0000
,
0010
0000
1000
0000
,
0010
0000
1000
0000
,
0001
0000
0000
0000
,
0010
0000
0000
0000
,
0001
0000
1000
0000
,
0010
0000
1000
0000
,
0001
0000
0010
0000
,
0001
0000
0100
0000
,
0010
0000
1000
0000
,
0100
0000
1000
0000
,
0001
0000
0010
0000
,
0001
0000
0100
0000
,
0010
0010
0010
0010
,
1000
0000
0001
0000
,
0100
0100
0100
0100
,
0010
0000
1000
0000
,
0001
0000
0000
0001
0000
0000
0001
0000
,
1000
0000
0000
1000
0000
0000
1000
0000
,
0010
0000
0000
1000
0000
0000
0001
0000
,
0010
0000
0000
0001
0000
0000
1000
0000
,
0001
1000
0001
0000
,
1000
0010
1000
0000
,
0001
0010
0001
0000
,
0100
0001
0100
0000
,
0010
1000
0001
0000
,
0010
0001
1000
0000
,
1001
0000
0000
0000
,
0110
0000
0000
0000
,
0010
0000
1000
0000
,
0001
0001
0001
0000
,
0010
0000
0001
0000
,
1000
1000
1000
0000
,
0010
0000
1000
0000
,
0100
0100
0100
0000
,
0010
0000
0001
0000
,
1000
1000
1000
0000
,
0010
0000
0100
0000
,
0001
1000
0001
0000
,
1000
0000
0010
0000
,
0100
0001
0100
0000
,
0010
0000
1000
0000
,
0001
0010
0001
0100
,
0110
0000
0000
0010
0000
0000
1000
0000
,
1001
0000
0000
1000
0000
0000
0010
0000
,
2020
0000
0000
0000
,
3030
0000
0000
0000
;

//---------------dance-single - Copied from----------------
#NOTES:
     dance-single:
     Copied from:
     Medium:
     8:
     0.634,0.805,0.138,0.340,0.000:
0000
0000
0000
0000
,
0000
0000
0000
0000
,
0000
0000
0000
0000
,
0000
0000
0000
0000
,
0000
0000
0000
0000
,
0000
0000
0000
0000
,
0000
0000
0000
0000
,
0000
0000
0000
0000
,
1000
0010
1000
0100
,
0010
0001
0100
0001
,
1000
0010
1000
0100
,
0010
0001
0100
0001
,
0010
0100
1000
0010
,
1000
0100
0010
0001
,
1000
0000
0001
1000
0000
1000
0001
0000
,
1000
0000
0010
0100
0000
0100
0010
0000
,
1000
0001
0020
0001
,
0001
0001
0001
0001
,
0001
0000
0001
0000
0001
0030
0001
1000
,
0001
0000
0000
0100
0000
0000
0010
0000
,
1000
0010
1000
0100
,
0010
0001
0100
0001
,
1000
0010
1000
0010
0000
1000
0001
0000
,
0010
0001
0010
0001
0000
0001
1000
0000
,
0010
1000
0200
1000
,
1000
1000
1000
1000
,
1000
0000
1000
0000
1000
0300
1000
0001
,
1000
0000
0001
0010
0000
0010
0100
0000
,
0010
0001
0100
0010
,
1000
0100
0010
0001
,
0100
0001
0100
0001
0000
1000
0010
0000
,
1000
0100
1000
0100
0000
0010
0001
0000
,
1000
0000
0001
0010
0200
0000
0000
0320
,
0000
0032
0000
0203
0000
0310
0010
1000
,
0001
0100
0001
0000
1000
0100
1000
0000
,
0010
0100
0010
0000
1000
0001
1000
0000
,
0010
1000
0100
0001
,
0010
0001
0100
1000
,
0010
1000
0010
1000
0000
1000
0001
0000
,
0010
0001
0010
0001
0000
0001
1000
0000
,
0002
0100
2003
0100
,
3002
0010
2003
0010
,
3002
0000
0000
0000
0003
1000
0001
0000
,
1000
0001
1000
0001
0100
0010
0100
0000
,
0002
0010
2003
0100
,
3002
0100
2003
0010
,
3001
0010
0001
0010
0000
0001
1000
0000
,
0010
1000
0010
1000
0000
1000
0001
0000
,
1000
0010
1000
0000
0100
0000
0010
0000
,
0001
0010
0001
0010
0001
0000
1000
0000
,
0010
1000
0010
0000
1000
0100
1000
0000
,
0001
1000
0001
1000
0001
0000
0000
0000
,
1000
0010
1000
0001
0020
0000
0030
0000
,
0001
0010
0001
1000
0020
0000
0030
0000
,
1000
0001
1000
0001
1000
0001
1000
0001
,
1000
0000
0000
1010
0000
0000
0011
0000
,
0010
0001
0010
0001
0010
0001
0010
0001
,
0020
0032
0203
0320
,
2030
3200
0320
0032
,
1003
0000
0001
0000
,
0010
0001
0010
0000
0001
0000
1000
0000
,
0010
1000
0010
0000
1000
0000
0001
0000
,
1000
0010
1000
0100
0010
0001
1000
0000
,
0001
0100
0001
0010
0100
1000
0001
0000
,
2000
3010
1000
0100
,
0020
0031
0100
0001
,
0020
0130
1000
0010
,
2000
3100
0010
0001
,
2000
0010
0001
0100
,
3002
0000
0010
0000
1000
0000
0100
0003
,
1001
0000
0101
0000
,
1010
0000
1001
0000
,
1000
0010
1000
0100
,
0010
0001
0100
0001
,
0010
0100
1000
0001
,
1000
0100
0010
0001
,
1000
0010
0001
0010
,
1000
0100
0001
0100
,
1100
0000
0000
1010
0000
0000
0011
0000
,
0101
0000
0000
0011
0000
0000
1010
0000
,
1100
1000
0100
0010
,
1000
0010
0100
1000
,
0001
0100
0010
0001
,
0010
0100
0001
1000
,
0100
0001
1000
0001
,
0100
1000
0010
0100
,
0001
0010
0001
0010
0100
1000
0010
0100
,
0001
1000
0001
1000
0100
0010
0001
1000
,
0002
0000
0000
0000
,
0003
0000
0000
0000
;

//---------------dance-single - Copied from Copied f----------------
#NOTES:
     dance-single:
     Copied from Copied f:
     Hard:
     10:
     0.950,1.000,0.032,0.223,0.659:
0000
0000
0000
0000
,
0000
0000
0000
0000
,
0000
0000
0000
0000
,
0000
0000
0000
0000
,
0000
0000
0000
0000
,
0000
0000
0000
0000
,
0000
0000
0000
0000
,
0000
0000
0000
0000
,
1000
0010
1000
0100
0010
0001
0100
0001
,
0010
0100
1000
0010
1000
0100
0010
0001
,
0100
0001
0010
0001
0100
0010
1000
0100
,
1000
0010
0100
0001
0010
0001
0100
0010
,
1000
0100
1000
0010
0100
0001
0010
0001
,
0100
0010
1000
0100
0010
0001
0010
0100
,
1000
0001
1000
0001
1000
0001
1000
0001
1000
0001
0000
0000
,
0100
0010
0100
0010
0100
0010
0100
0010
0100
0010
0000
0000
,
1000
0001
0020
0001
,
0001
0100
0100
1000
,
1000
0000
0100
0000
0100
0030
0010
0001
,
1000
0000
0010
1000
0000
1000
0100
0000
,
0010
0000
0001
0200
0000
0000
0010
0000
,
0010
0000
1000
0000
0010
0000
0001
0300
,
1000
0010
0010
1000
0100
0010
0001
0000
,
0001
0010
0010
0001
0010
0100
1000
0000
,
0001
1000
0200
0001
,
0001
0010
0010
1000
,
1000
0000
0010
0000
0010
0300
0010
0001
,
1000
0000
0010
1000
0000
1000
0100
0000
,
0010
0000
0001
0100
0000
0100
0010
0000
,
1010
0000
0000
1100
0000
0000
0101
0000
,
0001
1000
0001
1000
0001
1000
0001
1000
0001
1000
0000
0000
,
0010
0100
0010
0100
0010
0100
0010
0100
0010
0100
0000
0000
,
0010
1000
0010
1000
0200
0000
0000
0310
,
0001
1000
0001
0020
0000
0031
0001
1000
,
0010
1000
0100
0010
0100
1000
0010
0100
,
0001
0010
0100
0010
0001
0100
0010
0100
,
0001
0000
0000
0000
0000
0000
1000
0000
0000
0001
1000
0000
0000
0000
0000
0010
0000
0000
0100
0000
0000
0010
0000
0000
,
1000
0100
0010
0010
0001
0000
1000
0001
,
1000
0010
1000
0100
0010
0001
0010
0100
1000
0001
1000
0001
,
1000
0010
1000
0100
0010
0001
0100
0001
,
1000
0010
1000
1000
0001
0010
0001
0001
,
0100
0010
0100
0100
0010
1000
0001
0001
,
2000
0000
0000
0000
3000
0000
0001
0010
,
0100
0100
0010
0001
1000
1000
0001
0000
,
1000
0010
1000
1000
0001
0010
0001
0001
,
0100
0010
0100
0100
0001
0010
0100
1000
,
0001
1000
0001
1000
0001
1000
0010
1000
0010
1000
0010
1000
,
0100
0010
0100
0010
0100
0010
0001
0100
0001
0100
0001
0100
,
0010
1000
0010
0100
0001
0010
0100
1000
,
0001
1000
0001
0000
1000
0001
1000
0000
0001
1000
0001
0000
0000
0000
0000
0000
,
1000
0010
0010
1000
0001
0010
0010
0001
,
1000
0010
0010
1000
0001
0000
0000
0000
,
0010
0000
0000
0000
0001
0000
0000
0000
0010
0000
0000
0000
0001
0000
0000
0010
0000
0000
0001
0000
0000
0010
0000
0000
0001
0000
0000
0000
0000
0000
0000
0000
0000
0000
0000
0000
0000
0000
0000
0000
0000
0000
1000
0000
0000
0000
0000
0000
,
0010
0000
0000
0000
1000
0000
0000
0000
0010
0000
0000
0000
1000
0000
0000
0010
0000
0000
1000
0000
0000
0010
0000
0000
1000
0000
0000
0000
0000
0000
0000
0000
0000
0000
0000
0000
0000
0000
0000
0000
0000
0000
0000
0000
0000
0000
0000
0000
,
0001
0010
0001
0010
0001
0010
0100
1000
0100
1000
0100
1000
,
0002
0000
2003
0000
,
3010
1000
0010
1000
0010
1000
0001
0010
0001
0010
0001
0010
,
0001
0100
0010
1000
,
0100
1000
0001
0010
,
0001
0100
0001
0010
0100
1000
0010
1000
,
0001
0010
0001
0010
0001
0010
0100
1000
0100
1000
0100
1000
,
0010
1000
0010
1000
0010
1000
0001
1000
0001
1000
0001
1000
,
0020
0000
0000
0230
0000
0000
0302
0000
,
2003
0000
0000
3020
0000
0000
2030
0000
,
3100
0010
0001
1000
0001
0010
0100
0001
,
0100
0010
0001
1000
0001
0010
0100
0001
,
0100
0010
0001
1000
0001
0010
0100
0001
,
0100
0010
0001
1000
0001
0010
0100
0001
,
0100
1000
0010
0001
0010
1000
0100
0010
,
0001
1000
0010
0001
0010
1000
0100
0010
,
0001
1000
0001
1000
0100
1000
0010
0100
0010
0100
0001
0100
,
0001
0010
0100
1000
0100
0010
0001
1000
0100
0010
0001
1000
,
0001
1000
1000
0010
1000
1000
0100
1000
,
1000
0010
1000
1000
0100
1000
1000
0100
,
0010
0001
0001
1000
0001
0001
0100
0001
,
0001
0010
0001
0001
0100
0001
0001
0010
,
0100
1000
1000
0010
1000
1000
0001
1000
,
1000
0010
1000
1000
0100
1000
0100
0010
,
0002
0000
0000
0203
0000
0000
2300
0000
,
3200
0000
0000
0302
0000
0000
0023
0000
,
1030
0010
0010
0001
0010
0010
0100
0010
,
0010
1000
0010
0010
0100
0010
0001
0100
,
0010
1000
1000
0100
1000
1000
0010
1000
,
1000
0100
1000
1000
0001
1000
0100
0010
,
0001
0100
0100
1000
0100
0100
0010
0100
,
0100
0001
0100
0100
0010
0100
0001
0010
,
0100
1000
0100
0010
0001
0010
0100
1000
0010
0100
0001
0010
,
0100
1000
0010
0100
0001
1000
0100
0010
0001
1000
0010
0100
,
0002
0000
0000
0000
,
0003
0000
0000
0000
;

//---------------dance-single - Copied from Copied f----------------
#NOTES:
     dance-single:
     Copied from Copied f:
     Challenge:
     15:
     1.000,1.000,0.425,0.074,1.000:
0000
0000
0000
0000
,
0000
0000
0000
0000
,
0000
0000
0000
0000
,
0000
0000
0000
0000
,
0000
0000
0000
0000
,
0000
0000
0000
0000
,
0000
0000
0000
0000
,
0000
0000
0000
0000
,
1000
0010
1000
0000
0010
0100
0010
0000
0100
0001
0100
0000
0001
0010
0001
0000
,
1000
0010
1000
0000
0010
0100
0010
0000
0100
0001
0100
0000
0001
0010
0001
0000
,
1000
0001
1000
0000
0010
0100
0010
0000
1000
0010
1000
0000
0001
1000
0001
0000
,
1000
0010
1000
0000
0001
0010
0001
0000
0100
0001
0100
0000
0010
1000
0010
0000
,
1000
0010
0100
0000
0001
1000
0100
0000
1000
0001
0010
0000
0001
0010
0100
0000
,
0010
0001
1000
0000
0010
1000
0001
0000
1000
0001
0010
0000
0001
1000
0010
0000
,
1000
0010
0100
0001
0010
0100
1000
0100
0010
0001
1000
0010
0100
0001
0010
0100
,
1000
0100
0010
0001
1000
0010
0100
0001
0010
0100
1000
0100
0010
0001
1000
0001
,
0010
0001
0010
0000
0001
1000
0001
0000
1000
0010
1000
0000
0001
1000
0001
0000
,
1000
0010
0100
0000
0010
0100
0001
0000
0010
0100
1000
0000
0010
0100
0001
0000
,
1000
0010
1000
0000
0001
0010
0001
0000
0100
0001
0100
0000
0001
1000
0001
0000
,
1000
0010
0100
0000
0001
0010
0100
0000
0010
0001
1000
0000
0010
1000
0001
0000
,
1000
0010
1000
0000
0001
0010
0001
0000
1000
0100
1000
0000
0001
0100
0001
0000
,
1000
0010
0100
0000
0001
0010
0100
0000
0010
0001
1000
0000
0010
1000
0001
0000
,
1000
0010
0100
0001
0010
0100
1000
0100
0010
0001
1000
0010
0100
0001
0010
0100
,
1000
0100
0010
0001
1000
0010
0100
0001
0010
0100
1000
0100
0010
0001
1000
0001
,
0010
0001
0010
0000
0001
1000
0001
0000
1000
0010
1000
0000
0001
1000
0001
0000
,
1000
0010
0100
0000
0010
0100
0001
0000
0010
0100
1000
0000
0010
0100
0001
0000
,
1000
0010
1000
0000
0001
0010
0001
0000
0100
0001
0100
0000
0010
1000
0010
0000
,
1000
0001
0010
0000
0001
0100
0010
0000
0100
0010
1000
0000
0010
1000
0001
0000
,
1000
0010
1000
0000
0001
0010
0001
0000
1000
0100
1000
0000
0001
0100
0001
0000
,
1000
0010
0100
0000
0001
0010
0100
0000
0010
0001
1000
0000
0010
0100
0001
0000
,
1000
0010
0100
0001
0010
0100
1000
0100
0010
0001
1000
0010
0100
0001
0010
0100
,
1000
0100
0010
0001
1000
0010
0100
0001
0010
0100
1000
0100
0010
0001
1000
0001
,
0010
0001
0001
1000
0020
0000
0030
0010
,
0100
0001
0010
0200
0000
0310
0001
1000
,
0010
0010
1000
0100
0010
0010
0001
0100
,
1000
1000
0100
0001
0010
0010
1000
0010
,
0001
0000
0000
0000
0000
0000
1000
0000
0000
0001
0010
0000
0000
0000
0000
0001
0000
0000
0100
0000
0000
0010
0000
0000
,
0001
0001
0010
1000
0100
0100
0010
1000
,
0010
0001
0100
0010
0001
0010
0100
0001
0010
0100
0010
1000
,
0010
0001
0001
0100
1000
1000
0100
0010
,
1000
0010
1000
0000
0010
0100
0010
0000
0100
0001
0100
0000
0001
0010
0001
0000
,
1000
0010
0100
0000
0001
0010
0100
0000
1000
0010
0100
0000
0001
0010
0100
0000
,
1000
0001
0020
0000
0000
0000
0000
0000
0000
0000
0030
0000
0001
0100
0001
0100
,
0001
0010
0100
1000
0100
0010
0001
1000
0010
0100
0001
0010
0100
1000
0100
0010
,
0001
1000
0001
0000
1000
0010
1000
0000
0001
0010
0001
0000
1000
0010
1000
0000
,
0001
0100
0010
0000
1000
0100
0010
0000
0001
0100
0010
0000
1000
0100
0010
0000
,
0001
0000
0010
0000
0001
0000
0010
0000
0000
0001
0000
0000
0010
0000
0000
0100
0000
0000
1000
0000
0000
0010
0000
0000
0100
0000
0000
0001
0000
0000
1000
0000
0000
0010
0000
0000
1000
0000
0000
0100
0000
0000
0010
0000
0000
0001
0000
0000
,
1000
0000
0010
0000
1000
0000
0010
0000
0000
1000
0000
0000
0100
0000
0000
0010
0000
0000
0001
0000
0000
0010
0000
0000
0100
0000
0000
1000
0000
0000
0010
0000
0000
0100
0000
0000
0001
0000
0000
1000
0000
0000
0001
0000
0000
1000
0000
0000
,
0001
0000
1000
0000
0001
0000
1000
0000
0000
0001
0000
0000
0100
0000
0000
0010
0000
0000
1000
0000
0000
0010
0000
0000
0100
0000
0000
0001
0000
0000
0010
0000
0000
0100
0000
0000
1000
0000
0000
0100
0000
0000
0010
0000
0000
0001
0000
0000
,
1000
0001
1000
0001
0000
0000
0001
1000
0001
1000
0000
0000
1000
0001
1000
0001
1000
0001
1000
0000
0000
0000
0000
0000
,
0001
0000
0010
0000
0001
0000
0010
0000
0000
0001
0000
0000
0100
0000
0000
0010
0000
0000
1000
0000
0000
0100
0000
0000
0010
0000
0001
0000
0010
0000
0001
0000
0000
0010
0000
0000
0001
0000
0000
0010
0000
0000
0100
0000
0000
1000
0000
0000
,
0001
0000
1000
0000
0001
0000
1000
0000
0000
0100
0000
0000
0010
0000
0000
0001
0000
0000
1000
0000
0000
0001
0000
0000
2000
0000
0000
0000
0000
0000
0000
0000
0000
0000
0000
0000
3000
0000
0000
0000
0000
0000
0000
0000
0000
0000
0000
0000
,
0001
0000
0000
0100
0000
0000
0001
0000
0000
0010
0000
0000
0100
0000
0000
1000
0000
0000
0001
0000
1000
0000
0001
0000
1000
0000
0001
0000
0000
0000
0000
0000
0000
0000
0000
0000
0000
0000
0000
0000
0000
0000
1000
0000
0000
0010
0000
0000
,
1000
0000
0000
0100
0000
0000
0010
0000
0000
0001
0000
0000
0100
0000
0000
0001
0000
0000
1000
0000
0001
0000
1000
0000
0001
0000
1000
0000
0000
0000
0000
0000
0000
0000
0000
0000
0000
0000
0000
0000
0000
0000
0000
0000
0000
0000
0000
0000
,
0001
0000
0000
0100
0000
0000
0001
0000
0000
0100
0000
0000
0010
0000
0000
1000
0000
0000
0010
0000
0000
1000
0000
0000
0100
0000
0000
0010
0000
0000
0001
0000
0000
0010
0000
0000
0100
0000
1000
0000
0100
0000
1000
0000
0100
0000
1000
0000
,
0100
0000
0000
0000
0000
0000
0000
0000
0000
0000
0000
0000
0000
0000
0000
0000
0000
0000
0000
0000
0000
0000
1000
0000
0001
0000
1000
0000
0001
0000
1000
0000
0000
0001
0000
0000
1000
0000
0000
0000
0000
0000
0000
0000
0000
0000
0000
0000
,
0001
0010
0001
0010
0001
0010
0001
1000
0001
1000
0001
1000
0010
1000
0010
1000
0100
0010
0001
0010
0100
1000
0010
0100
,
0001
1000
0010
0000
1000
0100
0010
0000
0001
0100
0010
0000
0100
0010
1000
0000
,
0001
1000
0010
0000
1000
0010
0100
0000
0001
0010
0100
0000
0010
0001
1000
0000
,
0010
0000
1000
0000
0010
0000
1000
0000
0000
0001
0000
0000
1000
0000
0000
0010
0000
0000
1000
0000
0000
0100
0000
0000
0010
0000
0000
0001
0000
0000
0010
0000
0000
0100
0000
0000
1000
0000
0000
0010
0000
0000
0100
0000
0000
0001
0000
0000
,
1000
0000
0000
0001
0000
0000
0010
0000
0001
0000
1000
0000
0001
0000
0000
0100
0000
0000
0010
0000
0000
1000
0000
0000
0010
0000
1000
0000
0001
0000
1000
0000
0000
0100
0000
0000
0010
0000
0000
0001
0000
0000
0010
0000
0001
0000
1000
0000
,
0001
1000
0010
1000
0001
0010
0001
0010
0100
1000
0100
1000
0001
1000
0001
1000
,
0010
1000
0100
0010
0001
0010
0100
1000
0010
0100
0001
0010
0100
0010
0001
0100
,
0010
1000
0100
0010
0001
0100
0010
1000
0100
0010
0001
0100
0010
1000
0100
0010
,
0001
0100
0001
0100
0010
1000
0010
1000
0100
0010
0100
0010
0001
0100
0001
0100
,
0001
1000
0001
1000
0100
1000
0100
1000
0010
0100
0010
0100
0001
0100
0001
0100
,
0001
0010
0001
0010
0001
0100
0010
1000
0100
1000
0100
1000
0010
0100
0001
0010
,
0001
0100
0010
1000
0100
0010
0001
0010
0100
1000
0001
0100
0010
1000
0001
0010
,
0100
1000
0100
0010
0001
0100
0010
1000
0001
0100
0010
0100
0001
0010
0100
1000
,
0010
1000
0100
0010
0001
0100
0010
1000
0100
0010
0100
1000
0001
0100
0010
0100
,
0001
0000
1000
0000
0001
0000
1000
0000
0000
0100
0000
0000
1000
0000
0000
0010
0000
0000
0100
0000
0000
0001
0000
0000
0010
0000
0001
0000
0010
0000
0001
0000
0000
0010
0000
0000
0100
0000
0000
1000
0000
0000
0001
0000
0000
0100
0000
0000
,
0010
0000
1000
0000
0001
0000
1000
0000
0000
0001
0000
0000
0010
0000
0000
0100
0000
0000
1000
0000
0000
0100
0000
0000
0010
0000
0001
0000
1000
0000
0001
0000
0000
0100
0000
0000
0010
0000
0000
1000
0000
0000
0100
0000
0000
0010
0000
0000
,
0001
1000
1001
0001
0100
0101
0001
0010
,
0011
0001
1000
1001
0100
1100
1000
1001
,
0001
0100
0101
0001
1000
1001
1000
0100
,
1100
1000
0010
1010
1000
1001
0001
0101
,
0100
0010
1010
1000
0100
0110
0010
0001
,
0101
0100
0010
0110
0010
1010
1000
1001
,
0201
0000
0310
0100
1000
0100
0011
0000
,
1200
0000
0310
0001
0010
0100
1100
0000
,
0001
0010
0011
0001
0100
0101
0001
0010
,
0011
0001
1000
1001
0010
1010
0100
1100
,
1000
0010
1010
1000
0100
1100
1000
0010
,
1010
1000
0001
0011
0001
1001
1000
1010
,
0010
0100
0101
0001
0010
0110
0100
1000
,
1010
0010
0100
0110
0100
0101
0001
1001
,
1000
0000
0010
0000
1000
0000
0001
0000
0000
0010
0000
0000
0001
0000
0000
0100
0000
0000
0010
0000
0000
1000
0000
0000
0100
0000
0000
0010
0000
0000
0001
0000
0000
0010
0000
0000
0100
0000
0000
1000
0000
0000
0010
0000
0000
0100
0000
0000
,
0001
0000
1000
0000
0001
0000
0010
0000
0000
0001
0000
0000
0100
0000
0000
0010
0000
0000
1000
0000
0000
0100
0000
0000
0010
0000
0000
0001
0000
0000
0010
0000
0000
0100
0000
0000
1000
0000
0010
0000
1000
0000
0100
0000
0010
0000
0001
0000
,
2000
0000
0000
0000
,
3000
0000
0000
0000
;

//---------------dance-single - Copied from ----------------
#NOTES:
     dance-single:
     Copied from:
     Beginner:
     1:
     0.129,0.234,0.043,0.000,0.000: // measure 1
0000
0000
0000
0000
,  // measure 2
0000
0000
0000
0000
,  // measure 3
0000
0000
0000
0000
,  // measure 4
0000
0000
0000
0000
,  // measure 5
0000
0000
0000
0000
,  // measure 6
0000
0000
0000
0000
,  // measure 7
0000
0000
0000
0000
,  // measure 8
0000
0000
0000
0000
,  // measure 9
1000
0000
0000
0000
,  // measure 10
0001
0000
0000
0000
,  // measure 11
1000
0000
0000
0000
,  // measure 12
0001
0000
0000
0000
,  // measure 13
0100
0000
0000
0000
,  // measure 14
0010
0000
0000
0000
,  // measure 15
1000
0000
0000
0000
,  // measure 16
0001
0000
0000
0000
,  // measure 17
0010
0000
0000
0000
,  // measure 18
0010
0000
0000
0000
,  // measure 19
0010
0000
0000
0000
,  // measure 20
0010
0000
0000
0000
,  // measure 21
0001
0000
0000
0000
,  // measure 22
1000
0000
0000
0000
,  // measure 23
0010
0000
0000
0000
,  // measure 24
1000
0000
0000
0000
,  // measure 25
0100
0000
0000
0000
,  // measure 26
0100
0000
0000
0000
,  // measure 27
0100
0000
0000
0000
,  // measure 28
0100
0000
0000
0000
,  // measure 29
1000
0000
0000
0000
,  // measure 30
0010
0000
0000
0000
,  // measure 31
1000
0000
0000
0000
,  // measure 32
0001
0000
0000
0000
,  // measure 33
1001
0000
0000
0000
,  // measure 34
0001
0000
0000
0000
,  // measure 35
0100
0000
0000
0000
,  // measure 36
0100
0000
0000
0000
,  // measure 37
0010
0000
0000
0000
,  // measure 38
1000
0000
0000
0000
,  // measure 39
0100
0000
0000
0000
,  // measure 40
0100
0000
0000
0000
,  // measure 41
1000
0000
0000
0000
,  // measure 42
0001
0000
0000
0000
,  // measure 43
1000
0000
0000
0000
,  // measure 44
0001
0000
0000
0000
,  // measure 45
0010
0000
0000
0000
,  // measure 46
0001
0000
0000
0000
,  // measure 47
0100
0000
0000
0000
,  // measure 48
0100
0000
0000
0000
,  // measure 49
0010
0000
0000
0000
,  // measure 50
1000
0000
0000
0000
,  // measure 51
0001
0000
0000
0000
,  // measure 52
0001
0000
0000
0000
,  // measure 53
1000
0000
0000
0000
,  // measure 54
0010
0000
0000
0000
,  // measure 55
0100
0000
0000
0000
,  // measure 56
0100
0000
0000
0000
,  // measure 57
0100
0000
0000
0000
,  // measure 58
0010
0000
0000
0000
,  // measure 59
1000
0000
0000
0000
,  // measure 60
0001
0000
0000
0000
,  // measure 61
0010
0000
0000
0000
,  // measure 62
0001
0000
0000
0000
,  // measure 63
1000
0000
0000
0000
,  // measure 64
0010
0000
0000
0000
,  // measure 65
1000
0000
0000
0000
,  // measure 66
0100
0000
0000
0000
,  // measure 67
0010
0000
0000
0000
,  // measure 68
0001
0000
0000
0000
,  // measure 69
0100
0000
0000
0000
,  // measure 70
0010
0000
0000
0000
,  // measure 71
1001
0000
0000
0000
,  // measure 72
1001
0000
0000
0000
,  // measure 73
0001
0000
0000
0000
,  // measure 74
0100
0000
0000
0000
,  // measure 75
0001
0000
0000
0000
,  // measure 76
0010
0000
0000
0000
,  // measure 77
0001
0000
0000
0000
,  // measure 78
0100
0000
0000
0000
,  // measure 79
0001
0000
0000
0000
,  // measure 80
1000
0000
0000
0000
,  // measure 81
1000
0000
0000
0000
,  // measure 82
0010
0000
0000
0000
,  // measure 83
1000
0000
0000
0000
,  // measure 84
0100
0000
0000
0000
,  // measure 85
1000
0000
0000
0000
,  // measure 86
0010
0000
0000
0000
,  // measure 87
1000
0000
0000
0000
,  // measure 88
0001
0000
0000
0000
,  // measure 89
1001
0000
0000
0000
;
