#TITLE:Anti-Matter;
#SUBTITLE:(CG Remix);
#ARTIST:Orbit1 & Milo feat. Latenighters;
#TITLETRANSLIT:;
#SUBTITLETRANSLIT:;
#ARTISTTRANSLIT:;
#CREDIT:;
#BANNER:Anti-Matter (CG ReMix).png;
#BACKGROUND:Anti-Matter (CG Remix)-bg.png;
#LYRICSPATH:;
#CDTITLE:CD_Title.png;
#MUSIC:Anti-Matter (CG ReMix).mp3;
#OFFSET:-0.140;
#SAMPLESTART:18.100;
#SAMPLELENGTH:12.000;
#SELECTABLE:YES;
#BPMS:0.000=200.001,60.000=100.000,62.000=200.001,186.000=100.000,188.000=200.001;
#STOPS:;
#BGCHANGES:;

//---------------dance-single - ----------------
#NOTES:
     dance-single:
     :
     Beginner:
     2:
     0.232,0.350,0.110,0.022,0.000:
0000
0000
0000
0000
,
0000
0000
0000
0000
,
0000
0000
0000
0000
,
0000
0000
0000
0000
,
0000
0000
0000
0000
,
0000
0000
0000
0000
,
0000
0000
0000
0000
,
0000
0000
0000
0000
,
1001
0000
0000
0000
,
0000
0000
0000
0000
,
1001
0000
0000
0000
,
0000
0000
0000
0000
,
1001
0000
0000
0000
,
0000
0000
0000
0000
,
1001
0000
0000
0000
,
0100
0000
0010
0000
,
0000
0000
0100
0000
,
0000
0000
0010
0000
,
0000
0000
0100
0000
,
0000
0000
0001
0000
,
0000
0000
1000
0000
,
0000
0000
0001
0000
,
0000
0000
1000
0000
,
0000
0000
0001
0001
,
0001
0000
1000
0000
,
1000
0000
0010
0010
,
0010
0000
0100
0000
,
0100
0000
0010
0010
,
0010
0000
1000
0000
,
1000
0000
0001
0001
,
0001
0000
1001
0000
,
0000
0000
1000
1000
,
1000
0000
0010
0000
,
0100
0000
0001
0001
,
0001
0000
0100
0000
,
0010
0000
1000
1000
,
1000
0000
0010
0000
,
0100
0000
0002
0000
,
0000
0000
0000
0000
,
1000
1003
0001
0001
,
0001
0000
0100
0000
,
0010
0000
1000
1000
,
1000
0000
0100
0000
,
0010
0000
0001
0001
,
0001
0000
1000
1000
,
1000
0000
0010
0010
,
0010
0100
0100
0000
,
0010
0010
0010
0000
,
1000
1000
1000
0000
,
0001
0001
0001
0000
,
0100
0100
0100
0000
,
0010
0010
0010
0000
,
1000
1000
1000
0000
,
0001
0001
0001
1000
,
1001
0000
0000
0000
,
0010
0010
0010
0000
,
1000
1000
1000
0000
,
0001
0001
0001
0000
,
0100
0100
0100
0000
,
0001
0001
1000
0000
,
1000
1000
0001
0000
,
0010
0010
0100
0000
,
0110
0000
0000
0000
,
0001
0001
0001
0000
,
1000
0000
1001
0000
,
1000
1000
1000
0000
,
0001
0000
1001
0000
,
0010
0010
0010
0000
,
0100
0000
0110
0000
,
0010
0010
0010
0000
,
0200
0000
0000
0000
,
0310
0000
0000
0000
;

//---------------dance-single - Copied from----------------
#NOTES:
     dance-single:
     Copied from:
     Easy:
     5:
     0.446,0.545,0.285,0.099,0.000:
0000
0000
0000
0000
,
0000
0000
0000
0000
,
0000
0000
0000
0000
,
0000
0000
0000
0000
,
0000
0000
0000
0000
,
0000
0000
0000
0000
,
0000
0000
0000
0000
,
0000
0000
0000
0000
,
1001
0100
0100
0100
,
0100
0100
0100
0100
,
1001
0010
0010
0010
,
0010
0010
0010
0010
,
1001
0110
0100
0100
,
0100
0100
0100
0100
,
1001
0110
0010
0010
,
0200
0320
1030
0010
,
0100
1001
0001
0100
,
0010
1001
0010
1000
,
0100
1001
0010
0001
,
0100
1001
0010
1000
,
0001
1001
0010
0001
,
1000
1001
0010
0100
,
0001
1001
0110
0000
,
0000
0000
0000
0000
1000
0100
1000
0000
,
0010
0110
0001
0100
,
0010
0110
1000
0010
,
0100
0110
0001
0100
,
0010
0000
0110
0000
0001
0010
0001
0000
,
0100
0110
1000
0001
,
0010
0110
0001
1000
,
0010
0100
0010
0100
0010
0000
0000
0000
,
0000
0000
1000
1000
,
0100
0001
0010
0010
,
0001
0100
1000
1000
,
0010
0001
0100
0100
,
0001
0010
1000
1000
,
0100
0001
0010
0010
,
0001
0100
2000
0000
,
0000
0000
0000
0000
,
0001
0000
3001
0000
1000
0100
1000
0000
,
0010
0100
0001
0010
,
0001
0000
0100
0000
0001
0010
0001
0000
,
0100
0010
1000
0010
,
0100
0000
0001
0000
1000
0100
1000
0000
,
0010
0100
0001
1000
,
0010
0000
0100
0000
0001
0010
0001
0000
,
1000
0100
1000
0100
2000
0000
3020
0000
,
0130
0010
1000
1001
,
0010
0100
0001
1001
,
0010
1000
0001
1001
,
0010
0001
1000
1001
,
0010
0100
0001
0110
,
1000
0010
0100
0110
,
0001
0000
1000
0000
0010
0100
0010
0100
,
0010
0000
0000
0000
,
1000
1000
1000
0000
0010
0000
0100
0000
,
0001
0010
0100
1000
,
0001
0001
0001
0000
0100
0000
0010
0000
,
1000
1000
1000
0000
0010
0000
0100
0000
,
0001
0001
0001
0000
0100
0000
0010
0000
,
1000
1000
1000
0000
0010
0000
0100
0000
,
0001
0001
0001
0000
1000
1000
0001
1000
,
0001
0000
0000
0000
,
1000
1000
0100
0001
,
0100
1000
0002
0003
,
0001
0001
1000
0010
,
0001
0010
2000
3000
,
0001
0001
0100
1000
,
0100
0001
2000
3000
,
0010
0010
0100
0001
,
2000
0000
0000
0000
,
3001
0000
0000
0000
;

//---------------dance-single - Copied from Copied f----------------
#NOTES:
     dance-single:
     Copied from Copied f:
     Medium:
     9:
     0.686,0.817,0.230,0.373,0.055: // measure 1
0000
0000
0000
0000
,  // measure 2
0000
0000
0000
0000
,  // measure 3
0000
0000
0000
0000
,  // measure 4
0000
0000
0000
0000
,  // measure 5
0000
0000
0000
0000
,  // measure 6
0000
0000
0000
0000
,  // measure 7
0000
0000
0000
0000
,  // measure 8
0000
0000
0000
0000
,  // measure 9
1001
0100
0100
0100
,  // measure 10
0100
0000
0100
0000
0100
0000
0100
0010
,  // measure 11
1001
0010
0010
0010
,  // measure 12
0010
0000
0010
0000
0010
0000
0010
0100
,  // measure 13
1001
0110
0100
0100
,  // measure 14
0100
0000
0100
0000
0100
0000
0100
0010
,  // measure 15
1001
0110
0010
0010
,  // measure 16
0200
0000
0320
0000
1030
0000
0001
0010
,  // measure 17
0100
1000
0002
0000
1003
0000
0010
0100
,  // measure 18
0001
1000
0200
0000
0310
0000
0001
1000
,  // measure 19
0010
0100
0002
0000
1003
0000
0010
0100
,  // measure 20
0001
1000
0200
0000
0310
0000
0001
0010
,  // measure 21
0100
1000
0020
0000
0130
0000
0010
1000
,  // measure 22
0001
0100
0002
0000
1003
0000
0001
0010
,  // measure 23
0100
1000
0010
0000
0200
0000
0000
0000
,  // measure 24
0001
0000
0301
0000
1000
1000
1000
0000
,  // measure 25
0010
0100
0001
0000
0010
0000
0100
1000
,  // measure 26
0010
0100
0001
0010
0001
0001
0100
0000
,  // measure 27
0010
1000
0200
0000
1300
1000
0010
0100
,  // measure 28
0001
0010
0100
0100
1000
0010
0100
0000
,  // measure 29
0010
0001
0200
0000
0301
0001
0010
0100
,  // measure 30
1000
0010
0100
0001
1000
1000
0010
0100
,  // measure 31
0001
1000
0010
0000
0200
0000
0000
0000
,  // measure 32
0000
0000
0000
0000
1300
0100
1000
0010
,  // measure 33
0100
0000
0000
0001
0000
0000
0010
0000
0000
0100
0000
0000
1000
0000
0000
0010
,  // measure 34
0000
0100
0001
0000
0010
0001
0100
0010
,  // measure 35
1000
0000
0000
0100
0000
0000
0010
0000
0000
0001
0000
0000
0100
0000
0010
0000
,  // measure 36
0001
0010
0100
1000
0010
0100
0010
1000
,  // measure 37
0100
0000
0000
0010
0000
0000
0001
0000
0000
0100
0000
0000
0010
0000
0000
1000
,  // measure 38
0000
0100
0010
0001
2000
0000
0000
0000
,  // measure 39
0000
0000
0000
0000
,  // measure 40
0001
0001
3001
0000
0010
0001
0010
0100
,  // measure 41
1000
1000
0010
0100
0001
0001
0010
0100
,  // measure 42
1000
0010
0100
0000
0001
0100
0010
1000
,  // measure 43
0100
0100
1000
0010
0100
0100
0001
0010
,  // measure 44
0100
1000
0010
0000
1000
1000
0010
0100
,  // measure 45
0001
0001
0100
0010
1000
1000
0010
0100
,  // measure 46
0001
0001
0100
0010
1000
1000
0010
0100
,  // measure 47
0001
0001
0010
0100
2000
0000
3020
0000
,  // measure 48
0130
0100
0001
0010
0100
1000
0020
0000
,  // measure 49
0130
0100
0010
1000
0100
0010
0001
0000
,  // measure 50
1000
1000
0001
0010
0100
1000
0020
0000
,  // measure 51
1030
1000
0001
0010
0100
1000
0010
0100
,  // measure 52
0001
0001
1000
0100
0010
0001
0200
0000
,  // measure 53
0310
0010
1000
0001
0010
0100
1000
0010
,  // measure 54
0100
0100
0001
0100
0010
0010
1000
0100
,  // measure 55
0020
0000
0001
0031
,  // measure 56
1000
0000
1000
0000
0001
0000
0010
0000
0100
0000
1000
0000
2200
0000
0000
3300
,  // measure 57
0001
0001
0010
0100
1000
0010
0100
0001
,  // measure 58
1000
0100
1000
0100
1000
0000
0010
0000
0100
0000
0001
0000
0022
0000
0000
0033
,  // measure 59
0001
0001
0100
0010
1000
0100
0010
0001
,  // measure 60
0100
0000
0100
0000
0010
0000
1000
0000
0001
0000
0010
0000
2200
0000
0000
3300
,  // measure 61
0010
0010
0001
0100
0010
1000
0100
0010
,  // measure 62
0001
0000
0001
0000
0100
0000
0010
0000
1000
0000
0100
0000
0022
0000
0000
0033
,  // measure 63
2002
0000
0000
0000
0000
0000
0000
3000
1000
0000
0000
0000
1003
0000
0000
0000
,  // measure 64
1001
1001
0100
0010
0001
0001
0100
0010
,  // measure 65
1000
1000
0001
0010
0200
0000
0300
0000
,  // measure 66
1001
1001
0010
0100
1000
1000
0010
0100
,  // measure 67
0001
0010
0100
1000
0020
0000
0030
0000
,  // measure 68
1001
1001
0010
0100
0001
0010
0100
0100
,  // measure 69
1000
0010
0100
0001
0020
0000
0030
0000
,  // measure 70
0110
1000
0110
0001
,  // measure 71
0220
0000
0000
0000
0000
0000
0000
0330
,  // measure 72
1001
0000
0000
0000
;

//---------------dance-single - Copied from Copied f----------------
#NOTES:
     dance-single:
     Copied from Copied f:
     Hard:
     10:
     0.850,1.000,0.263,0.186,0.526:
0000
0000
0000
0000
,
0000
0000
0000
0000
,
0000
0000
0000
0000
,
0000
0000
0000
0000
,
0000
0000
0000
0000
,
0000
0000
0000
0000
,
0000
0000
0000
0000
,
0000
0000
0000
0000
,
1001
0100
0100
0100
,
0100
0000
0100
0000
0100
0000
0100
0010
,
1001
0010
0010
0010
,
0010
0000
0010
0000
0010
0000
0010
0100
,
1001
0110
0100
0100
,
0100
0000
0100
0000
0100
0000
0100
0010
,
1001
0000
0110
0000
0010
0100
0010
0100
,
0020
0000
2030
0000
3001
0010
0001
0100
,
0001
0010
0100
0000
1000
0100
1000
0010
,
1000
0100
0010
0000
0100
0001
0100
0010
,
0100
1000
0100
0000
0010
1000
0010
0100
,
0010
0001
0010
0000
1000
0100
0010
0100
,
0001
0100
0010
0000
0001
0010
0100
0010
,
1000
0010
0100
0000
1000
0100
0001
0010
,
0001
0000
0100
0000
1000
0000
0000
0000
0001
0010
0001
0000
1000
0100
1000
0000
,
0010
0100
0010
0000
1000
0001
1000
0001
1000
0000
1000
0000
0100
0000
0010
0000
,
0001
0100
1000
0000
0001
0001
0010
0100
,
1000
0010
0001
0000
1000
0010
0001
0010
,
0100
0001
0010
0000
0001
0100
1000
0100
,
0010
1000
0100
0000
0001
0001
1000
0010
,
0001
0010
0100
0000
1000
1000
0001
0010
,
1000
0010
0100
0000
0010
0001
0010
0100
,
1000
0010
1000
0000
0010
0100
0010
0100
0002
0000
0000
0000
0000
0000
0000
0000
,
0000
0000
0000
0000
1003
0100
0010
0001
,
0100
0010
0000
1000
0010
0000
0010
0100
0000
0001
0010
0000
0001
0100
0000
0010
,
1000
0001
0001
0000
0010
0100
0001
1000
,
0010
0100
0000
0001
0100
0000
0010
0100
0000
1000
0100
0000
0100
0010
0100
0000
,
0001
0010
0001
0010
0100
1000
0010
0000
0100
0000
0001
0000
0010
0000
0100
0000
,
1000
0010
0000
1000
0100
0000
0010
0100
0000
0001
0010
0000
0001
0100
0000
0010
,
1000
0000
0000
0010
0100
0001
0100
0000
0002
0000
0000
0000
0000
0000
0000
0000
,
0000
0000
0000
0000
,
1000
1000
1003
0000
0010
1000
0001
0010
,
1000
0001
0100
1000
0010
1000
0100
0001
,
1000
0010
0001
0000
0100
0001
1000
0010
,
0001
1000
0100
0001
0010
1000
0100
0001
,
1000
0000
0010
0000
0001
0000
1000
0000
0001
0010
0001
0000
1000
0000
1000
0000
,
1000
0100
1000
0000
0010
0000
0010
0000
0010
0100
0010
0000
0100
0000
0100
0000
,
0100
0001
0100
0000
0001
0000
0001
0000
1000
0010
1000
0000
0010
0100
0010
0000
,
0100
0001
0100
0000
0001
0010
0100
1000
0020
0000
0000
0000
0230
0000
0000
0000
,
0301
0010
0001
0000
0010
0001
0010
0100
1000
0000
0010
0000
2020
0000
3030
0000
,
1000
0100
1000
0000
0010
1000
0100
0010
0001
0000
0100
0000
0001
0000
0010
0000
,
0001
0010
0001
0000
0010
0001
0010
0100
1000
0000
0010
0000
2200
0000
3300
0000
,
0001
0010
0001
0000
0010
0100
0010
0000
0100
1000
0100
0000
1000
0010
1000
0010
,
0100
0001
0010
0000
0001
0010
0100
1000
0010
0000
0100
0000
0202
0000
0303
0000
,
1000
0010
1000
0000
0001
0010
0100
1000
0010
0000
0100
0000
0001
0000
0010
0000
,
0100
1000
0100
0000
0010
0001
0100
0010
1000
0100
1000
0000
0010
0000
0100
0000
,
0100
0001
0100
0000
0001
0010
0001
0000
0010
0100
0010
0000
0100
1000
0100
1000
,
0010
0110
0101
0001
0101
1000
1100
0000
,
1100
1100
1000
0001
0011
0011
0001
0100
,
0010
0100
0010
0100
0010
0000
1000
0000
1010
0000
0001
0000
0011
0000
0000
0000
,
0001
0010
0001
0000
0010
0100
1000
0010
0100
0000
0001
0000
1000
0000
0100
0000
,
1000
0010
1000
0100
0010
0000
0001
0000
0101
0000
1000
0000
1100
0000
0000
0000
,
0001
0100
0001
0010
0100
0000
1000
0000
1010
0000
0010
0000
0110
0000
0100
0000
,
0001
0100
0001
0010
0100
0000
1000
0010
0100
0000
0010
0100
0001
0100
0010
1000
,
0200
0000
0000
0000
0000
0000
0000
0300
,
1000
0000
0010
0000
0100
0000
0001
0000
0010
0100
0010
0000
0100
0000
1000
0000
,
0010
0100
0010
0000
0100
0001
0100
0000
0002
0000
0000
0000
0000
0000
0000
0000
,
0103
0000
0010
0000
1000
0000
0001
0000
0010
0100
0010
0000
0100
0000
1000
0000
,
0010
0100
0010
0000
1000
0010
1000
0000
0002
0000
0000
0000
0000
0000
0003
0000
,
1000
0000
0010
0000
0100
0000
0001
0000
1000
0100
1000
0000
0010
0000
0100
0000
,
0001
0010
0001
0000
0100
0010
0100
0000
0020
0000
0000
0000
0000
0000
0000
0000
,
1030
0010
0100
0000
0001
0000
0010
0000
0100
1000
0100
0000
0010
0001
0010
0001
,
0200
0000
0000
0000
0000
0000
0000
0300
,
1001
0000
0000
0000
;
