#VERSION:0.83;
#TITLE:Snakeskin;
#SUBTITLE:;
#ARTIST:Rina Sawayama;
#TITLETRANSLIT:;
#SUBTITLETRANSLIT:;
#ARTISTTRANSLIT:;
#GENRE:;
#CREDIT:;
#MUSIC:Snakeskin.ogg;
#BANNER:Snakeskin-bn.png;
#BACKGROUND:;
#CDTITLE:;
#SAMPLESTART:0.000;
#SAMPLELENGTH:0.000;
#SELECTABLE:YES;
#OFFSET:0.338;
#BPMS:0.000=139.985;
#STOPS:;
#BGCHANGES:2.000=Snakeskin.avi=1.000=0=0=0=StretchNoLoop====,
99999.000=-nosongbg-=1.000=0=0=0=StretchNoLoop====
;
#FGCHANGES:;

//--------------- dance-single - Xaevin ----------------
#NOTEDATA:;
#STEPSTYPE:dance-single;
#DESCRIPTION:Xaevin;
#DIFFICULTY:Beginner;
#METER:3;
#RADARVALUES:0,0,0,0,0;
#NOTES:
0000
0000
0000
0000
,
2010
0000
0000
0000
0000
0000
0000
3000
,
0000
0000
0000
0000
0000
0000
0010
0000
0000
0100
0000
0000
0000
0000
0000
0000
,
1100
0000
0000
0000
,
0101
0000
0000
0000
,
0001
0020
0000
0000
0000
0000
0000
0000
,
0030
0000
0000
0000
0000
0000
0000
0200
0000
0000
0000
0000
0000
0000
0300
0000
,
0020
0000
0000
0000
0000
0000
0000
0030
,
1000
0000
0100
0000
,
0202
0000
0000
0000
0000
0000
0000
0003
,
0000
0300
0000
0000
0010
0000
0000
0000
,
2100
0000
0000
0000
0000
0000
3000
0000
0000
0001
0000
0000
0000
0000
0000
0000
,
0110
0000
0011
0000
,
2001
0000
3001
0000
,
0102
0000
0103
0000
,
2010
0000
3010
0000
,
0001
0010
0100
0000
,
1010
0002
0000
0003
,
0110
2000
0000
3000
,
0011
0200
0000
0300
,
0001
0010
0100
0000
,
0101
0000
0001
0000
,
0101
0000
0010
0000
,
0101
0000
1000
0000
,
1000
0100
0010
0001
,
1000
1000
0001
0001
,
0010
0000
0001
0000
,
0100
0000
0010
0000
,
0001
0010
1000
0000
,
1001
0000
0002
0100
,
0100
0100
0100
0003
,
1100
0000
2000
0010
,
0010
0010
0010
3000
,
0201
0000
0302
2003
,
3200
0320
1030
2000
,
0000
3000
0020
0230
,
2300
3002
0023
0030
,
0102
0003
0010
1000
,
0010
1000
0100
0000
,
0202
0303
1000
0010
,
2000
3000
0201
0300
,
2002
3003
0010
0001
,
2020
0000
0000
3030
0202
0000
0000
0303
,
0010
0010
1001
0100
,
0010
0000
1000
0010
0000
0000
0000
0000
0000
1100
0000
0000
,
1002
0000
0010
0000
,
1000
0000
0010
0003
,
0200
0000
0001
0000
,
0010
0000
0001
0300
,
1001
0000
0101
0000
,
1010
0000
1001
0000
,
0001
0100
0001
0100
,
1000
0010
1000
0010
,
1002
0000
0000
0000
,
0000
0000
0000
0000
,
0003
0000
2000
0020
0000
0000
3000
0030
,
0000
0200
0002
0000
0000
0000
0000
0000
,
0000
0000
0300
0003
0000
2000
0000
0000
,
0000
0000
0000
3000
;

//--------------- dance-single - Xaevin ----------------
#NOTEDATA:;
#STEPSTYPE:dance-single;
#DESCRIPTION:Xaevin;
#DIFFICULTY:Easy;
#METER:4;
#RADARVALUES:0,0,0,0,0;
#NOTES:
0000
0000
0000
0000
,
2010
0000
0000
0000
,
0000
0000
0000
0000
0000
0000
0010
0000
0000
0100
0000
0000
3000
0000
0000
0000
,
1100
0000
0000
0000
,
0101
0000
0000
0000
,
0002
0020
0000
0000
0000
0000
0000
0000
,
0030
0000
0000
0000
0000
0000
0003
0200
0000
0000
0000
0000
0000
0000
0000
0000
,
0020
0000
0000
0000
0000
0000
0000
0330
,
1000
0000
0100
0000
,
0202
0000
0000
0000
,
0000
0000
0003
0000
0010
0300
0000
0000
,
2100
0000
0000
0000
0000
0000
0000
0000
0000
0001
0000
0000
3000
0000
0000
0000
,
0110
0000
0011
0000
,
2001
0000
0000
0000
0001
0000
0000
3000
,
0102
0000
0000
0000
0100
0000
0000
0003
,
2010
0000
0000
0000
0010
0000
0000
3000
,
0001
0010
0100
1000
,
0110
0002
0000
0003
,
0110
2000
0000
3000
,
0011
0200
0000
0300
,
0001
0010
0100
1000
,
0011
0100
0001
0100
,
0011
1000
0010
1000
,
0011
1000
0022
0033
,
1000
0100
0010
0001
,
1000
1000
0001
0001
,
0010
1000
0001
1000
,
0100
0001
0010
1000
,
0001
0010
1000
0010
,
1001
0000
0010
0000
0001
0100
0001
0100
,
0001
0100
0001
0100
0001
0000
1100
0000
,
0000
0000
0011
0000
1000
0010
1000
0010
,
1000
0010
1000
0010
1000
0000
1000
0000
,
0201
0000
0302
2003
,
3200
0320
1030
2000
,
0000
3020
2030
3002
,
2003
3002
0203
0301
,
0110
0001
0001
1000
,
1000
0010
1001
0010
,
0202
0303
1000
0010
,
1000
0010
0101
0010
,
2002
3003
0010
0001
,
2020
0000
0000
3030
0202
0000
0000
0303
,
0010
0010
1001
0100
,
0010
0000
1000
0010
0000
0000
0000
0000
0000
1100
0000
0000
,
1002
1000
0200
0300
,
0000
1000
0200
0303
,
0201
0001
0020
0030
,
0000
0001
0020
0330
,
1001
0001
0010
1000
,
0110
0001
0100
1000
,
0001
0100
0001
0100
,
1000
0010
1000
0010
,
1002
0000
0000
0000
,
0000
0000
0000
0000
,
0003
0000
2000
0020
0000
0000
3000
0030
,
0000
0200
0002
0000
0000
0000
0000
0000
,
0000
0000
0300
0003
0000
2000
0000
0000
,
0000
0000
0000
3000
;

//--------------- dance-single - Xaevin ----------------
#NOTEDATA:;
#STEPSTYPE:dance-single;
#DESCRIPTION:Xaevin;
#DIFFICULTY:Medium;
#METER:5;
#RADARVALUES:0,0,0,0,0;
#NOTES:
0000
0000
0000
0000
,
2020
0000
0000
0000
,
0030
0000
0000
0000
0000
0000
0010
0000
0000
0100
0000
0000
3000
0000
0000
0000
,
2100
0000
3010
0000
,
0102
0000
0013
0000
,
0000
0002
0000
0000
0000
0100
0000
0000
,
0000
0000
0003
0000
0000
0000
0000
0200
0000
0000
0000
0000
0000
0000
0000
0000
,
0020
0300
0000
0000
1000
0000
0000
0030
,
0100
0000
0010
0000
,
0202
0000
0000
0000
0000
0003
0000
0000
,
0001
0000
0000
0000
0010
0300
0000
0000
,
2100
0000
0000
0000
0000
0000
0000
0000
0000
0001
0000
0000
3000
0000
0000
0000
,
0110
0000
0011
0000
,
2001
0000
0010
0000
0001
3000
0010
0000
,
0102
0000
0010
0000
0100
0003
1000
0000
,
0210
0001
0010
0301
,
1001
0001
0010
0100
,
1100
0000
2000
0100
0000
0000
3100
0000
,
0110
0000
0020
0100
0000
0000
0130
0000
,
0001
0100
1000
0100
,
0001
0010
0100
1000
,
0011
0100
0001
0100
,
0011
1000
0010
1000
,
0011
1000
0011
1000
,
0110
0001
0010
0100
,
0001
0100
1000
0100
,
0001
1000
0100
1000
,
0010
1000
0010
0000
0100
0001
0100
0000
,
0001
1000
0001
0000
1000
0001
1000
0000
,
1001
0000
0010
0000
0001
0010
0100
0010
,
0001
0010
0100
0010
0001
0000
1100
0000
,
0110
0000
0011
0000
1000
0100
0010
0100
,
1000
0100
0010
0100
1000
0000
1000
0000
,
1010
2000
3002
2003
,
3200
0320
1030
2000
,
0000
3020
2030
3002
,
2003
3002
0203
0301
,
0110
0001
0001
1000
,
1000
0010
1001
0010
,
0101
0100
1000
0010
,
1000
0010
0101
0010
,
1001
0100
0010
0001
,
1100
0100
0101
0001
,
0010
0001
0010
0001
0000
0000
1000
0000
0000
0100
0000
0000
,
0010
0000
1000
0010
0000
0000
0000
0000
0000
1100
0000
0000
,
1002
0010
1000
0010
,
1000
0010
2000
3003
,
0210
0001
0010
0001
,
0010
0001
0020
0330
,
1001
0001
0010
1000
,
0110
0001
0100
1000
,
0101
0010
1001
0100
,
1010
0101
1001
0110
,
1002
0000
0000
0000
,
0000
0000
0000
0000
,
0003
0000
2000
0020
0000
0000
3000
0030
,
0000
0200
0002
0000
0000
0000
0000
0000
,
0000
0000
0300
0003
0000
2000
0000
0000
,
0000
0000
0000
3000
;

//--------------- dance-single - Xaevin ----------------
#NOTEDATA:;
#STEPSTYPE:dance-single;
#DESCRIPTION:Xaevin;
#DIFFICULTY:Hard;
#METER:7;
#RADARVALUES:0,0,0,0,0;
#NOTES:
0000
0000
0000
0000
,
2020
0000
0000
0000
,
0000
0000
3030
0000
0000
0000
0010
0000
0000
0100
0000
0000
0000
0000
0000
0000
,
2100
0000
3001
0000
,
0012
0000
1003
0000
,
0000
0102
0000
0000
0000
0000
0000
0000
0000
0000
0000
0000
0000
0000
0000
0000
,
0000
0000
0003
0000
0000
0000
0000
2100
0000
0000
0000
0000
0000
0000
0000
0000
,
0020
3000
0000
0000
0000
0000
0000
0030
,
0011
0000
1010
0000
,
0202
0000
0000
0000
0000
0003
0000
0000
,
0000
0000
0000
0000
0010
0300
0000
0000
,
2010
0000
0000
0000
0000
0000
0000
0000
0000
0001
0000
0000
3000
0000
0000
0000
,
0101
0000
0011
0000
,
1001
0000
0100
0010
0001
0010
0001
0000
,
0101
0000
0010
0100
1000
0100
1000
0000
,
0110
0000
0100
0010
0001
0010
0001
0000
,
1001
0001
0010
0100
,
1100
0000
1000
0100
0001
1000
0100
0000
,
0110
0000
0010
0100
0001
0100
1000
0000
,
0110
0000
0100
0010
0001
0010
0100
1000
,
0100
1000
0100
0010
0001
0000
1000
0000
,
0011
0000
0100
0010
0001
1000
0100
0000
,
0011
0000
1000
0001
0010
0001
1000
0000
,
0011
1000
0011
1000
,
0110
0000
0100
0001
1000
0010
0001
0000
,
1001
0010
1001
0010
,
0110
0001
0110
1000
,
0010
1000
0010
0000
0100
0001
0100
0000
,
0001
1000
0001
0000
1000
0001
1000
0000
,
1001
0000
0010
0000
0001
0010
0100
0010
,
0001
0010
0100
0010
0001
0000
1100
0000
,
0110
0000
0011
0000
1000
0100
0010
0100
,
1000
0100
0010
0100
1000
0000
1000
0000
,
1010
0000
2000
0000
3001
0010
1000
0001
,
0100
1000
0010
0000
1010
0000
2001
0000
,
0000
0000
3020
0000
1030
0100
0001
0100
,
0001
1000
0010
0100
0001
0000
0101
0000
,
1001
0000
0100
0000
0001
0010
0010
0000
,
0100
1000
1000
0000
1001
0000
0101
0000
,
1000
0001
0100
0001
1000
0001
0010
0001
,
1000
0001
0010
0000
0101
0000
0010
0000
,
1001
0000
0100
0001
0010
0000
0001
0000
,
1100
0100
0101
0001
,
0010
0001
0010
0001
0000
0000
1000
0000
0000
0100
0000
0000
,
0010
0000
1000
0010
0000
0000
0000
0000
0000
1100
0000
0000
,
1001
0000
0010
0100
0001
0000
0110
0000
,
0001
0001
0100
0010
0001
0100
0010
0000
,
0101
0000
0001
0010
1000
0000
0011
0000
,
1000
1000
0100
0010
1000
0100
0010
0000
,
1001
0000
0001
0010
1000
0000
1000
0000
,
0110
0000
0001
0010
1000
0000
1000
0000
,
0101
0010
1001
0100
,
1010
0101
1001
0110
,
1002
0000
0000
0000
,
0000
0000
0000
0000
,
0003
0000
2000
0020
0000
0000
3000
0030
,
0000
0200
0002
0000
0000
0000
0000
0000
,
0000
0000
0300
0003
0000
2010
0000
0000
,
0000
0000
0000
3000
;
