#VERSION:0.83;
#TITLE:Simp;
#SUBTITLE:;
#ARTIST:Lil Mariko, Rico Nasty, Full Tac;
#TITLETRANSLIT:;
#SUBTITLETRANSLIT:;
#ARTISTTRANSLIT:;
#GENRE:;
#CREDIT:;
#MUSIC:Simp.ogg;
#BANNER:Simp-bn.png;
#BACKGROUND:Simp-bg.png;
#CDTITLE:;
#SAMPLESTART:30.034;
#SAMPLELENGTH:15.000;
#SELECTABLE:YES;
#OFFSET:-0.034;
#BPMS:0.000=128.000;
#STOPS:;
#BGCHANGES:0.000=Simp.avi=1.000=0=0=0=StretchNoLoop====,
99999.000=-nosongbg-=1.000=0=0=0=StretchNoLoop====
;
#FGCHANGES:;

//--------------- dance-single - Xaevin ----------------
#NOTEDATA:;
#STEPSTYPE:dance-single;
#DESCRIPTION:Xaevin;
#DIFFICULTY:Beginner;
#METER:4;
#RADARVALUES:0,0,0,0,0;
#NOTES:
0000
0000
0000
0000
,
0000
0000
0000
0000
,
0000
0000
0000
0000
,
0000
0000
0000
0000
,
0000
0000
0000
0000
,
0000
0000
0000
0000
,
0000
0000
0000
0000
,
0000
0000
0000
0000
,
0100
0010
0001
0100
,
0001
0100
0001
0000
,
1001
0000
0010
0000
,
1000
0000
0010
0000
,
0001
0001
0100
0100
,
0010
0010
1000
1000
,
0022
0030
0000
0000
,
0000
0000
0000
0003
,
0101
1000
0010
0101
,
2000
0000
0000
3000
,
0110
0001
1000
0110
,
0002
0000
0000
0003
,
1010
0100
1000
0100
,
1010
0100
0010
0001
,
0022
0033
2200
3300
,
0011
0000
0000
0000
,
1001
0110
1001
0110
,
2000
0000
0001
3000
,
0100
1000
0100
0010
,
0002
0000
1000
0003
,
2020
0000
0000
0000
3030
0000
0202
0000
0000
0000
0303
0000
,
1000
0010
1000
0010
,
0100
0000
1000
0000
0001
0010
0001
0000
,
1000
0100
0010
0100
,
1001
0000
1000
0000
0001
0010
0001
0000
,
1000
0000
0001
0000
0010
0100
0010
0000
,
0001
0100
0001
0100
,
1000
1000
0100
0100
,
0011
1000
0010
0010
,
0001
0100
0001
0001
,
1000
0100
0010
0001
,
0010
0001
0100
0001
,
1001
0000
0100
0000
0010
0100
0010
0000
,
0100
0001
0010
0100
,
2000
3000
0200
0300
,
0020
0030
0002
0003
,
1010
0001
1010
0001
,
0010
1000
0010
0000
0100
0001
0100
0000
,
0001
1000
0001
1000
,
0100
1000
0100
0001
,
1100
0001
0010
0001
,
0100
0001
0010
0001
,
0200
0300
0200
0300
,
0020
0030
0020
0030
,
1200
0300
0200
0300
,
0021
0030
0020
0030
,
2002
3003
0220
0330
,
2002
0000
0000
3003
,
1000
0010
1000
0010
,
0001
0010
0001
0010
0001
0010
1000
0000
,
0001
0000
0010
0000
1000
0100
1000
0000
,
0012
0000
1000
0003
,
0022
0033
0220
0330
,
2000
0000
0001
3000
,
0010
0000
0100
0000
1000
0100
1000
0000
,
0220
0000
0000
0330
,
2002
0000
0000
3003
;

//--------------- dance-single - Xaevin ----------------
#NOTEDATA:;
#STEPSTYPE:dance-single;
#DESCRIPTION:Xaevin;
#DIFFICULTY:Easy;
#METER:5;
#RADARVALUES:0,0,0,0,0;
#NOTES:
0000
0000
0000
0000
,
0000
0000
0000
0000
,
0000
0000
0000
0000
,
0000
0000
0000
0000
,
0000
0000
0000
0000
,
0000
0000
0000
0000
,
0000
0000
0000
0000
,
0000
0000
0000
0000
,
0011
0100
0010
0001
,
1000
0100
0010
0001
,
1100
0010
0100
1000
,
0001
0010
0100
1000
,
0100
0100
0001
1000
,
0010
0010
1000
0001
,
2002
0003
0000
0000
,
0000
0000
0000
3000
,
0100
1000
0001
0010
,
1000
0100
1000
0010
1000
0100
1000
0000
,
0010
0001
1000
0100
,
0001
0010
0001
0100
0001
0010
0001
0000
,
1010
0100
1001
0100
,
1000
0100
0010
0001
,
1100
0010
1001
0100
,
0011
0000
0000
0000
,
1001
0110
1001
0110
,
2000
0000
0001
3000
,
0100
1000
0100
0010
,
0001
0010
0001
0010
0001
0010
1000
0000
,
2020
0000
0000
0000
3030
0000
0202
0000
0000
0000
0303
0000
,
1000
0010
1000
0010
,
0100
0000
1000
0000
0001
0010
0001
0000
,
1000
0100
0010
0100
,
1001
0000
1000
0000
0001
0010
0001
0000
,
1000
0000
0001
0000
0010
0100
0010
0000
,
0001
0100
0001
0100
,
1000
1000
0100
0100
,
0011
0000
1000
0000
0010
1000
0010
0000
,
0001
0000
0100
0000
0001
0100
0001
0000
,
1000
0100
0010
0001
,
0010
0001
0100
0001
,
1001
0000
0100
0000
0010
0100
0010
0000
,
0100
0001
0010
0100
,
1000
1000
1000
0000
0100
0100
0100
0000
,
0010
0010
0010
0000
0001
0001
0001
0000
,
1010
0101
1000
0100
,
0010
1000
0010
0000
0100
0001
0100
0000
,
0001
1000
0001
0010
,
0100
1000
0100
0010
,
1001
0010
0100
0001
,
1000
0010
0100
0001
,
2200
3300
0202
0303
,
0220
0330
2020
3030
,
0022
0033
2020
3030
,
0022
0033
0202
0303
,
0220
0330
0022
0033
,
2002
0000
0000
3003
,
1001
0110
1001
0110
,
0001
0010
0001
0010
0001
0010
1000
0000
,
0010
0000
0001
0000
0010
1000
0010
0000
,
1000
0100
1000
0100
1000
0100
0001
0000
,
0202
0303
2020
3030
,
0001
0010
0100
0010
0100
1000
0100
0000
,
0001
0000
0010
0000
1000
0100
1000
0000
,
0220
0000
0000
0330
,
2002
0000
0000
3003
;

//--------------- dance-single - Xaevin ----------------
#NOTEDATA:;
#STEPSTYPE:dance-single;
#DESCRIPTION:Xaevin;
#DIFFICULTY:Medium;
#METER:6;
#RADARVALUES:0,0,0,0,0;
#NOTES:
0000
0000
0000
0000
,
0000
0000
0000
0000
,
0000
0000
0000
0000
,
0000
0000
0000
0000
,
0000
0000
0000
0000
,
0000
0000
0000
0000
,
0000
0000
0000
0000
,
0000
0000
0000
0000
,
0011
0100
0010
0001
,
1000
0100
0010
0001
,
1100
0010
0100
1000
,
0001
0010
0100
1000
,
0100
0100
0001
1000
,
0010
0010
1000
0001
,
2002
0003
0000
0000
,
0000
0000
0000
3000
,
0100
1000
0001
0010
,
1000
0100
1000
0010
1000
0100
1000
0000
,
0010
0001
1000
0100
,
0001
0010
0001
0100
0001
0010
0001
0000
,
1010
0100
1001
0100
,
1000
0001
1000
0010
1000
0001
1000
0000
,
0101
0010
1001
0010
,
0101
0000
0000
0000
,
1001
0110
1001
0110
,
1000
0100
1000
0100
1000
0100
0001
0000
,
0100
0000
1000
0000
0100
0001
0100
0000
,
0001
0010
0001
0010
0001
0010
1000
0000
,
1010
0101
1100
0011
,
1000
0100
0010
0100
0010
0001
0010
0000
,
1000
0000
0100
0000
0001
0010
0001
0000
,
0100
1000
0100
0010
0001
0010
1000
0000
,
1001
0000
1000
0000
0001
0010
0001
0000
,
1000
0000
0001
0000
0010
0100
0010
0000
,
1000
0100
0010
0000
0100
0010
0001
0000
,
1000
0100
1000
0100
0010
0001
0010
0000
,
0101
0000
1000
0000
0010
1000
0010
0000
,
0001
0000
0100
0000
0001
0100
0001
0000
,
1000
0010
1000
0000
0010
0001
0010
0000
,
0100
1000
0100
0000
0001
0010
0100
0000
,
0011
0000
0100
0000
1000
0100
0010
0000
,
1100
0001
0010
0100
,
1000
1000
1000
0000
0100
0100
0100
0000
,
0010
0010
0010
0000
0001
0001
0001
0000
,
1010
0101
1000
0100
,
0010
1000
0010
0000
0100
0001
0100
0000
,
0001
0000
1000
0000
0001
0000
1000
0100
,
1000
0010
1000
0001
1000
0010
1000
0100
,
1000
0010
0100
0001
,
1000
0010
0100
0001
,
1100
0010
0101
1000
,
0110
0001
1010
0100
,
0011
0100
1010
0100
,
0011
1000
0101
1000
,
0110
1000
0011
0100
,
2002
0000
0000
3003
,
1001
0110
1001
0110
,
0001
0010
0001
0010
0001
0010
1000
0000
,
0010
0000
0001
0000
0010
1000
0010
0000
,
1000
0100
1000
0100
1000
0100
0001
0000
,
0101
1010
0011
1100
,
0001
0010
0100
0010
0100
1000
0100
0000
,
0001
0000
0010
0000
1000
0100
1000
0000
,
0010
0001
0010
0100
1000
0100
0001
0000
,
2002
0000
0000
3003
;

//--------------- dance-single - Xaevin ----------------
#NOTEDATA:;
#STEPSTYPE:dance-single;
#DESCRIPTION:Xaevin;
#DIFFICULTY:Hard;
#METER:7;
#RADARVALUES:0,0,0,0,0;
#NOTES:
0000
0000
0000
0000
,
0000
0000
0000
0000
,
0000
0000
0000
0000
,
0000
0000
0000
0000
,
0000
0000
0000
0000
,
0000
0000
0000
0000
,
0000
0000
0000
0000
,
0000
0000
0000
0000
,
0011
0100
0010
0001
,
1000
0001
0100
0010
0100
0010
1000
0000
,
0101
0010
0100
1000
,
0001
0100
0010
0001
0100
0010
1000
0000
,
0011
0100
0001
1000
,
0010
0001
0010
0001
1000
0100
0010
0000
,
2002
0003
0020
0030
,
0002
0003
0020
3030
,
0011
1001
0101
0011
,
1000
0100
1000
0010
1000
0100
1000
0000
,
1100
1001
1010
1100
,
0001
0010
0001
0100
0001
0010
0001
0000
,
1000
0100
0001
0010
1000
0100
0001
0010
,
1000
0001
1000
0010
1000
0001
1000
0000
,
0011
1010
1100
1010
,
0011
1000
0100
0010
,
1001
0110
1001
0110
,
1000
0100
1000
0100
1000
0100
0001
0000
,
0100
0000
1000
0000
0100
0001
0100
0000
,
0001
0010
0001
0010
0001
0010
1000
0000
,
1010
0101
1100
0011
,
1000
0100
0010
0100
0010
0001
0010
0000
,
1000
0000
0100
0000
0001
0010
0001
0000
,
0100
1000
0100
0010
0001
0010
1000
0000
,
1001
0000
1000
0000
0001
0010
0001
0000
,
1000
0000
0001
0000
0010
0100
0010
0000
,
1000
0100
0010
0000
0100
0010
0001
0000
,
1000
0100
1000
0100
0010
0001
0010
0000
,
0101
0000
1000
0000
0010
1000
0010
0000
,
0001
0000
0100
0000
0001
0100
0001
0000
,
1000
0010
1000
0000
0010
0001
0010
0000
,
0100
1000
0100
0000
0001
0010
0100
0000
,
0011
0000
0100
0000
1000
0100
0010
0000
,
1100
0001
0010
0100
,
1000
1000
1000
0000
0100
0100
0100
0000
,
0010
0010
0010
0000
0001
0001
0001
0000
,
1010
0101
1000
0100
,
0010
1000
0010
0000
0100
0001
0100
0000
,
0001
0000
1000
0000
0001
0000
1000
0100
,
1000
0010
1000
0001
1000
0010
1000
0100
,
1000
0000
0001
0010
0001
0010
0001
0000
,
1100
0000
0100
0010
0001
0010
0100
0000
,
1100
0000
0010
0100
0001
0100
0010
0000
,
1100
0000
0010
0001
0100
0001
0010
0000
,
1100
0000
0100
0001
0010
0001
0100
0000
,
1100
0000
0001
0010
0100
0010
0001
0000
,
1100
0000
0001
0100
0010
0100
0001
0000
,
1000
0000
0000
0000
0010
0000
0000
0000
0100
0000
0000
0000
0000
0000
0000
1000
0000
0000
0000
0000
0000
0000
0000
1001
0000
0000
0000
0000
0000
0000
0000
0000
,
1100
0110
0011
1100
,
0001
0010
0001
0010
0001
0010
1000
0100
,
0010
0100
0010
0001
0010
0100
1000
0100
,
0010
0100
0010
0001
0010
0100
0001
0000
,
0101
1010
0011
1100
,
0001
0010
0100
0010
0100
1000
0100
0000
,
0001
0000
0010
0000
1000
0100
1000
0000
,
0010
0001
0010
0100
1000
0100
0001
0000
,
2002
0000
0000
3003
;
