#TITLE:Ram It Down;
#SUBTITLE:;
#ARTIST:Dorian Electra ft. Mood Killer, Lil Mariko, & Lil Texas;
#TITLETRANSLIT:;
#SUBTITLETRANSLIT:;
#ARTISTTRANSLIT:;
#GENRE:;
#CREDIT:;
#MUSIC:Ram It Down.ogg;
#BANNER:Ram It Down-bn.png;
#BACKGROUND:Ram It Down-bg.png;
#CDTITLE:;
#SAMPLESTART:30.155;
#SAMPLELENGTH:8.050;
#SELECTABLE:YES;
#OFFSET:-0.155;
#BPMS:0.000=120.000
,60.500=150.000
,169.000=155.000
,169.500=160.000
,170.000=165.000
,170.500=175.000
,171.000=180.000
,171.500=185.000
,172.000=190.000
,172.500=195.000
,173.000=200.000
;
#STOPS:;
#BGCHANGES:-0.600=Ram It Down.avi=1.000=0=0=0=StretchNoLoop====,
99999.000=-nosongbg-=1.000=0=0=0=StretchNoLoop====
;
#FGCHANGES:;

//--------------- dance-single - Xaevin ----------------
#NOTES:
     dance-single:
     Xaevin:
     Beginner:
     4:
     0,0,0,0,0:
0000
0000
0000
0000
,
0000
0000
0000
0000
,
0000
0000
0000
0000
,
0000
2002
0000
0000
,
3003
0001
1000
0010
,
0001
0100
0000
0101
,
0000
1010
0010
1000
,
0100
0001
0000
1100
,
0000
0011
1000
1000
,
0010
0010
0100
0100
,
0001
0001
1000
0010
,
0000
2020
3030
0202
,
0303
1000
0100
1000
,
0000
0000
0000
0000
0000
0000
0000
0022
0000
0000
0000
0000
0000
0000
0000
0033
0000
0000
0000
0000
0000
0000
0220
0000
0000
0000
0000
0000
0000
0000
0330
0000
,
0000
0000
0000
0000
0000
2002
0000
0000
0000
0000
0000
0000
0000
0000
0000
0000
0000
0000
0000
0000
0000
3003
0000
0000
0000
0000
0000
0000
0000
0000
0000
0000
,
0202
0000
0000
0303
,
0001
0100
0001
1000
,
0100
0010
0001
0100
,
1000
0010
1000
0000
,
2200
0000
3300
0011
,
1000
0100
1000
0001
,
0100
0010
1000
0100
,
0002
0000
0203
0300
,
0022
0000
0000
0033
0000
0000
0101
0000
,
1000
0010
0000
1010
,
0001
0100
0000
1001
,
1000
0010
0000
0011
,
0100
0000
0000
0000
0002
0000
0000
0000
0000
0000
0000
0003
0000
0000
0000
0000
,
0011
1000
0100
0000
,
0011
1000
0001
0000
,
0011
1000
0100
0000
,
0202
0000
0303
0000
,
0101
1000
0100
1000
,
0001
0100
0001
0010
,
0001
1000
0001
0010
,
0001
0000
0000
0100
0000
0000
0000
0000
0000
0000
0202
0000
,
0000
0000
0000
0000
0000
0000
0000
0000
0000
0000
0000
0000
0000
0000
0000
0000
0000
0303
0000
0000
0000
0000
0000
0000
,
0000
1000
0000
0000
0001
0000
0000
0010
,
0000
0000
1000
0000
0000
0010
0000
0000
,
0001
0000
0000
1000
0000
0000
0101
0000
,
0000
0001
0000
0000
0100
0000
0000
0010
,
0000
0000
1000
0000
0000
2200
0000
3300
,
0022
0033
0000
0202
0000
0000
0000
0000
,
0303
1000
0100
1000
,
0001
1000
0000
2000
,
3000
0001
0010
0001
,
1000
0001
0000
0002
,
0000
0003
1000
0000
0010
0000
1000
0000
,
0100
0001
0000
0002
,
0003
1000
0100
0010
,
0001
1000
0000
2000
,
3000
0001
0010
0100
,
1000
0100
1000
0100
,
1000
0001
0010
0100
,
0000
0011
0000
0101
,
0000
2020
0000
0000
,
0000
3030
0000
1100
,
0000
0202
0000
0000
,
0000
0000
0000
0303
,
0000
0011
0000
0000
;

//--------------- dance-single - Xaevin ----------------
#NOTES:
     dance-single:
     Xaevin:
     Easy:
     6:
     0,0,0,0,0:
0000
0000
0000
0000
,
0000
0000
0000
0000
,
0000
0000
0000
0000
,
0000
2002
0000
0000
,
3003
0000
0001
0000
1000
0001
0010
0000
,
0001
1000
0100
0000
0000
0001
0010
0100
,
0000
1001
0000
0000
0010
0001
1000
0000
,
0100
1000
0001
0000
0010
0000
0101
0000
,
0000
0000
1000
0000
1000
0100
1000
0000
,
0001
0010
0001
0000
1000
0010
1000
0000
,
0001
0100
0001
0000
1000
0000
0010
0000
,
0100
2020
3030
0202
,
0303
0000
1000
0100
1000
0010
1000
0001
,
1000
0000
0000
0000
0000
0000
0000
0022
0000
0000
0000
0000
0000
0000
0000
0033
0000
0000
0000
0000
0000
0000
0220
0000
0000
0000
0000
0000
0000
0000
0330
0000
,
0000
0000
0000
0000
0000
2002
0000
0000
0000
0000
0000
0000
0000
0000
0000
0000
0000
0000
0000
0000
0000
3003
0000
0000
0000
0000
0000
0000
0000
0000
0000
0000
,
0202
0000
0000
0303
,
0001
0100
0001
1000
,
0100
1000
0010
0100
0001
0010
0100
0000
,
1000
0010
1000
0100
,
1000
0000
0100
0000
1000
0000
0100
0000
0000
0011
0000
0000
,
1000
0100
1000
0001
,
0100
0001
0010
0100
1000
0010
0100
0000
,
0002
0000
0203
0300
,
0010
0000
1000
0000
0010
0000
1000
0000
0000
0101
0000
0000
,
1000
0010
0100
1010
,
0001
0100
0010
1001
,
1000
0010
1000
0011
,
0100
0000
0000
0000
0002
0000
0000
0000
0000
0000
0000
0003
0000
0000
0000
0000
,
0011
1000
0100
1000
,
0011
1000
0001
1000
,
0011
1000
0100
1000
,
0001
0000
0010
0000
0100
0000
1000
0000
0000
0000
0000
0000
,
0101
1000
0100
1000
,
0001
0100
0001
0010
,
0001
1000
0001
0010
,
0001
0000
0000
0100
0000
0000
0001
0000
0000
0000
0202
0000
,
0000
0000
0000
0000
0000
0000
0000
0000
0000
0000
0000
0000
0000
0000
0000
0000
0000
0303
0000
0000
0000
0000
0000
0000
,
0000
0000
1000
0000
0000
0100
0000
0000
0010
0000
0000
0001
0000
0000
0010
0000
,
0000
0100
0000
0000
1000
0000
0000
0100
0000
0000
0010
0000
0000
0001
0000
0000
,
0010
0000
0000
0100
0000
0000
1000
0000
0000
0000
0000
0000
1001
0000
0000
0000
,
0000
0000
0001
0000
0000
0010
0000
0000
0100
0000
0000
0001
0000
0000
0010
0000
,
0000
0100
0000
0000
1000
0000
0000
0000
0000
0000
2200
0000
0000
0000
3300
0000
,
0022
0033
0000
0202
0000
0000
0000
0000
,
0303
0000
1000
0010
0100
0010
1000
0000
,
0001
1000
0100
2000
,
0000
3000
0001
0100
0010
0100
0001
0000
,
1000
0001
0010
0002
,
0000
0003
1000
0010
1000
0010
1000
0010
,
0100
0000
0001
0100
0001
0100
0001
0100
,
0010
1000
0100
0010
,
0001
0000
1000
0010
1000
0010
1000
0000
,
0001
0000
1000
0100
0010
0001
1000
0100
,
0010
0001
1000
0000
0100
0000
1000
0000
,
0100
0000
0001
0010
0100
1000
0001
0010
,
0100
1000
0001
0000
0000
0000
0101
0000
,
0000
1010
1000
1000
,
1000
0000
0100
0010
0001
0010
0100
0000
,
0000
0101
0001
0001
,
0001
0000
0010
0100
1000
0100
0010
0000
,
0000
1001
0000
0000
;

//--------------- dance-single - Xaevin ----------------
#NOTES:
     dance-single:
     Xaevin:
     Medium:
     7:
     0,0,0,0,0:
0000
0000
0000
0000
,
0000
0000
0000
0000
,
0000
0000
0000
0000
,
0000
2002
0000
0000
,
3003
0000
0001
0000
1000
0001
0010
0000
,
0001
1000
0100
0000
0000
0001
0010
0100
,
0000
1001
0000
0000
0010
0001
1000
0000
,
0100
1000
0001
0000
0100
0000
1000
0020
,
0000
0030
1001
0000
1000
0100
1000
0010
,
0001
0100
0001
0000
1000
0010
1000
0100
,
0001
0010
0001
0000
1000
0001
0100
0001
,
0010
2020
3030
0202
,
0303
0000
1000
0100
1000
0010
1000
0001
,
1000
0000
0000
0000
0000
0000
0000
0022
0000
0000
0000
0000
0000
0000
0000
0033
0000
0000
0000
0000
0000
0000
0220
0000
0000
0000
0000
0000
0000
0000
0330
0000
,
0000
0000
0000
0000
0000
2002
0000
0000
0000
0000
0000
0000
0000
0000
0000
0000
0000
0000
0000
0000
0000
3003
0000
0000
0000
0000
0000
0000
0000
0000
0000
0000
,
0202
0000
0000
0303
,
0001
0100
0001
1000
,
0100
1000
0010
0100
0001
0010
0100
0000
,
1000
0010
1000
0100
,
1000
0000
0100
0000
1000
0000
0100
0000
0000
0011
0000
0000
,
1000
0010
0100
0010
1000
0010
0100
0000
,
1000
0001
0010
0100
1000
0010
0100
0000
,
0002
0000
0203
0300
,
0010
0000
1000
0000
0010
0000
1000
0000
0000
0101
0000
0000
,
1000
0100
0010
1000
0100
0000
1010
0000
,
0001
0010
0100
0001
0010
0000
1001
0000
,
1000
0001
0010
0001
1000
0000
0011
0000
,
0100
0000
0000
0000
0002
0000
0000
0000
0000
0000
0000
0003
0000
0000
0000
0000
,
0011
0000
1000
0010
0100
0010
1000
0000
,
0011
0000
1000
0100
0001
0100
1000
0000
,
0011
0000
1000
0001
0100
0001
1000
0000
,
0001
0000
0010
0000
0100
0000
1000
0000
0000
0000
0000
0000
,
0101
0000
1000
0000
0100
0000
0010
0100
,
0001
0100
1000
0100
1000
0100
0001
0000
,
0010
0000
0100
0010
1000
0010
0001
0010
,
0001
0000
0000
0010
0000
0000
1000
0000
0000
0000
0000
0000
0010
0000
0000
0000
0000
0000
0000
0000
0202
0000
0000
0000
,
0000
0000
0000
0000
0000
0000
0000
0000
0000
0000
0000
0000
0000
0000
0000
0000
0000
0303
0000
0000
0000
0000
0000
0000
,
0000
0000
1000
0000
0000
0100
0000
0000
0010
0000
0000
0001
0000
0000
0010
0000
,
0000
0100
0000
0000
1000
0000
0000
0100
0000
0000
0010
0000
0000
0001
0000
0000
,
0010
0000
0000
0100
0000
0000
1000
0000
0000
0000
0000
0000
1001
0000
0000
0000
,
0000
0000
0001
0000
0000
0010
0000
0000
0100
0000
0000
0001
0000
0000
0010
0000
,
0000
0100
0000
0000
1000
0000
0000
0000
0000
0000
2200
0000
0000
0000
3300
0000
,
0022
0033
0000
0202
0000
0000
0000
0000
,
0303
0000
1000
0010
0100
0010
1000
0010
,
0001
0010
1000
0001
0100
0001
2000
0000
,
0000
3000
0001
0100
0010
0100
0001
0100
,
1000
0100
0001
1000
0010
1000
0002
0000
,
0000
0003
1000
0010
1000
0010
1000
0000
,
0100
0000
0001
0100
0001
0100
0001
0000
,
0010
1000
0100
0010
,
0001
0000
1000
0010
1000
0010
1000
0000
,
0001
0000
1000
0100
0010
0001
1000
0100
,
0010
0001
1000
0000
0100
0000
1000
0000
,
0100
0000
0001
0010
0100
1000
0001
0010
,
0100
1000
0001
0000
0000
0000
0101
0000
,
0000
0000
1010
0000
1000
0100
1000
0010
,
1000
0001
0100
0010
0001
0010
0100
0000
,
0000
0000
0101
0000
0001
0010
0001
0100
,
0001
1000
0010
0100
1000
0100
0010
0000
,
0000
1001
0000
0000
;

//--------------- dance-single - Xaevin ----------------
#NOTES:
     dance-single:
     Xaevin:
     Hard:
     8:
     0,0,0,0,0:
0000
0000
0000
0000
,
0000
0000
0000
0000
,
0000
0000
0000
0000
,
0000
1001
0100
0010
,
0001
1001
0100
0011
,
0100
0000
1010
0000
0001
0100
0010
0001
,
0100
0101
0010
1100
,
0010
0000
0101
0000
1000
0010
0100
1000
,
0010
0000
1010
0000
1000
0100
1000
0010
,
0001
0100
0001
0100
1000
0010
1000
0100
,
0001
0010
0001
0010
1000
0001
0100
0001
,
0010
0000
1000
0010
0100
0001
1000
0000
,
0101
0000
1000
0100
1000
0010
1000
0001
,
1000
0000
0000
0000
0000
0000
0000
0022
0000
0000
0000
0000
0000
0000
0000
0033
0000
0000
0000
0000
0000
0000
0220
0000
0000
0000
0000
0000
0000
0000
0330
0000
,
0000
0000
0000
0000
0000
2002
0000
0000
0000
0000
0000
0000
0000
0000
0000
0000
0000
0000
0000
0000
0000
3003
0000
0000
0000
0000
0000
0000
0000
0000
0000
0000
,
0202
0000
0000
0303
,
0001
0100
0001
1000
,
0100
1000
0010
0100
0001
0010
0100
0000
,
1000
0110
1001
0100
,
1000
0000
0100
0000
1000
0000
0100
0000
0000
0011
0000
0000
,
1000
0010
1000
0001
,
0010
0001
0100
0010
1000
0100
0010
0000
,
0001
0110
1001
0010
,
0001
0000
0010
0000
0001
0000
0010
0000
0000
0101
0000
0000
,
1000
0100
0010
1000
0100
0000
1010
0000
,
0001
0010
0100
0001
0010
0000
1001
0000
,
1000
0001
0010
0001
1000
0000
0110
0000
,
1100
0101
0110
1100
,
0011
0000
1000
0010
0100
0010
1000
0000
,
0011
0000
1000
0100
0001
0100
1000
0000
,
0011
0000
1000
0001
0100
0001
1000
0000
,
0001
0000
0010
0000
0100
0000
1000
0000
0000
0110
0000
0000
,
0101
0000
1000
0001
0100
0001
0010
0100
,
0001
0100
1000
0100
1000
0100
0001
1000
,
0010
1000
0100
0010
1000
0010
0001
0010
,
0001
0000
0000
0010
0000
0000
1000
0000
0000
0000
0000
0000
0010
0000
0000
0000
0000
0000
0000
0000
0202
0000
0000
0000
,
0000
0000
0000
0000
0000
0000
0000
0000
0000
0000
0000
0000
0000
0000
0000
0000
0000
0303
0000
0000
0000
0000
0000
0000
,
0000
0000
1000
0000
0000
0100
0000
0000
0010
0000
0000
0001
0000
0000
0010
0000
,
0000
0100
0000
0000
1000
0000
0000
0100
0000
0000
0010
0000
0000
0001
0000
0000
,
0010
0000
0000
0100
0000
0000
1000
0000
0000
0000
0000
0000
1001
0000
0000
0000
,
0000
0000
0001
0000
0000
0010
0000
0000
0100
0000
0000
0001
0000
0000
0010
0000
,
0000
0100
0000
0000
1000
0000
0000
0000
0000
0000
2200
0000
0000
0000
3300
0000
,
0022
0033
0000
0202
0000
0000
0000
0000
,
0303
0000
1000
0010
0100
0010
1000
0010
,
0001
0010
1000
0001
0100
0001
1000
0000
,
0110
0000
0001
0100
0010
0100
0001
0100
,
1000
0100
0001
1000
0010
1000
0001
0000
,
0110
0000
1000
0010
1000
0010
1000
0010
,
1000
0000
0001
0100
0001
0100
0001
0100
,
0001
1000
0100
0010
,
0001
0000
1000
0010
1000
0010
1000
0000
,
0001
0000
1000
0100
0010
0001
1000
0100
,
0010
0001
1000
0000
0100
0000
1000
0000
,
0100
0000
0001
0010
0100
1000
0001
0010
,
0100
1000
0001
0000
0000
0000
0101
0000
,
0000
0000
1010
0000
1000
0100
1000
0010
,
1000
0001
0100
0010
0001
0010
0100
0010
,
1000
0000
0101
0000
0001
0010
0001
0100
,
0001
1000
0010
0100
1000
0100
0010
0100
,
0001
1001
0000
0000
;
