#TITLE:Pink Diamond;
#SUBTITLE:;
#ARTIST:Charli XCX;
#TITLETRANSLIT:;
#SUBTITLETRANSLIT:;
#ARTISTTRANSLIT:;
#GENRE:;
#CREDIT:;
#MUSIC:Pink Diamond.ogg;
#BANNER:Pink Diamond-bn.png;
#BACKGROUND:Pink Diamond-bg.png;
#CDTITLE:;
#SAMPLESTART:47.821;
#SAMPLELENGTH:13.532;
#SELECTABLE:YES;
#OFFSET:-0.212;
#BPMS:0.000=141.150
,160.063=140.150
,160.125=139.150
,160.188=138.150
,160.250=137.150
,160.313=136.150
,160.375=135.150
,160.438=134.150
,160.500=133.150
,160.563=132.150
,160.625=131.150
,160.688=130.150
,160.750=129.150
,160.813=128.150
,160.875=127.150
,160.938=126.150
,161.000=125.150
,161.063=124.150
,161.125=123.500
,161.188=141.150
;
#STOPS:;
#BGCHANGES:0.000=Pink Diamond.avi=1.000=0=0=0=StretchNoLoop====,
99999.000=-nosongbg-=1.000=0=0=0=StretchNoLoop====
;
#FGCHANGES:;

//--------------- dance-single - Xaevin ----------------
#NOTES:
     dance-single:
     Xaevin:
     Beginner:
     4:
     0,0,0,0,0:
1000
0000
0100
1000
,
0000
0100
0001
0000
,
0001
0010
0100
1000
,
0000
0100
1000
0000
,
0001
0000
0010
0001
,
0000
0010
1000
0000
,
1000
0100
0010
0001
,
0000
0010
0001
0000
,
1000
1000
0100
0001
,
0001
0010
0100
0000
,
0010
1000
1000
0010
,
0001
0001
0100
0000
,
1001
0000
0010
1000
,
0000
0001
0001
0000
,
0010
0100
1000
0001
,
0000
0100
0010
0000
,
1000
0100
1000
0010
,
0001
0000
0001
1000
,
0100
1000
0010
0001
,
0000
0001
0000
0100
,
0000
0001
0000
0100
,
1000
0100
1000
0001
,
0010
0001
0010
1000
,
0100
1000
0100
0010
,
2002
0000
0000
0000
0000
0000
0000
0000
3003
0000
0000
0000
0000
0220
0000
0000
,
0000
0000
0000
0000
0000
0330
0000
0000
0000
1000
0000
0000
0000
0000
0000
0000
,
0100
0000
0000
0000
0000
0022
0000
0000
0000
0000
0000
0033
0000
0000
0000
0000
,
0000
2200
0000
0000
0000
0000
0000
0000
0000
3300
0000
0000
0000
0000
0000
0000
,
0000
2000
0000
0000
0000
3000
0000
0000
0000
2000
0000
3000
0000
0002
0000
0000
,
0000
0003
0000
0000
0000
0002
0000
0003
0000
0000
0000
0000
0000
0000
0000
0000
,
2020
0000
0000
3030
0000
0000
0000
0000
,
0000
0202
0000
0000
0000
0000
0000
0303
0000
0000
0000
0000
0100
0000
0000
0000
,
1010
0100
0010
0100
,
0010
0100
0001
0010
,
1100
0100
1000
0100
,
0010
0001
1000
0001
,
0110
0001
0100
1000
,
0001
0010
0100
0001
,
1010
0100
0001
0100
,
1010
0000
0000
0002
,
0020
0033
0000
0100
,
0000
1000
0100
0010
,
1000
0100
0010
0001
,
0100
0000
0010
0000
0001
0000
0100
1000
,
0100
0001
0000
1000
,
0000
0010
0001
0001
,
1000
0010
1000
0100
,
0001
0000
0000
0000
1000
0000
0000
0000
0010
0000
0000
0100
0000
1000
0000
0000
,
0001
0001
1000
1000
,
0010
0010
0100
0000
,
0001
0001
0100
0100
,
1000
1000
0001
0000
,
1000
0001
0100
0001
,
0010
0000
0000
0000
0001
0000
0000
0000
0000
0010
0000
0000
0100
0000
1000
0000
,
0000
0010
0000
0000
0000
0001
0000
0000
0000
0100
0000
0000
0000
0001
0000
0000
,
0000
1000
0000
0000
0000
0001
0000
0000
0000
0010
0000
0000
0000
0000
0000
0000
,
0000
1000
0000
0000
0000
1100
0000
0000
0000
0100
0000
0000
0000
0001
0000
0000
,
0000
0000
0000
0000
0000
0001
0000
0000
0000
0100
0000
0000
0000
0010
0000
0000
,
0000
0100
0000
0000
0000
0001
0000
0000
0000
0011
0000
0000
0000
0010
0000
0000
,
0000
1000
0000
0000
0000
0000
0000
0000
0000
1000
0000
0000
0000
0000
0000
0000
,
0000
0001
0000
0000
0000
0011
0000
0000
0000
0010
0000
0000
0000
1000
0000
0000
,
0000
0000
0000
0000
0000
1000
0000
0000
0000
0010
0000
0000
0000
0100
0000
0000
,
0000
0010
0000
0000
0000
1000
0000
0000
0000
1100
0000
0000
0000
0100
0000
0000
,
0000
0001
0000
0000
0000
0000
0000
0000
0000
0001
0000
0000
0000
1000
0000
0000
,
0000
0002
0000
0000
0000
2003
0000
0000
0000
3002
0000
0000
0000
0003
0000
0000
,
0000
1000
0000
0000
0000
0010
0000
0000
0000
1000
0000
0000
0000
0000
0000
0000
,
0000
0001
0000
0000
0000
1000
0000
0000
0000
0010
0000
0000
0000
0000
0000
0000
,
0000
1000
0000
0000
0000
0100
0000
0000
0000
0010
0000
0000
0000
0000
0000
0000
,
0000
0001
0000
0000
0000
0001
0000
0000
0000
0010
0000
0000
0000
0000
0000
0000
,
0000
1000
0000
0000
0000
1000
0000
0000
0000
0010
0000
0000
0000
0000
0000
0000
,
0000
0100
0000
0000
0000
0100
0000
0000
0000
0002
0000
0000
0000
0003
0000
0000
,
0000
0020
0000
0000
0000
0030
0000
0000
0000
1000
0000
0000
0000
1000
0000
0000
;

//--------------- dance-single - Xaevin ----------------
#NOTES:
     dance-single:
     Xaevin:
     Easy:
     5:
     0,0,0,0,0:
1000
0000
0000
0010
0000
0000
1000
0000
0100
0000
0001
0000
1000
0000
0000
0000
,
0000
0000
0000
0000
0100
0000
1000
0000
0001
0000
0000
0010
0000
0000
0100
0000
,
0001
0010
0100
1000
,
0000
0000
0000
0000
0100
0000
0001
0000
1000
0000
0000
0010
0000
0000
0100
0000
,
0001
0000
0000
0100
0000
0000
0001
0000
0010
0000
1000
0000
0001
0000
0000
0000
,
0000
0000
0000
0000
0010
0000
0001
0000
1000
0000
0000
0100
0000
0000
0010
0000
,
1000
0100
0010
0001
,
0000
0000
0000
0000
0010
0000
1000
0000
0001
0000
0000
0100
0000
0000
0010
0000
,
1000
1000
0100
0001
,
0001
0010
0100
0100
,
0010
1000
1000
0010
,
0001
0001
0100
0000
,
1001
0000
0000
0000
0010
0001
1000
0000
,
0000
0000
0000
0000
0001
0000
1000
0000
0001
0000
0000
0010
0000
0000
0001
0000
,
0010
0100
1000
0001
,
0000
0000
0000
0000
0100
0000
0001
0000
0010
0000
0000
0001
0000
0000
0100
0000
,
1000
0100
1000
0010
,
0001
0010
0001
1000
,
0100
0000
1000
0000
0010
0000
0001
0010
,
0010
0000
0001
0000
1000
0000
0100
0001
,
0001
0010
0001
0100
,
1000
0100
1000
0001
,
0010
0000
0001
0000
0100
0000
1000
1000
,
0100
1000
0001
0110
,
1001
0000
0100
0001
0001
0000
1000
0000
,
1000
0001
0001
0000
1000
0000
1000
0000
,
1001
0000
0100
0000
0100
0001
0001
0000
,
1000
0000
1000
0001
0001
0000
0000
0000
,
1001
0000
0010
1000
1000
0000
0001
0000
,
0001
1000
1000
0000
0001
0000
0001
0000
,
1001
0000
0010
0000
0010
1000
1000
0000
,
0001
0000
0001
1000
1000
0000
0100
0000
,
1010
0100
0010
0100
,
0010
0100
0001
0010
,
1100
0100
1000
0100
,
0010
0001
1000
0001
,
0110
0001
0100
1000
,
0001
0010
0100
0001
,
1010
0100
1001
0100
,
1010
0000
0000
0002
,
0020
0033
0001
0100
,
0100
1000
0001
0010
,
0010
0100
1000
0001
,
0100
0000
0010
0000
0001
0000
0100
1000
,
0100
0001
0010
1000
,
1000
0010
0100
0001
,
0001
0010
1000
0100
,
0001
0000
0000
0000
1000
0000
0000
0000
0010
0000
0000
0100
0000
1000
0000
0000
,
0001
0001
1000
1000
,
0010
0010
0100
0100
,
0001
0001
0100
0100
,
1000
1000
0001
0001
,
1000
0001
0100
0001
,
0010
0000
0000
0000
0001
0000
0000
0000
0010
0000
0000
0100
0000
1000
0000
0000
,
0010
0001
0100
0001
,
1000
0001
0010
0100
,
1000
1100
0100
0001
,
0000
0000
0001
0000
0100
0010
0100
0000
,
0011
0001
0011
0010
,
1000
0000
1000
0000
,
0001
0011
0010
1000
,
0000
0000
1000
0000
0010
0100
0010
0000
,
2000
3200
0320
2030
,
3200
0320
0032
2003
,
3110
1000
0001
0100
,
1001
0010
1000
0100
,
0011
1000
0010
0100
,
1001
0100
0010
1000
,
0001
0001
0010
0000
,
1000
1000
0010
0000
,
0100
0100
0002
0003
,
0020
0030
1000
1000
;

//--------------- dance-single - Xaevin ----------------
#NOTES:
     dance-single:
     Xaevin:
     Medium:
     7:
     0,0,0,0,0:
1000
0000
0000
0010
0000
0000
1000
0000
0100
0000
0001
0000
1000
0000
0000
0000
,
0000
0000
0000
0000
0100
0000
1000
0000
0001
0000
0000
0010
0000
0000
0100
0000
,
0001
0000
1000
0000
0000
0001
0000
0000
0100
0000
0010
0000
1000
0000
0000
0000
,
0000
0000
0000
0000
0100
0000
0001
0000
1000
0000
0000
0010
0000
0000
0100
0000
,
0001
0000
0000
0100
0000
0000
0001
0000
0010
0000
1000
0000
0001
0000
0000
0000
,
0000
0000
0000
0000
0010
0000
0001
0000
1000
0000
0000
0100
0000
0000
0010
0000
,
1000
0000
0001
0000
0000
1000
0000
0000
0010
0000
0100
0000
0001
0000
0000
0000
,
0000
0000
0000
0000
0010
0000
1000
0000
0001
0000
0000
0100
0000
0000
0010
0000
,
1000
0000
1000
0100
1000
0000
0001
0000
,
0001
0010
0001
0000
0100
0000
0100
0010
,
0100
0000
1000
0000
1000
0100
1000
0000
,
0001
0000
0001
0010
0001
0000
0000
0000
,
1001
0000
0000
0000
0110
0001
1000
0000
,
0000
0000
0000
0000
0001
0000
1000
0000
0001
0000
0000
0010
0000
0000
0001
0000
,
0010
1000
0000
0000
1000
0010
1000
0000
,
0000
0000
0000
0000
0100
0000
0001
0000
0010
0000
0000
0001
0000
0000
0100
0000
,
1000
0010
0100
0001
1000
0100
0010
1000
,
0001
0100
0010
1000
0001
0100
1000
0010
,
0100
0001
1000
0100
0010
1000
0001
0010
,
0010
0000
0101
0000
1010
0000
0100
0001
,
0001
0100
0010
1000
0001
0010
0100
0001
,
1000
0010
0100
0001
1000
0010
0001
0100
,
0010
1000
0001
0010
0100
0001
1000
1000
,
0100
1010
0101
0010
,
1001
0010
0100
0001
0001
0000
1000
0100
,
1000
0001
0001
0000
1000
0100
1000
0010
,
1001
0000
0100
0010
0100
0001
0001
0000
,
1000
0100
1000
0001
0001
0000
0000
0000
,
1001
0100
0010
1000
1000
0000
0001
0010
,
0001
1000
1000
0000
0001
0010
0001
0100
,
1001
0000
0010
0100
0010
1000
1000
0000
,
0001
0010
0001
1000
1000
0000
0100
0000
,
1010
0000
1100
0000
0010
1000
0100
0000
,
0010
0001
0100
0000
0001
1000
0010
0000
,
1100
0000
0110
0000
1000
0010
0100
0000
,
0010
0001
0001
0000
1000
0001
0001
0000
,
0110
0000
0011
0000
0100
0010
1000
0000
,
0001
0100
0010
0001
0100
0010
0001
0000
,
1010
0101
1001
0100
,
1010
0000
0000
0002
,
0020
0000
0033
0000
0001
0000
0100
0100
,
0100
0000
1000
0000
0001
0000
0010
0010
,
0010
0100
1000
0001
,
0100
0000
0010
0000
0001
0000
0100
0100
,
0100
0000
0001
0000
0010
0000
1000
1000
,
1000
0000
0010
0000
0100
0000
0001
0001
,
0001
0010
1000
0100
,
0001
1000
0010
0100
,
0001
0010
0001
0000
1000
0000
1000
0000
,
0010
0000
0010
0000
0100
0000
1000
0100
,
1000
0100
1000
0000
0010
0000
0010
0000
,
0001
0001
0100
0100
,
1000
0001
0100
0001
,
0010
0000
0000
0000
0001
0000
0000
0000
0010
0000
0000
0100
0000
1000
0000
0000
,
0010
0001
0100
0001
,
1000
0001
0011
0011
,
1100
0000
1100
0000
0100
0000
0010
1000
,
0010
0100
0001
0000
0100
0010
0100
0000
,
0011
0000
0011
0000
0010
0001
0100
0001
,
0100
0010
1000
0100
0010
0100
0010
0000
,
0101
0101
1000
0100
,
1010
1010
0001
0010
,
1001
0010
0100
1000
0100
0010
0001
0010
,
0100
1000
0100
0010
0001
0010
0100
1000
,
0100
1000
0001
0100
,
1001
0010
1000
0100
,
0011
1000
0010
0100
,
1001
0100
0010
1000
,
0101
0101
0010
0000
,
1010
1010
0100
0000
,
1001
1001
0110
0000
,
0110
0000
1001
0110
;

//--------------- dance-single - Xaevin ----------------
#NOTES:
     dance-single:
     Xaevin:
     Hard:
     8:
     0,0,0,0,0:
1000
0000
0000
0010
0000
0000
1000
0000
0100
0000
0001
0000
1010
0000
0000
0000
,
0000
0000
0000
0000
0101
0000
1000
0000
0001
0000
0000
0010
0000
0000
0100
0000
,
0001
0000
1000
0000
0000
0001
0000
0000
0100
0000
0010
0000
1001
0000
0000
0000
,
0000
0000
0000
0000
1100
0000
0001
0000
1000
0000
0000
0010
0000
0000
0100
0000
,
0001
0000
0000
0100
0000
0000
0001
0000
0010
0000
1000
0000
0101
0000
0000
0000
,
0000
0000
0000
0000
0110
0000
0001
0000
1000
0000
0000
0100
0000
0000
0010
0000
,
1000
0000
0001
0000
0000
1000
0000
0000
0010
0000
0100
0000
1001
0000
0000
0000
,
0000
0000
0000
0000
0011
0000
1000
0000
0001
0000
0000
0100
0000
0000
0010
0000
,
1000
0000
1000
0100
1000
0100
0001
0000
,
0001
0010
0001
0010
0100
0000
0100
0010
,
0100
0010
1000
0000
1000
0100
1000
0100
,
0001
0000
0001
0010
0001
0010
0000
0000
,
0110
0000
0001
0000
0110
0001
1000
0000
,
0000
0000
0000
0000
0001
0000
1000
0000
0001
0000
0000
0010
0000
0000
0001
0000
,
0010
1000
0000
0000
1000
0010
1000
0000
,
0010
0000
0000
0000
0100
0000
0001
0000
0010
0000
0000
0001
0000
0000
0100
0000
,
1000
0010
0100
0001
1000
0100
0010
1000
,
0001
0100
0001
0010
1000
0100
1000
0010
,
0100
0001
1000
0100
0010
1000
0001
0010
,
0010
0000
0101
0000
1010
0000
0100
0001
,
0001
0100
0010
1000
0001
0010
0100
0001
,
1000
0010
0100
0001
1000
0010
0001
0100
,
0010
1000
0001
0010
0100
0001
1000
1000
,
0100
1010
0101
0010
,
1001
0000
0010
0000
0100
0000
0001
0010
0001
0000
0000
0000
1000
0000
0100
0000
,
1000
0000
0001
0010
0001
0000
0000
0000
1000
0000
0100
0000
1000
0000
0010
0000
,
1001
0000
0000
0000
0100
0000
0010
0000
0100
0000
0001
0010
0001
0000
0000
0000
,
1000
0000
0100
0000
1000
0000
0001
0010
0001
0000
0000
0000
0001
0000
0000
0000
,
1001
0000
0100
0000
0010
0000
1000
0100
1000
0000
0000
0000
0001
0000
0010
0000
,
0001
0000
1000
0100
1000
0000
0000
0000
0001
0000
0010
0000
0001
0000
0100
0000
,
1001
0000
0000
0000
0010
0000
0100
0000
0010
0000
1000
0100
1000
0000
0000
0000
,
0001
0000
0010
0000
0001
0000
1000
0100
1000
0000
0000
0000
0100
0000
0000
0000
,
1010
0000
1100
0000
0010
1000
0100
0000
,
0010
0001
0100
0000
0001
1000
0010
0000
,
1100
0000
0110
0000
1000
0010
0100
0000
,
0010
0000
0001
0100
0001
0000
0000
0000
1000
0000
0001
0100
0001
0000
0000
0000
,
0110
0000
0011
0000
0100
0010
1000
0000
,
0001
0100
0010
0001
0100
0010
0001
0000
,
1010
0101
1001
0100
,
1010
0100
1000
0100
0010
0001
0002
0000
,
0020
0000
0033
1000
1000
0010
0100
0010
,
0100
1000
1000
0100
0010
0001
0010
0100
,
1000
0010
0100
0010
0100
1000
1000
0010
,
0100
0000
0010
0000
0100
0000
1000
0000
2000
0000
0000
0000
0000
0000
0000
3000
,
1000
0100
1000
0000
0100
0000
0010
0001
,
0010
0000
0001
0000
1000
0001
1000
0000
,
0001
0000
1000
0100
0010
0001
0001
0000
,
0001
0000
0010
0000
0100
0000
1000
0000
1000
0000
0000
0100
0000
0010
0000
0000
,
0001
0001
0001
0000
1000
1000
1000
0000
,
0010
0010
0010
0000
0100
0000
1000
0100
,
1000
0000
0010
0010
0010
0000
0100
0100
,
0100
0000
0001
0001
0001
0000
0110
0000
,
1000
0011
0100
0011
,
1000
0000
0000
0000
0101
0000
0000
0000
0010
0000
0000
0100
0000
1000
0000
0000
,
0010
1001
0100
0011
,
1000
0110
0001
0010
,
1100
0000
1100
0000
0100
0000
0010
1000
,
0010
0100
0001
0000
0100
0010
0100
0000
,
0011
0000
0011
0000
0010
0001
0100
0001
,
0100
0010
1000
0100
0010
0100
0010
0000
,
0101
0101
1000
0100
,
1010
1010
0001
0010
,
1001
0010
0100
1000
0100
0010
0001
0010
,
0100
1000
0100
0010
0001
0010
0100
1000
,
0100
0000
1000
1000
0001
0000
0100
0000
,
1001
0000
0010
0010
1000
0000
0100
0000
,
0011
0000
1000
1000
0010
0000
0100
0000
,
1001
0000
0100
0100
0010
0000
1000
0000
,
0101
0000
0101
0000
0010
0010
0000
0000
,
1010
0000
1010
0000
0100
0100
0000
0000
,
1001
0000
1001
0000
0010
0010
0000
0100
,
0100
0000
1000
0001
1000
0001
0100
0010
;
