#VERSION:0.83;
#TITLE:Lick It N Split;
#SUBTITLE:;
#ARTIST:Zebra Katz ft. Shygirl & Sega Bodega;
#TITLETRANSLIT:;
#SUBTITLETRANSLIT:;
#ARTISTTRANSLIT:;
#GENRE:;
#CREDIT:;
#MUSIC:Lick It N Split.mp3;
#BANNER:Lick It N Split-bn.png;
#BACKGROUND:Lick It N Split-bg.png;
#CDTITLE:;
#SAMPLESTART:67.282;
#SAMPLELENGTH:11.824;
#SELECTABLE:YES;
#OFFSET:-0.047;
#BPMS:0.000=85.000
,29.000=10.625
,29.333=170.000
;
#STOPS:;
#BGCHANGES:-1.000=Lick It N Split.avi=1.000=0=0=0=StretchNoLoop====,
99999.000=-nosongbg-=1.000=0=0=0=StretchNoLoop====
;
#FGCHANGES:;

//--------------- dance-single - Xaevin ----------------
#NOTEDATA:;
#STEPSTYPE:dance-single;
#DESCRIPTION:Xaevin;
#DIFFICULTY:Beginner;
#METER:4;
#RADARVALUES:0,0,0,0,0;
#NOTES:
0010
0000
0000
0000
0001
0000
0000
0000
0000
1000
0000
0000
0100
0000
0000
0000
,
0001
0000
0000
0000
1000
0000
0000
0000
0000
0001
0000
0000
0010
0000
0000
0000
,
1000
0001
0010
0100
,
0010
0000
0000
0000
1000
0000
0000
0000
0000
0001
0000
0000
0010
0000
0000
0000
,
1010
0000
0000
0000
0101
0000
0000
0000
0000
0010
0000
0000
0100
0000
0000
0000
,
1000
0000
0000
0000
0001
0000
0000
0000
0000
1000
0000
0000
0001
0000
0000
0000
,
0100
0001
1000
0001
,
0100
0000
0000
0000
0000
0000
0000
0000
0000
0000
0000
0000
0000
0000
0000
0000
0000
0000
0000
0000
0000
0000
0000
0000
0000
0000
0000
0000
0000
0000
0000
0000
0000
0000
0000
0000
0000
0000
0000
0000
0000
0000
0000
0000
0000
0000
0000
1001
0000
0000
0000
0000
0000
0000
0000
0000
0000
0000
0000
0000
0000
0000
0000
0000
0000
0000
0000
0000
0000
0000
0000
0000
0000
0000
0000
0000
0000
0000
0000
0000
0000
0000
0000
0000
0000
0000
0000
0000
0000
0000
0000
0000
0000
0000
0000
0000
1000
0000
0000
0000
0000
0000
0000
0000
0000
0000
0000
0000
0000
0000
0000
0000
0000
0000
0000
0000
0000
0000
0000
0000
0000
0000
0000
0000
0000
0000
0000
0000
0000
0000
0000
0000
0000
0000
0000
0000
0000
0000
0000
0000
0000
0000
0000
0000
0100
0000
0000
0000
0000
0000
0000
0000
0000
0000
0000
0000
0000
0000
0000
0000
0000
0000
0000
0000
0000
0000
0000
0000
0000
0000
0000
0000
0000
0000
0000
0000
0000
0000
0000
0000
0000
0000
0000
0000
0000
0000
0000
0000
0000
0000
0000
0000
,
1000
0010
1000
0000
,
0100
0000
0001
0010
,
0001
0100
0001
0000
,
0010
0000
1000
0100
,
1000
0100
0010
0000
,
0001
0000
0010
0100
,
0100
0010
0010
0001
,
0001
0000
0100
0100
,
0000
0001
0000
0010
,
0000
1000
0010
0010
,
0000
0100
0000
0010
,
0000
1000
0010
0100
,
0001
1000
0010
0001
,
1000
0001
0100
0010
,
0100
1000
0011
0000
,
0110
0000
0011
0000
,
0100
0000
0010
0000
,
1000
0000
0010
0100
,
0100
0010
0000
0100
,
0000
0001
0100
0100
,
0001
0000
0000
0001
,
0100
0100
0001
1000
,
0010
0010
2000
0000
,
0000
0000
0000
3000
,
1000
0000
0001
0000
,
0010
0000
0001
0000
,
0100
0000
0010
0000
,
0001
0000
0010
0000
,
1000
0000
0010
0000
,
1000
0000
0101
0000
,
0000
0000
0000
0110
,
0000
1001
0010
0010
,
1000
0100
0001
1000
,
0100
0100
0001
0010
,
1000
0010
1000
0100
,
0002
0003
1000
0010
,
0100
1000
0010
1000
,
0010
1000
0010
0001
,
0010
0100
0010
1000
,
0002
0003
2000
3000
,
0010
0001
0010
0000
2000
0000
3000
0000
,
0010
0100
0010
0000
0001
0000
0010
0000
,
0100
0002
2003
3200
,
0320
0032
1003
0000
,
0100
0000
0010
0000
,
1000
0000
0010
0000
,
0001
0000
0100
0000
,
2020
0000
0000
0000
,
0000
0000
0000
0000
,
0000
0000
0000
0000
,
0000
0000
0000
0000
,
3030
0000
0000
0000
;

//--------------- dance-single - Xaevin ----------------
#NOTEDATA:;
#STEPSTYPE:dance-single;
#DESCRIPTION:Xaevin;
#DIFFICULTY:Easy;
#METER:6;
#RADARVALUES:0,0,0,0,0;
#NOTES:
0010
0000
0100
0000
0001
0000
0000
0000
0000
1010
0000
0000
0100
0000
0000
0000
,
0001
0000
0010
0000
1000
0000
0000
0000
0000
0101
0000
0000
0010
0000
0000
0000
,
1000
0100
0001
0000
0010
1000
0100
0001
,
0010
0000
0000
0000
1000
0000
0000
0000
0000
0101
0000
0000
0010
0000
0000
0000
,
1000
0000
0100
0000
0001
0000
0000
0000
0000
1010
0000
0000
0101
0000
0000
0000
,
1000
0000
0010
0000
0001
0000
0000
0000
0000
1100
0000
0000
0011
0000
0000
0000
,
0100
1000
0001
0010
0100
1000
0001
0010
,
0100
0000
0000
0000
0000
0000
0000
0000
0000
0000
0000
0000
0000
0000
0000
0000
0000
0000
0000
0000
0000
0000
0000
0000
0000
0000
0000
0000
0000
0000
0000
0000
0000
0000
0000
0000
0000
0000
0000
0000
0000
0000
0000
0000
0000
0000
0000
1001
0000
0000
0000
0000
0000
0000
0000
0000
0000
0000
0000
0000
0000
0000
0000
0000
0000
0000
0000
0000
0000
0000
0000
0000
0000
0000
0000
0000
0000
0000
0000
0000
0000
0000
0000
0000
0000
0000
0000
0000
0000
0000
0000
0000
0000
0000
0000
0000
1000
0000
0000
0000
0000
0000
0000
0000
0000
0000
0000
0000
0000
0000
0000
0000
0000
0000
0000
0000
0000
0000
0000
0000
0000
0000
0000
0000
0000
0000
0000
0000
0000
0000
0000
0000
0000
0000
0000
0000
0000
0000
0000
0000
0000
0000
0000
0000
0100
0000
0000
0000
0000
0000
0000
0000
0000
0000
0000
0000
0000
0000
0000
0000
0000
0000
0000
0000
0000
0000
0000
0000
0000
0000
0000
0000
0000
0000
0000
0000
0000
0000
0000
0000
0000
0000
0000
0000
0000
0000
0000
0000
0000
0000
0000
0000
,
1000
0000
0100
0000
1000
0000
0010
0010
,
0001
1100
0001
0010
,
0001
0000
0010
0000
0001
0000
0100
0100
,
1000
0011
1000
0100
,
1000
0100
0010
0001
,
0001
1000
0010
0100
,
0100
0010
0010
0001
,
0001
0000
0100
0100
,
1010
1001
0010
0010
,
0101
1001
0100
1000
,
0010
0100
0001
0010
,
1000
0010
1000
0000
0100
0001
0100
0000
,
0011
1100
0001
0001
,
1100
0000
0011
0000
0100
1000
0100
0001
,
0100
1000
0100
0000
0011
0000
1000
0000
,
0110
1000
0011
0001
,
0100
0100
0010
0010
,
1000
1000
0010
0100
,
0100
0010
1000
0100
,
1000
0001
0100
0100
,
0001
1000
0100
0001
,
0100
0100
0001
0001
,
0010
0010
0001
1000
,
0100
0010
0001
1000
,
0100
0010
0001
0000
,
0010
0000
0100
0000
,
1000
0000
0010
0000
,
1000
0000
0001
0000
,
0100
0000
0000
0000
0001
0000
0010
0100
,
0010
0001
0100
0000
,
0000
0000
0000
0110
,
0000
1001
0010
0010
,
1000
0001
0100
1000
0001
0010
1000
0001
,
0100
1000
0100
0000
0001
0000
0010
0000
,
1000
0100
0010
0000
1000
0000
0100
0000
,
1000
0010
0001
0010
,
0100
1000
1000
0000
0010
0000
1000
0000
,
0010
1000
0010
0001
,
0010
0100
0010
1000
,
0010
0001
1000
1100
,
0010
0001
0010
0000
0100
0000
1100
0000
,
0010
0100
0010
0000
0001
1000
0010
1000
,
0100
0002
2003
3200
,
0320
0000
0032
0000
1003
0100
1000
0000
,
1000
0000
0100
0000
0010
0001
0100
0000
,
1000
0000
0010
0000
1000
0001
0100
0001
,
0010
0100
0010
0100
,
2020
0000
0000
0000
,
0000
0000
0000
0000
,
0000
0000
0000
0000
,
0000
0000
0000
0000
,
3030
0000
0000
0000
;

//--------------- dance-single - Xaevin ----------------
#NOTEDATA:;
#STEPSTYPE:dance-single;
#DESCRIPTION:Xaevin;
#DIFFICULTY:Medium;
#METER:7;
#RADARVALUES:0,0,0,0,0;
#NOTES:
0010
0000
0100
0000
0001
0000
0000
0000
0000
1010
0000
0000
0100
0000
0000
0000
,
0001
0000
0010
0000
1000
0000
0000
0000
0000
0101
0000
0000
0010
0000
0000
0000
,
1000
0100
0001
0000
0010
1000
0100
0001
,
0010
0000
0000
0000
1000
0000
0000
0000
0000
0101
0000
0000
0010
0000
0000
0000
,
1000
0000
0100
0000
0001
0000
0000
0000
0000
1010
0000
0000
0101
0000
0000
0000
,
1000
0000
0010
0000
0001
0000
0000
0000
0000
1100
0000
0000
0011
0000
0000
0000
,
0100
1000
0001
0010
0100
1000
0001
0010
,
0100
0000
0000
0000
0000
0000
0000
0000
0000
0000
0000
0000
0000
0000
0000
0000
0000
0000
0000
0000
0000
0000
0000
0000
0000
0000
0000
0000
0000
0000
0000
0000
0000
0000
0000
0000
0000
0000
0000
0000
0000
0000
0000
0000
0000
0000
0000
1001
0000
0000
0000
0000
0000
0000
0000
0000
0000
0000
0000
0000
0000
0000
0000
0000
0000
0000
0000
0000
0000
0000
0000
0000
0000
0000
0000
0000
0000
0000
0000
0000
0000
0000
0000
0000
0000
0000
0000
0000
0000
0000
0000
0000
0000
0000
0000
0000
1000
0000
0000
0000
0000
0000
0000
0000
0000
0000
0000
0000
0000
0000
0000
0000
0000
0000
0000
0000
0000
0000
0000
0000
0000
0000
0000
0000
0000
0000
0000
0000
0000
0000
0000
0000
0000
0000
0000
0000
0000
0000
0000
0000
0000
0000
0000
0000
0100
0000
0000
0000
0000
0000
0000
0000
0000
0000
0000
0000
0000
0000
0000
0000
0000
0000
0000
0000
0000
0000
0000
0000
0000
0000
0000
0000
0000
0000
0000
0000
0000
0000
0000
0000
0000
0000
0000
0000
0000
0000
0000
0000
0000
0000
0000
0000
,
1000
0000
0100
0000
1000
0000
0010
0010
,
0001
1100
0001
0010
,
0001
0000
0010
0000
0001
0000
0100
0100
,
1000
0011
1000
0100
,
1000
0000
0100
0001
0010
0000
0100
0000
,
1001
0000
0010
0100
0010
0001
0100
1000
,
0100
0001
0010
0100
0010
0000
1001
0000
,
0011
0000
0000
0000
0100
0100
0100
0000
,
1010
0000
1001
0000
0010
0010
0010
0000
,
0101
0000
1001
0000
0100
1000
1000
0000
,
0010
0100
0100
0000
0001
0010
0010
0000
,
1000
0010
1000
0000
0100
0001
0100
0000
,
0011
0000
1100
0000
0001
0001
0001
0000
,
1100
0000
0011
0000
0100
1000
0100
0001
,
0100
1000
0100
0000
0011
0000
1000
0000
,
0110
1000
0011
0001
,
0100
0100
0010
0010
,
1000
0000
1000
0000
0010
0001
0100
0000
,
0100
0001
0010
0000
1000
0000
0100
0000
,
1000
0000
0001
0010
0100
0000
0100
0010
,
0001
0000
1000
0000
0100
0000
0001
1000
,
0100
0000
0100
1000
0001
0000
0001
0100
,
0010
0000
0010
0100
0001
0000
1000
0000
,
0100
0010
0001
1000
,
0100
0010
0001
1000
,
0010
0010
0001
0100
,
0100
1000
0001
0001
,
0010
0100
1000
1000
,
0100
0010
0001
0001
,
0010
0001
1100
0000
,
0000
0000
0000
0110
,
0000
1001
0010
0010
,
1000
0001
0100
1000
0001
0010
1000
0001
,
0100
1000
0100
0000
0001
0000
0010
0000
,
1000
0100
0010
0100
1000
0001
0100
0001
,
1000
0100
0010
0000
0001
0000
0010
0000
,
0100
1000
1000
0000
0010
0100
1000
0100
,
0010
0100
1000
0000
0010
1000
0010
0001
,
0010
1000
0100
0001
0010
0100
1000
0100
,
0010
0001
0010
0000
1000
0000
1100
0000
,
0010
0001
0010
0000
0100
0000
1100
0000
,
0010
0100
0010
0000
0001
1000
0010
1000
,
0100
0002
2003
3200
,
0320
0000
0032
0000
1003
0100
1000
0010
,
1000
0000
0100
0000
0010
0001
0100
0001
,
1000
0000
0010
0000
1000
0001
0100
0001
,
0010
0001
0100
0000
0010
0000
0100
0000
,
2020
0000
0000
0000
,
0000
0000
0000
0000
,
0000
0000
0000
0000
,
0000
0000
0000
0000
,
3030
0000
0000
0000
;

//--------------- dance-single - Xaevin ----------------
#NOTEDATA:;
#STEPSTYPE:dance-single;
#DESCRIPTION:Xaevin;
#DIFFICULTY:Hard;
#METER:8;
#RADARVALUES:0,0,0,0,0;
#NOTES:
0010
0000
0100
0000
0001
0000
0100
0000
0000
1010
0000
0000
0100
0000
0000
0000
,
0001
0000
0010
0000
1000
0000
0001
0000
0000
0101
0000
0000
0010
0000
0000
0000
,
1000
0000
0100
0000
0001
0000
0100
0000
0010
0000
1000
0000
0100
0000
0001
0010
,
0001
0010
0100
0000
1000
0000
0000
0000
0000
0101
0000
0000
0010
0000
0000
0000
,
1000
0000
0100
0000
0001
0000
0100
0000
0000
1010
0000
0000
0101
0000
0000
0000
,
1000
0000
0010
0000
0001
0000
0100
0000
0000
1100
0000
0000
0011
0000
0000
0000
,
0100
0000
1000
0000
0001
0000
0010
0000
0100
0000
1000
0000
0001
0100
0010
0001
,
0100
0000
0000
0000
0000
0000
0000
0000
0000
0000
0000
0000
0000
0000
0000
0000
0000
0000
0000
0000
0000
0000
0000
0000
0000
0000
0000
0000
0000
0000
0000
0000
0000
0000
0000
0000
0000
0000
0000
0000
0000
0000
0000
0000
0000
0000
0000
1001
0000
0000
0000
0000
0000
0000
0000
0000
0000
0000
0000
0000
0000
0000
0000
0000
0000
0000
0000
0000
0000
0000
0000
0000
0000
0000
0000
0000
0000
0000
0000
0000
0000
0000
0000
0000
0000
0000
0000
0000
0000
0000
0000
0000
0000
0000
0000
0000
1000
0000
0000
0000
0000
0000
0000
0000
0000
0000
0000
0000
0000
0000
0000
0000
0000
0000
0000
0000
0000
0000
0000
0000
0010
0000
0000
0000
0000
0000
0000
0000
0000
0000
0000
0000
0000
0000
0000
0000
0000
0000
0000
0000
0000
0000
0000
0000
0100
0000
0000
0000
0000
0000
0000
0000
0000
0000
0000
0000
0000
0000
0000
0000
0000
0000
0000
0000
0000
0000
0000
0000
0001
0000
0000
0000
0000
0000
0000
0000
0000
0000
0000
0000
0000
0000
0000
0000
0000
0000
0000
0000
0000
0000
0000
0000
,
1000
0010
0100
0001
1000
0000
0010
0010
,
0001
0000
1100
0000
0001
0100
0010
1000
,
0001
0100
0010
1000
0001
0000
0100
0100
,
1000
0000
0001
0100
1000
0010
0100
0000
,
1001
0100
1010
0100
,
1001
0000
0010
0100
0010
0001
0100
1000
,
0100
0001
0010
0100
0010
0000
1001
0000
,
0011
0000
0000
0000
0100
0100
0100
0000
,
1010
0000
1001
0000
0010
0010
0010
0000
,
0101
0000
1001
0000
0100
1000
1000
0000
,
0010
0100
0100
0000
0001
0010
0010
0000
,
1000
0010
1000
0000
0100
0001
0100
0000
,
0011
0000
1100
0000
0001
0001
0001
0000
,
1100
0000
0011
0000
0100
1000
0100
0001
,
0100
1000
0100
0000
0011
0000
1000
0000
,
0110
1000
0011
0001
,
0100
0100
0010
0010
,
1000
0000
1000
0000
0010
0001
0100
0000
,
0100
0001
0010
0000
1000
0000
0100
0000
,
1000
0000
0001
0010
0100
0000
0100
0010
,
0001
0000
1000
0000
0100
0000
0001
1000
,
0100
0000
0100
1000
0001
0000
0001
0100
,
0010
0000
0010
0100
0001
0000
2000
0000
,
3200
0320
0032
1003
,
1000
0000
0001
0000
0001
0010
0100
1000
,
0100
1000
0100
0010
0001
0010
0001
0000
,
1000
0000
0020
0000
0000
2030
0000
0000
,
3002
0000
0000
0003
0100
0000
1000
0000
,
0100
0000
1000
0000
0001
0010
0001
0100
,
0010
1001
1100
0001
,
0010
1000
0000
0110
,
0000
1001
0010
0010
,
1000
0001
0100
1000
0001
0010
1000
0001
,
0100
1000
0001
0010
0100
1000
0100
0010
,
0001
0100
0010
0100
1000
0001
0100
0001
,
1000
0100
0010
0000
0001
0000
0010
0000
,
0100
1000
1000
0000
0010
0100
1000
0100
,
0010
0100
1000
0000
0010
1000
0010
0001
,
0010
1000
0010
0001
0010
0100
1000
0100
,
0010
0001
0010
0100
1000
0000
1100
0000
,
0001
0010
0001
0000
0100
0000
1010
0000
,
0100
0010
0100
0000
0001
1000
0010
1000
,
0100
0002
2003
3200
,
0320
0000
0032
0000
1003
0100
1000
0010
,
1000
0001
1000
0001
0010
0001
0100
0001
,
1000
0100
0010
0001
1000
0001
0100
0001
,
0010
0001
0100
0000
0010
0000
0100
0000
,
2020
0000
0000
0000
,
0000
0000
0000
0000
,
0000
0000
0000
0000
,
0000
0000
0000
0000
,
3030
0000
0000
0000
;
