#TITLE:Freak;
#SUBTITLE:;
#ARTIST:Shygirl;
#TITLETRANSLIT:;
#SUBTITLETRANSLIT:;
#ARTISTTRANSLIT:;
#GENRE:;
#CREDIT:Xaevin;
#MUSIC:Freak.ogg;
#BANNER:Freak-bn.mp4;
#BACKGROUND:Freak-bg.png;
#CDTITLE:;
#SAMPLESTART:2.209;
#SAMPLELENGTH:14.776;
#SELECTABLE:YES;
#OFFSET:-1.313;
#BPMS:0.000=134.000;
#STOPS:;
#BGCHANGES:2.000=Freak.avi=1.000=0=0=0=StretchNoLoop====,
99999.000=-nosongbg-=1.000=0=0=0=StretchNoLoop====
;
#FGCHANGES:;

//--------------- dance-single - Xaevin ----------------
#NOTES:
     dance-single:
     Xaevin:
     Beginner:
     3:
     0,0,0,0,0:
0000
0000
0000
0000
,
1000
0000
0001
0000
,
0001
0000
0010
0000
,
0001
0000
0010
0000
,
1000
0000
0001
0000
,
0010
0000
1000
0000
,
0001
0000
0010
0000
,
1000
0000
0010
0001
,
0001
0000
0000
0000
0000
0000
0000
0000
0000
0000
0000
0000
1000
0000
0000
0000
0000
0000
0000
0000
0000
0000
0000
0000
2000
0000
0000
0000
0000
0000
0000
0000
0000
0000
0000
0000
0000
0000
0000
0000
0000
3000
0000
0000
0000
0000
0000
0000
,
1000
0000
1000
0000
,
0001
0000
1000
0000
,
1000
0000
0010
0000
,
1000
0000
0010
0000
,
0001
0000
1000
0000
,
0001
0000
1000
0000
,
1000
0000
0001
0000
,
1000
0000
0110
0000
,
1001
0000
0100
1000
,
0001
0010
0001
0000
,
1010
0000
0010
0100
,
1000
0010
0001
0000
,
1001
0100
0010
0001
,
0100
1000
0001
0100
,
0010
0000
0101
0000
,
2020
0000
0000
3030
,
0100
0001
0010
0100
,
0010
0100
1000
0010
,
0100
0001
1000
0010
,
2000
0000
3020
0000
,
1030
0100
1000
0000
0010
0000
0010
0000
,
0001
1000
0010
0100
,
1000
0100
1000
0000
0010
0000
1000
0000
,
0100
0010
1000
0000
,
1001
0000
0001
0100
,
0001
1000
0010
0000
,
0101
0000
0001
1000
,
0100
0001
0010
0000
,
0210
0000
0010
0000
,
1302
0000
0100
0000
,
0123
0000
1000
0000
,
2130
0000
0010
0000
,
3001
0000
0010
0100
1000
0000
1000
0000
,
0001
0001
0100
0100
,
1000
1000
0001
0001
,
0100
0100
1000
1000
,
0100
0010
0001
0010
,
0100
1000
0100
0010
,
0100
0010
0001
0001
,
1000
0000
1000
0000
0000
0100
0010
0100
,
2000
0000
3020
0000
,
2030
0000
3200
0000
,
0302
0000
0203
0000
,
2300
0000
3001
0000
,
0110
0000
1001
0000
,
0110
0000
1001
0000
,
1100
0000
0011
0000
,
1010
0000
0202
0000
,
1303
0001
1000
0010
,
0010
0010
1000
0001
,
0001
0001
1000
0010
,
0010
0010
0001
0100
,
0100
0100
1000
0001
,
0001
0001
0010
1000
,
1000
1000
0010
0100
,
0100
0100
1000
0001
,
1000
0000
0000
0100
1000
0000
0100
0000
,
0010
0000
0010
0100
,
0010
0000
0000
0001
0010
0000
0001
0000
,
0010
0000
0010
0100
,
0010
0000
0000
0100
1000
0000
0100
0000
,
1000
0000
0010
0100
,
0010
0000
0000
0001
0010
0000
0001
0000
,
0010
0000
1000
0100
,
2002
0000
0000
0000
,
3203
0000
0000
0000
,
0320
0000
0000
0000
,
2030
0000
0000
0000
,
3002
0000
0000
0000
,
0203
0000
0000
0000
,
0302
0000
0000
0000
,
2003
0000
0000
0000
,
3010
0001
0010
0000
,
1000
0100
1000
0000
,
0001
0010
0001
0000
,
0100
0001
0100
0000
,
1000
0001
1000
0000
,
0100
0010
0100
0000
,
1000
0010
1000
0000
,
0202
0000
0000
0000
,
0303
0000
0000
0000
;

//--------------- dance-single - Xaevin ----------------
#NOTES:
     dance-single:
     Xaevin:
     Easy:
     4:
     0,0,0,0,0:
0000
0000
0000
0000
,
1000
0000
0000
0100
0001
0000
0000
0000
,
0001
0000
0000
0100
0010
0000
0000
0000
,
0001
0000
0000
0001
0010
0000
0000
0000
,
1000
0000
0000
0100
0001
0000
0000
0000
,
0010
0000
0000
0100
1000
0000
0000
0000
,
0001
0000
0000
0100
0010
0000
0000
0000
,
1000
0000
0000
0001
0010
0000
0001
0000
,
0001
0000
0000
0000
0000
0000
0000
0000
0000
0000
0000
0000
1000
0000
0000
0000
0000
0000
0000
0000
0000
0000
0000
0000
2000
0000
0000
0000
0000
0000
0000
0000
0000
0000
0000
0000
0000
0000
0000
0000
0000
3000
0000
0000
0000
0000
0000
0000
,
1000
0000
0000
0100
1000
0000
0000
0000
,
0001
0000
0000
0010
1000
0000
0000
0000
,
1000
0000
0000
0001
0010
0000
0000
0000
,
1000
0000
0000
1000
0010
0000
0000
0000
,
0001
0000
0000
0100
1000
0000
0000
0000
,
0001
0000
0000
0100
1000
0000
0000
0000
,
1000
0000
0000
0010
0001
0000
0000
0000
,
1000
0000
0110
0000
,
1001
1000
0100
1000
,
0001
0010
0001
0010
,
1000
0100
0010
0100
,
1000
0000
0010
0000
0101
0000
0010
0100
,
1000
0100
0010
0000
0010
0100
0001
1000
,
0100
0000
1000
0100
0001
0010
0100
0000
,
0010
1000
0011
0100
,
2020
0000
0000
3030
,
0100
0001
0010
0100
,
0010
0100
1000
0010
,
0100
0001
1000
0002
,
2003
3200
0320
0032
,
1003
0100
1000
0000
0010
0100
0010
0000
,
0001
1000
0010
0100
,
1000
0100
1000
0000
0010
0001
0010
0000
,
0100
0010
1000
0010
,
1000
0000
0010
1000
0001
0000
1000
0010
,
0001
0000
1000
0010
0001
0000
1000
0010
,
0100
0000
0010
0100
0001
0000
0100
0010
,
0100
0000
0001
0100
0010
0000
0000
0000
,
0210
1000
0010
0000
,
1302
1000
0100
0000
,
0123
1000
0100
0000
,
2030
0100
0010
0000
,
3001
0000
0010
0100
1000
0000
0010
0000
,
0001
0010
0001
1000
0100
0001
0100
0000
,
1000
0100
1000
0001
,
0001
1000
0100
0010
1000
0001
0100
0000
,
0010
0000
0100
0000
0010
1000
0100
0000
,
0001
0010
0100
0001
1000
0100
0010
0000
,
0100
1000
0001
0010
,
1000
0000
0100
0000
0000
0100
0010
0100
,
2000
0000
3020
0000
,
2030
0000
3200
0000
,
0302
0000
0203
0000
,
2300
0000
3001
0001
,
0110
1000
1001
0100
,
0110
0001
1001
0010
,
1100
0001
0011
0100
,
1010
1000
0202
0000
,
1303
0000
0001
0100
1000
0100
0010
0000
,
0010
0000
0010
0100
1000
0100
0001
0000
,
0001
0000
0001
0010
1000
0001
0010
0000
,
0010
0000
0010
0100
0001
0010
0100
0000
,
0100
0000
0100
0010
1000
0100
0001
0000
,
0001
0000
0001
0100
0010
0100
1000
0000
,
1000
0000
1000
0100
0010
1000
0100
0000
,
0100
0000
0100
0010
1000
0010
0001
0010
,
1000
0000
0000
0100
1000
0000
0100
0000
,
0010
0000
0000
0100
0010
0000
0100
0000
,
0010
0000
0000
0001
0010
0000
0001
0000
,
0010
0000
0000
0100
0010
0000
0100
0000
,
0010
0000
0000
0100
1000
0000
0100
0000
,
1000
0000
0000
0100
0010
0000
0100
0000
,
0010
0000
0000
0001
0010
0000
0001
0000
,
0010
0000
0000
0010
1000
0000
0100
0000
,
2002
0000
0100
0000
,
3203
0000
0010
0000
,
0320
0000
1000
0000
,
2030
0000
0001
0000
,
3002
0000
0100
0000
,
0203
0000
0001
0000
,
0302
0000
1000
0000
,
2003
0000
0000
0000
,
3010
0001
0010
0000
,
1000
0100
1000
0000
,
0001
0010
0001
0000
,
0100
0001
0100
0000
,
1000
0001
1000
0000
,
0100
0010
0100
0000
,
1000
0010
1000
0000
,
0202
0000
0000
0000
,
0303
0000
0000
0000
;

//--------------- dance-single - Xaevin ----------------
#NOTES:
     dance-single:
     Xaevin:
     Medium:
     5:
     0,0,0,0,0:
0000
0000
0000
0000
,
1000
0000
0000
0100
1000
0000
0100
0000
,
0010
0000
0000
0100
0010
0000
0100
0000
,
0010
0000
0000
0001
0010
0000
0001
0000
,
0010
1000
0010
0100
,
0010
0000
0000
0100
1000
0000
0100
0000
,
1000
0000
0000
0100
0010
0000
0100
0000
,
0010
0000
0000
0001
0010
0000
0001
0010
,
0001
0000
0000
0000
0000
0000
0000
0000
0000
0000
0000
0000
1000
0000
0000
0000
0000
0000
0100
0000
0000
0000
0000
0000
2000
0000
0000
0000
0000
0000
0000
0000
0000
0000
0000
0000
0000
0000
0000
0000
0000
3000
0000
0000
0000
0000
0000
0000
,
1000
0000
0000
0100
1000
0000
0010
0000
,
0001
0000
0000
0010
1000
0000
0100
0000
,
1000
0000
0000
0001
0010
0000
0001
0000
,
2000
0001
3020
0100
,
1030
0000
0000
0100
1000
0000
0010
0000
,
0001
0000
0000
0100
1000
0000
0010
0000
,
1000
0000
0000
0010
0001
0000
1000
0100
,
1000
0000
0010
0001
0010
0000
0000
0000
,
1001
1000
0100
1000
,
0001
0010
0001
0110
,
1000
0100
0010
0100
,
1000
0000
0010
0000
0001
0000
0010
0100
,
1000
0100
0010
1000
0010
0100
0001
1000
,
0100
0010
1000
0100
0001
0010
0100
0001
,
0100
1010
0100
0001
,
2020
0000
0000
3030
,
0100
0001
0010
0100
,
0010
0100
1000
0010
,
0100
0001
1001
1001
,
2000
3020
0230
0302
,
1003
0100
1000
0000
0010
0100
0010
0000
,
0001
1000
0010
0100
,
1000
0100
1000
0000
0010
0001
0010
0000
,
0100
0010
1000
1010
,
1000
0100
0010
1000
0001
0100
1000
0010
,
0001
0100
1000
0010
0001
0100
1000
0010
,
0100
0001
0010
0100
0001
1000
0100
0010
,
0100
1000
0001
0100
0010
0000
0101
0000
,
2010
0100
0010
3010
,
1002
0100
1000
1000
,
0123
1000
0100
0100
,
2031
0100
0010
0010
,
3001
0000
0010
0100
1000
0000
0010
0000
,
0001
0010
0001
1000
0100
0001
0100
0000
,
1000
1000
0001
0001
,
0010
1000
0100
0010
1000
0001
0100
0000
,
0010
1000
0100
0001
0010
1000
0100
1000
,
0001
0010
0100
0001
1000
0100
0010
1000
,
0100
0001
1000
0100
0001
1000
0010
0100
,
1000
0001
0100
0000
0000
0100
0010
0100
,
2000
3020
0032
0023
,
2030
3200
2300
3002
,
0023
2030
3001
0220
,
0000
0000
0330
0010
,
0110
1000
1001
0100
,
0110
0001
1001
0010
,
1000
0001
0010
0000
1000
0010
0100
0000
,
1010
1000
0202
0000
,
1303
0000
0001
0100
1000
0100
0010
0100
,
0001
0110
1000
0001
,
1010
0000
0100
0001
1000
0001
0010
0001
,
1000
0110
1000
1010
,
0001
0000
0010
0100
1000
0100
0010
0100
,
0001
1010
0100
1001
,
0010
0000
0100
1000
0010
1000
0001
1000
,
0100
1010
0101
0110
,
0002
0000
0000
0100
1000
0000
0103
0000
,
0010
0000
0000
0100
0010
0000
0100
0000
,
0010
0000
0000
0001
0010
0000
0001
0000
,
1010
0000
0000
0100
0010
0000
0000
0000
,
0010
0000
0000
0100
1000
0000
0100
0000
,
1000
0000
0000
0100
0010
0000
0100
0000
,
0010
0000
0000
0001
0010
0000
0001
0000
,
1010
0000
0000
0100
1000
0000
0100
0000
,
0002
0000
0100
0000
,
0203
0000
0010
0000
,
0320
0000
1000
0000
,
1030
0010
0001
0100
,
0002
0000
0100
0000
,
0203
0000
0301
0000
,
0002
0100
0013
1000
,
0100
0010
0200
0000
,
0010
0001
0310
0000
,
1000
0100
1000
0000
,
0101
0000
1010
0000
,
1000
0001
0110
0000
,
1000
0001
1000
0000
,
2000
3010
2000
3001
,
2000
3100
2000
3010
,
0202
0000
0000
0000
,
0303
0000
0000
0000
;

//--------------- dance-single - Xaevin ----------------
#NOTES:
     dance-single:
     Xaevin:
     Hard:
     7:
     0,0,0,0,0:
0000
0000
0000
0000
,
1001
0000
0010
0100
1000
0000
0100
0000
,
0010
0000
1000
0100
0010
0000
0100
0000
,
0010
0000
0001
0010
0100
0000
0001
0000
,
0010
0000
1000
0100
0010
0000
0100
0000
,
0010
0000
0001
0100
1000
0000
0100
0000
,
1000
0000
0001
0100
0010
0000
0100
0000
,
0010
0000
1000
0001
0010
0000
0001
0010
,
0001
0000
0000
0000
0000
0000
0000
0000
0000
0000
0000
0000
1000
0000
0000
0000
0000
0000
0100
0000
0000
0000
0000
0000
2000
0000
0000
0000
0000
0000
0000
0000
0000
0000
0000
0000
0000
0000
0000
0000
0000
3000
0000
0000
0000
0000
0000
0000
,
1000
0010
1000
0100
1000
0000
0010
0000
,
0001
0100
1000
0010
1000
0000
0100
0000
,
1000
0100
0010
0001
0010
0000
0001
0000
,
2001
0000
0001
3000
0120
0000
0100
0000
,
1030
0000
1000
0100
1000
0000
0110
0000
,
0001
0000
1000
0100
1000
0000
0011
0000
,
1000
0000
0001
0010
0001
0000
1000
0100
,
1010
0000
0001
0010
0022
0000
0033
0000
,
1001
0100
1010
0001
,
1010
0100
1001
0010
,
1001
0010
0101
1000
,
0110
0000
0001
0000
1010
0000
0010
0100
,
1000
0100
0010
1000
0010
0100
0001
1000
,
0100
0010
1000
0100
0001
0010
0100
0001
,
1000
0100
0001
1000
0010
0100
0001
0000
,
1000
0100
1000
0100
1000
0100
1000
0100
,
0011
0000
0001
1000
0010
0100
0001
0010
,
1000
0100
0001
0010
1000
0100
0010
1000
,
1000
0001
0001
0000
1001
0000
1001
0000
,
2000
3020
0230
0302
,
1003
0000
0100
0000
1000
0000
0001
0000
0010
0100
0010
0100
0000
0000
0001
0000
,
0001
1000
1000
0000
1001
0000
0110
0000
,
1000
0100
1000
0001
0010
0100
0010
0100
,
1000
0001
0010
0001
1000
0100
0001
0000
,
1000
0000
0100
0000
0010
0000
1000
0000
0001
0010
0001
0010
0000
0000
0001
0000
,
0010
0000
0100
0000
1000
0000
0010
0000
0100
1000
0100
1000
0000
0000
0010
0000
,
0100
0000
0001
0000
0010
0000
0100
0000
0001
0010
0001
0010
0000
0000
0010
0000
,
0100
1000
0001
0100
0010
0000
0101
0000
,
2010
0100
0010
3010
,
1002
0100
1000
1003
,
0011
0000
1000
0010
0100
0100
0010
1000
,
0001
0100
1000
0010
0100
0001
0010
0010
,
1002
0000
0013
0100
1000
0000
0011
0000
,
0100
0010
0100
1000
0100
0001
0100
0000
,
1000
0100
1000
0000
0001
0010
0001
0000
,
0010
1000
0100
0010
1000
0001
0100
0000
,
0010
1000
0100
0001
0010
1000
0100
1000
,
0001
0010
0100
0001
1000
0100
0010
1000
,
0100
0001
1000
0100
0001
1000
0010
0100
,
1000
0001
0100
0000
0000
0100
0100
0100
,
2000
3020
0032
0023
,
2030
3200
2300
3002
,
0023
2030
3001
0220
,
0000
0000
0330
0010
,
0110
1000
1001
0100
,
0110
0001
1001
0010
,
1000
0001
0010
0000
1000
0010
0100
0000
,
1010
1000
0202
0000
,
1303
0000
0001
0100
1000
0100
0010
0100
,
0001
0110
1000
0001
,
1010
0000
0100
0001
1000
0001
0010
0001
,
1000
0110
1000
1010
,
0001
0000
0010
0100
1000
0100
0010
0100
,
0001
1010
0100
1001
,
0010
0000
0100
1000
0010
1000
0001
1000
,
0100
1010
0101
0110
,
0002
0000
0000
0100
1000
0000
0103
0000
,
0010
0000
0000
0100
0010
0000
0100
0000
,
0010
0000
0000
0001
0010
0000
0001
0000
,
1010
0000
0000
0100
0010
0000
0000
0000
,
0010
0000
0000
0100
1000
0000
0100
0000
,
1000
0000
0000
0100
0010
0000
0100
0000
,
0010
0000
0000
0001
0010
0000
0001
0000
,
1010
0000
0000
0100
1000
0000
0100
0000
,
0002
0000
0100
0100
0100
0000
1003
0000
,
0200
0000
0010
0010
0010
0000
0301
0000
,
0020
0000
2000
3030
,
0110
1100
0011
0110
,
0002
0000
0100
0100
0100
0000
0010
0000
,
0203
0000
0001
0001
0301
0000
1000
0000
,
0002
0100
0010
1000
,
0100
0010
0200
0303
,
1001
0001
1100
0010
,
0110
0100
0011
1000
,
0001
0100
1010
0000
0100
1000
0011
0000
,
0100
0000
1000
1000
0010
0000
0100
0100
,
1000
0000
0010
0010
1000
0000
0001
0001
,
2100
3010
2001
3100
,
2010
3001
2100
3010
,
0202
0000
0000
0000
0000
0000
0000
0303
,
1010
0000
0000
0000
;
