#TITLE:U Inside My Dim Memory;
#SUBTITLE:;
#ARTIST:Hyun Jin Young vs. Yahpp;
#TITLETRANSLIT:;
#SUBTITLETRANSLIT:;
#ARTISTTRANSLIT:;
#GENRE:K-Pop;
#CREDIT:Kimchinim;
#BANNER:U Inside My Dim Memory - bn.png;
#BACKGROUND:U Inside My Dim Memory - BG.png;
#LYRICSPATH:;
#CDTITLE:;
#MUSIC:U Inside My Dim Memory.ogg;
#OFFSET:-3.001;
#SAMPLESTART:47.753;
#SAMPLELENGTH:16.260;
#SELECTABLE:YES;
#BPMS:0.000=118.000,54.000=59.000,54.500=118.000;
#STOPS:54.500=0.085
,54.667=0.085
,54.833=0.085
;
#BGCHANGES:-6.004=U Inside My Dim Memory.avi=1.000=0=0=1=====,
99999=-nosongbg-=1.000=0=0=0 // don't automatically add -songbackground-
;
#KEYSOUNDS:;

//---------------dance-single - Kimchinim----------------
#NOTES:
     dance-single:
     Kimchinim:
     Challenge:
     10:
     0.838,0.785,0.354,0.261,1.000:
0000
0000
0000
1001
,
1100
0000
0000
0000
0000
1000
0001
0100
,
0101
0000
0000
0000
0000
0001
1000
0010
,
1010
0000
0000
0000
0000
1000
0001
0010
,
0001
0100
0000
0000
0000
0000
0000
0000
0000
0001
0100
0000
0001
1000
0001
1000
,
0200
0300
1000
0001
1000
0001
0200
0300
0002
0003
0010
0100
2000
3000
0010
0100
,
2000
3000
0100
0010
0100
0010
0100
0010
1000
0100
0010
0100
1000
0010
0200
0300
,
0002
0003
1000
0001
1000
0001
0200
0300
2000
3000
0100
0001
0020
0030
0100
0010
,
0002
0003
0000
0000
0000
0000
0000
0000
0001
0010
0001
0010
0100
1000
0100
1000
,
0001
0000
0000
0001
0100
0000
0000
0100
0010
0000
1000
0000
0100
0000
0000
0100
,
1000
0000
0000
1000
0001
0000
0000
0001
0100
0000
0001
1000
0100
0000
2000
0000
,
3010
0000
0110
0000
0010
0100
0010
0100
0001
0001
1000
1000
0010
0100
0001
0010
,
0100
0000
0000
0100
1000
0000
0002
0000
0000
0000
0200
0000
0303
0000
0000
0000
,
0101
0000
0000
0110
0000
0000
1010
0000
1001
0000
0000
0000
1000
0000
0000
1000
,
0100
0000
0000
0100
0010
0000
0001
0000
0100
0000
0000
0100
0010
0000
0000
0010
,
1000
0000
0001
1000
0010
0100
0010
0100
0001
1000
0010
0100
0001
0000
0000
0001
,
0100
0000
0000
0100
0010
0000
1000
0000
0100
0000
0000
0100
1000
0000
0000
1000
,
0001
0000
0010
0100
1000
0001
1000
0001
0100
0010
1000
0001
0100
0000
0000
0100
,
0001
0000
0000
0001
1000
0000
0010
0000
1010
0000
0000
0010
0100
0000
0000
0100
,
0001
0000
0000
0001
0010
0000
0010
0100
1000
0000
0010
0100
0001
0000
0000
0001
,
1000
0000
0000
1000
0010
1000
0000
0010
0000
0010
1000
0000
0001
0100
0001
0100
,
0010
1000
0010
1000
0000
0000
0110
0000
1001
0000
0000
0000
0010
0010
1000
0100
,
1000
0010
0100
0100
0001
0010
0010
0100
0010
0001
0010
0001
0100
0100
0010
1000
,
0100
0000
0010
0000
0001
0000
0001
0000
0100
0000
0010
0000
0010
0000
1000
0000
0001
0000
1000
0001
1000
0000
0001
0000
0100
0000
0100
0000
0010
0000
1000
0000
,
0100
1000
0010
0010
0100
0001
0001
0100
0010
0001
0010
0100
0001
0001
0010
0100
,
0010
0001
0100
0100
0001
0100
1000
0100
0001
1000
0200
0300
1000
1000
0100
1000
,
0010
0100
0001
0001
0100
0001
0001
1000
0010
0100
0010
1000
0100
0100
0010
0001
,
0100
0000
0010
0000
1000
0000
1000
0000
0010
0000
1000
0000
1000
0000
0001
0000
0100
0000
0001
0100
0001
0000
0100
0000
0001
0000
0001
0000
0010
0000
0100
0000
,
1000
0010
0100
0100
0010
1000
1000
0100
0010
0100
0010
0001
0100
0100
0010
1000
,
0010
0100
0001
0001
1000
0100
0010
0001
1000
0010
0200
0300
0001
0010
0001
0100
,
0001
0010
0100
0000
1100
0000
1001
0000
0101
0000
1001
0000
1000
0100
1000
0010
,
1000
0100
0010
0000
0011
0000
1001
0000
1010
0000
1001
0000
0002
0003
0100
0001
,
1000
0000
1100
0000
1000
1000
0100
1000
0001
0001
0100
0001
2000
3000
0100
1000
,
0001
0000
0101
0000
0001
0100
0001
1000
0001
0100
0001
1000
0002
0003
0100
0001
,
1000
0000
1001
0000
1000
0100
1000
0001
1000
0010
1000
0001
1000
0010
1000
0000
,
1010
0000
0010
1000
0001
0010
0001
1000
0001
0100
0001
1000
0020
0030
0100
0010
,
1000
0100
0010
0000
0010
0010
0001
0100
0010
0010
1000
0100
2000
3000
0100
0010
,
0001
0000
0100
0000
0010
0010
1000
0100
0010
0001
0200
0300
0001
0000
0101
0000
,
1000
0010
0100
0010
1000
0000
0100
0000
1001
0000
0000
0000
1000
0000
1010
0000
,
0001
0100
0010
0100
0001
0000
0010
0000
1001
0000
0000
0000
0010
0100
0001
0100
,
0010
1000
0100
0010
0002
0000
0003
0100
0010
0000
0010
0100
0001
0010
0100
1000
,
0001
0100
0010
1000
0010
0100
0001
1000
0100
0000
1100
0000
1000
0000
1000
0000
,
0001
0000
0001
0000
1000
0100
1000
0000
0001
0100
0001
0000
1000
0000
1010
0000
,
0010
1000
0010
0100
0001
0010
0100
1000
0020
0000
0030
0000
0100
0100
0010
1000
,
0100
1000
0010
0100
0001
0010
0100
0000
0110
0000
0100
0010
0001
0100
0001
0100
,
0010
1000
0010
1000
0100
0010
0100
0010
0001
1000
0100
0010
0001
0000
0010
0000
,
0011
0000
0100
0010
1000
0010
0100
0000
1001
0000
0100
0000
1000
0000
0100
0000
,
1100
0000
0010
0001
0100
0001
0010
0000
0001
1000
0000
0000
1000
0000
0010
0000
,
1010
0000
0100
0001
0010
0001
0100
0000
1001
0000
0010
0000
2002
0000
0000
0000
,
0000
0000
3003
0000
1000
0001
1000
0001
0100
0010
1000
0001
1000
0100
0000
0100
,
0010
0000
0010
0001
0000
0001
1000
0000
1000
0100
0010
0000
2002
0000
0000
0000
,
3003
0000
0000
0000
;

//---------------dance-single - Kimchinim----------------
#NOTES:
     dance-single:
     Kimchinim:
     Hard:
     9:
     0.606,0.499,0.466,0.084,0.424:
0000
0000
0000
0110
,
1001
0001
0010
0001
0100
0010
1000
0100
,
1001
1000
0100
1000
0010
0100
0001
0010
,
1001
0001
0010
0001
0100
0010
1000
0100
,
1100
0000
0000
0000
0000
0000
0000
0000
0000
1000
0001
0000
0100
0010
0100
0010
,
1000
0000
1000
0000
0100
0000
1000
0000
0001
0000
0000
0001
1000
0000
0000
1000
,
0001
0000
0001
0000
0100
0000
0001
0000
0100
0010
1000
0000
0100
0010
0000
0000
,
0001
0000
0010
0000
0001
0000
0100
0000
0001
0000
0000
0001
1000
0000
0000
1000
,
0001
0000
0000
0000
0000
0000
0000
0000
1000
0001
1000
0001
1000
0000
1001
0000
,
0002
0003
0101
0001
1000
0100
1000
0000
,
0010
1000
0100
0000
0010
0001
0100
0000
,
1001
0000
0010
0100
0010
0100
0010
0100
,
0002
0000
0000
0023
0000
0000
0230
0000
0000
0000
2000
0000
3300
0000
0000
0000
,
1100
0000
0000
0110
0000
0000
0011
0000
1001
0000
0000
0000
1000
0000
0000
1000
,
0100
0000
0000
0100
1000
0000
0010
0000
1000
0000
0000
1000
0001
0000
0000
0001
,
0010
0000
0000
0010
0001
0000
0001
0100
0010
0000
0000
0010
0100
0000
0000
0100
,
0001
0000
0000
0001
1000
0000
0100
0000
0010
0000
0000
0010
0100
0000
0000
0100
,
1000
0000
0000
1000
0100
0000
1000
0010
0100
0000
0000
0100
0010
0000
0000
0010
,
1000
0000
0000
1000
0001
0000
0100
0000
0001
0000
0000
0001
0100
0000
0000
0100
,
0001
0000
0000
0001
1000
0000
1000
0100
0010
0000
0000
0000
0010
0000
0001
0000
,
1000
0000
0000
0000
0010
0000
1000
0000
0001
0000
0000
0000
1000
0100
1000
0100
,
1000
0000
0001
0100
0000
0000
0000
0000
1001
0000
0000
0000
0001
0010
0000
0000
,
0011
0000
0010
0001
0000
0010
0001
0000
0100
0000
0000
0000
0010
1000
0000
0000
,
1010
0000
0010
1000
0000
0010
1000
0000
0100
0000
0100
0000
1000
0100
0000
0000
,
1100
0000
1000
0100
0000
1000
0001
0000
0100
0000
0000
0000
0001
0100
0000
0000
,
0101
0000
0001
0100
0000
0100
0001
0100
0001
0000
1000
0000
0001
0010
0000
0000
,
0011
0000
0010
0001
0000
0100
0010
0000
1000
0000
0000
0000
0100
1000
0000
0000
,
1100
0000
1000
0100
0000
1000
0010
0000
0100
0010
0100
0000
0001
0010
0000
0000
,
0011
0000
0010
0100
0000
1000
0001
0000
0100
0000
0000
0000
0010
1000
0000
0000
,
1010
0000
0010
1000
0000
1000
0001
1000
0001
0000
0100
0000
0101
0000
0001
0000
,
0010
0001
0100
0100
0010
0010
1010
1000
,
0100
0000
1000
0000
0010
0000
0010
0000
0100
0000
0100
0000
1001
0000
0000
0001
,
0100
0000
0000
0100
1000
0000
0100
0000
0010
0000
0000
0010
0100
0000
0000
0100
,
0001
0000
0000
1000
0010
0000
1000
0000
1010
0000
0000
1000
0001
0000
0000
0001
,
0010
0000
0001
0000
0100
0001
0100
0000
0001
0100
0001
0000
1001
0000
0000
1000
,
0100
0000
1000
0000
0010
1000
0010
0000
1000
0010
1000
0000
0100
0000
0000
0100
,
0010
0000
0000
0010
0001
0000
1000
0000
0001
0000
0010
0000
0100
0000
0000
0100
,
1000
0000
0000
1000
0001
0100
0001
0100
0001
0000
1000
0000
0001
0000
0010
0000
,
0001
0100
1001
0100
1001
0000
1000
0100
,
0010
0100
1001
0010
1001
0000
1000
0100
,
0001
0000
0100
0000
1000
0000
0000
0000
1001
0000
0000
0000
0101
0000
0000
0110
,
0000
0000
1010
0000
0000
1100
0000
0000
0110
0000
1000
0000
1001
0000
0001
0000
,
0010
0001
0100
0100
0010
1000
1001
1000
,
0100
1000
0010
0010
0100
0001
1001
0001
,
0010
0000
0100
0000
0010
0000
0100
0000
1000
0000
0010
0000
1000
0100
1000
0000
,
0001
0100
0001
0000
1000
0001
1000
0001
1000
0000
0100
0000
1001
0000
0010
0000
,
0100
0010
1000
0100
0010
0001
1001
0100
,
0010
0100
0001
0010
0100
1000
1001
0100
,
0010
1000
0100
0010
0001
0100
0220
0000
,
0000
0000
0330
0000
1000
0001
1000
0001
1000
0000
0001
0000
0101
0000
0000
0110
,
0000
0000
1010
0000
0000
1100
0000
0000
0110
0000
0011
0000
0202
0000
0000
0000
,
0303
0000
0000
0000
;

//---------------dance-double - Kimchinim----------------
#NOTES:
     dance-double:
     Kimchinim:
     Challenge:
     11:
     0.843,0.783,0.354,0.205,1.000:
00000000
00000000
00000000
00011000
,
00100000
00010000
00000000
00000000
00000000
00000000
00000000
00000000
00000000
00000000
00100000
00000000
00001000
00000000
00010000
00000000
,
00000010
00001000
00000000
00000000
00000000
00000000
00000000
00000000
00000000
00000000
00000100
00000000
00010000
00000000
00001000
00000000
,
01000000
00010000
00000000
00000000
00000000
00000000
00000000
00000000
00000000
00000000
01000000
00000000
00001000
00000000
00010000
00000000
,
00000100
00001000
00000000
00000000
00000000
00000000
00000000
00000000
00000000
00000100
00010000
00000000
00001000
00010000
00001000
00010000
,
00200000
00300000
01000000
00010000
10000000
00010000
02000000
03000000
00020000
00030000
00100000
01000000
20000000
30000000
00100000
01000000
,
20000000
30000000
01000000
00100000
01000000
00100000
01000000
00100000
00010000
00001000
00000100
00000010
00001000
00000100
00000020
00000030
,
00000002
00000003
00000010
00000001
00001000
00000001
00000020
00000030
00000200
00000300
00000010
00000100
00002000
00003000
00000010
00000100
,
00002000
00003000
00000000
00000000
00000000
00000000
00000000
00000000
00001000
00010000
00001000
00010000
00100000
01000000
00010000
00100000
,
01000000
00000000
00000000
01000000
10000000
00000000
00000000
10000000
00100000
00000000
01000000
00000000
00010000
00000000
00000000
00010000
,
00100000
00000000
00000000
00100000
00001000
00000000
00000000
00001000
00000100
00000000
00000100
00000010
00001000
00000000
00000002
00000000
,
00000013
00000000
00000110
00000000
00000100
00001000
00000100
00010000
00001000
00100000
00010000
01000000
00010000
00100000
00001000
01000000
,
00010000
00000000
00010000
10000000
01000000
00000000
20000000
00000000
00000000
00000000
00020000
00000000
30030000
00000000
00000000
00000000
,
01010000
00000000
00000000
00101000
00000000
00000000
00010010
00000000
00001100
00000000
00000000
00000000
00001000
00000000
00000000
00001000
,
00000100
00000000
00000000
00000100
00000010
00000000
00000001
00000000
00000100
00000000
00000000
00000100
00001000
00000000
00000000
00001000
,
00010000
00000000
00010000
00100000
01000000
00010000
00100000
01000000
10000000
00100000
01000000
00010000
10000000
00000000
00000000
10000000
,
01000000
00000000
00000000
01000000
00100000
00000000
00010000
00000000
01000000
00000000
00000000
01000000
00100000
00000000
00000000
00100000
,
00010000
00000000
00011000
00000000
00001000
00000100
00000010
00001000
00000100
00001000
00000010
00000100
00000001
00000000
00000000
00000001
,
00000010
00000000
00000000
00000010
00000100
00000000
00001000
00000000
00000010
00000000
00000000
00000010
00001000
00000000
00000000
00001000
,
00100000
00000000
00000000
00100000
01000000
00000000
00010000
00100000
01000000
00000000
00000000
01000000
10000000
00000000
00000000
10000000
,
00010000
00000000
01010000
00000000
00010000
01000000
00001000
00010000
00000000
00010000
00001000
00000000
00010000
00000100
00001000
00000010
,
00010000
00000100
00001000
00000001
00000000
00000000
00000110
00000000
00001001
00000000
00000000
00000000
00000001
00000001
00000100
00000010
,
00001000
00000100
00010000
00010000
00001000
00100000
00100000
00010000
01000000
00100000
00010000
00100000
01000000
01000000
00100000
10000000
,
01000000
00000000
00100000
00000000
00010000
00000000
00010000
00000000
01000000
00000000
00100000
00000000
00100000
00000000
10000000
00000000
00010000
00000000
10000000
00010000
10000000
00000000
00010000
00000000
10000000
00000000
10000000
00000000
00100000
00000000
01000000
00000000
,
10000000
01000000
00100000
00100000
01000000
00010000
00010000
00100000
00001000
00010000
00000100
00001000
00000010
00000010
00000100
00000010
,
00001000
00000100
00010000
00010000
00001000
00000100
00000010
00001000
00000100
00000010
00000002
00000003
00000100
00000100
00000010
00001000
,
00000100
00000010
00000100
00000100
00000010
00000001
00000001
00000100
00001000
00010000
00100000
01000000
00010000
00010000
00100000
01000000
,
10000000
00000000
00100000
00000000
01000000
00000000
01000000
00000000
00100000
00000000
10000000
00000000
10000000
00000000
01000000
00000000
00100000
00000000
00010000
00100000
00010000
00000000
00100000
00000000
00001000
00000000
00001000
00000000
00010000
00000000
00100000
00000000
,
01000000
00010000
00100000
00100000
00001000
00010000
00010000
00001000
00000100
00000010
00001000
00000100
00000010
00000010
00000100
00000010
,
00000001
00000100
00000010
00000010
00001000
00000100
00010000
01000000
10000000
00010000
02000000
03000000
00010000
00100000
00010000
01000000
,
00010000
00100000
00001000
00000100
00000010
00000000
00000110
00000000
00001000
00000000
00001001
00000000
00001000
00000100
00001000
00000010
,
00001000
00000100
00010000
00001000
00100000
00000000
00110000
00000000
10000000
00000000
10100000
00000000
10010000
00000000
00010000
01000000
,
00010000
00000000
10000000
00000000
00010000
00010000
01000000
00100000
00010000
00010000
00001000
00000100
00000020
00000030
00001000
00000100
,
00000010
00000000
00000011
00000000
00000001
00000100
00000010
00001000
00000100
00000010
00000001
00000000
00001001
00000000
00001000
00000100
,
00001000
00000000
00000001
00000000
00001000
00000100
00001000
00000100
00001000
00000100
00001000
00000100
00010000
01000000
10000000
00000000
,
11000000
00000000
01000000
10000000
00010000
01000000
00010000
01000000
00010000
01000000
00010000
01000000
00002000
00003000
00000100
00000010
,
00001000
00000000
00001100
00000000
00001000
00001000
00000100
00010000
00001000
00001000
01000000
00010000
20000000
30000000
00010000
01000000
,
00010000
00000000
01010000
00000000
00010000
01000000
00100000
00010000
00001000
00000100
00000010
00001000
00000001
00000000
00000101
00000000
,
00001000
00000010
00000100
00000010
00001000
00000000
00000010
00000000
00001001
00000000
00000000
00000000
00010000
00000000
00011000
00000000
,
00100000
00010000
01000000
00010000
00100000
00000000
00001000
00000000
01010000
00000000
00000000
00000000
01000000
01000000
00100000
10000000
,
01000000
10000000
00100000
01000000
00020000
00000000
00030000
00100000
01000000
00000000
00100000
00001000
00010000
00001000
00000100
00000010
,
00001000
00000100
00010000
00001000
00010000
00100000
01000000
00010000
00100000
00001000
00000100
00000010
00001000
00000000
00001100
00000000
,
00000001
00000000
00000101
00000000
00001000
00000100
00001000
00000001
00000100
00000001
00001000
00000000
00000010
00000000
00000110
00000000
,
00001000
00000100
00010000
00001000
01000000
00010000
00100000
01000000
00200000
00000000
00300000
00000000
00010000
00100000
00010000
01000000
,
00100000
00010000
00100000
01000000
00010000
10000000
01000000
00000000
11000000
00000000
01000000
10000000
00010000
00010000
01000000
00001000
,
00010000
00010000
00000100
00001000
00000001
00000100
00000001
00001000
00000100
00001000
00000001
00000000
00001001
00000000
00000100
00000000
,
00001001
00000000
00000100
00000001
00000010
00000001
00000100
00000000
00001001
00000000
00000100
00000000
00011000
00000000
00000100
00000000
,
00011000
00000000
00100000
00010000
01000000
00010000
00100000
00000000
00010000
10000000
00000000
00000000
10010000
00000000
01000000
00000000
,
10010000
00000000
00100000
01000000
00010000
01000000
00100000
00000000
10010000
00000000
01000000
00000000
00011000
00000000
00100000
00000000
,
00011000
00000000
00000010
00000000
00010000
00001000
00010000
00000010
00001000
00000010
00010000
00001000
00000100
00000010
00000000
00000010
,
00001000
00000000
00001000
00000100
00000000
00000100
00010000
00000000
00010000
01000000
10000000
00010000
00200000
00000000
00300000
00000000
;

//---------------dance-single - Kimchinim----------------
#NOTES:
     dance-single:
     Kimchinim:
     Medium:
     6:
     0.334,0.308,0.112,0.019,0.033:
0000
0000
0000
0000
,
1100
0000
0000
0000
,
0101
0000
0000
0000
,
0011
0000
0000
0000
,
1010
0000
0000
0000
0000
0001
1000
0001
,
1000
0000
1000
0010
1000
0000
0100
0000
,
0010
0000
0001
0100
0001
0100
0001
0000
,
1000
0000
0001
0100
0001
0000
0010
0000
,
0100
0000
0000
0000
0010
0100
0010
0000
,
0001
0000
1000
0000
0010
1000
0100
0000
,
1000
0000
0001
0000
0010
0001
0100
0000
,
0001
0001
1000
1000
,
1001
0110
0000
0000
,
1000
0000
0000
0001
0000
0000
1000
0000
0110
0000
0000
0000
0001
0000
0000
0000
,
1000
0000
0100
1000
0010
0000
1000
0000
,
0001
0000
0100
0001
0010
0000
0001
0000
,
1000
0000
0010
0100
1000
0000
0100
0000
,
0010
0110
1001
1000
,
0100
0000
1000
0010
0100
0000
0001
0000
,
0010
0000
0001
0100
0010
0000
1000
0100
,
0001
0000
0001
0100
1000
0000
0001
0100
,
0001
0100
0000
0000
1001
0000
1000
0010
,
1000
0000
0001
0010
0001
0000
1000
0000
,
0100
0000
0010
0001
1000
0000
0001
0010
,
0001
0000
1000
0010
1000
0000
0001
0000
,
0100
0000
0010
0010
1000
0001
0100
0000
,
0100
0000
0010
1000
0100
0000
0010
0000
,
0010
0000
0001
0100
0010
0000
1000
0000
,
0001
0000
0100
0010
1000
0001
0200
0000
,
1000
0000
0301
0000
1001
0000
1000
0100
,
0001
0000
0100
0100
0100
0000
1000
0010
,
0001
0000
0010
0100
0010
0100
0001
0000
,
0001
0000
0100
0010
1000
0000
0001
0000
,
0010
0100
1000
0010
0100
0000
0001
0000
,
1000
0000
0001
0100
0001
0000
1000
0000
,
0001
0000
1000
0100
1000
0000
0001
0000
,
1000
0010
0001
0010
,
1000
0100
0010
0001
,
0000
0000
0001
0100
0001
0000
1000
0000
,
0000
0000
1000
0100
1000
0000
0001
0000
,
0000
0000
0000
0000
0001
0000
0010
0000
0001
0000
0000
0000
1000
0000
0000
0100
,
0000
0000
0010
0000
0000
0001
0000
0000
0100
0000
0010
0000
1000
0000
0000
0000
,
1000
0000
0100
1000
0010
0000
0100
0000
,
0010
1000
0100
1000
0010
0000
1000
0000
,
1000
0000
0000
0000
0001
0000
0000
0000
0001
0000
0000
0000
0010
0000
0000
0001
,
0000
0000
0100
0000
0000
0010
0000
0000
1000
0000
0100
0000
0010
0000
0000
0000
,
0010
0000
0001
0100
0001
0000
1000
0000
,
0010
0100
1001
0010
,
0100
0000
0001
0010
0100
1000
0002
0000
,
0100
0000
0000
0000
1000
0000
0000
0000
0103
0000
0000
0000
1000
0000
0000
0010
,
0000
0000
0100
0000
0000
0001
0000
0000
1000
0000
0100
0000
0010
0000
0000
0000
;

//---------------dance-single - Kimchinim----------------
#NOTES:
     dance-single:
     Kimchinim:
     Easy:
     3:
     0.221,0.237,0.065,0.009,0.014:
0000
0000
0000
0000
,
1000
0000
0000
0000
,
0001
0000
0000
0000
,
0100
0000
0000
0000
,
0001
0000
0000
0000
,
1000
0100
1000
0000
,
0001
0100
0001
0000
,
1000
0010
0001
0010
,
1000
0000
0000
0000
0100
0010
0100
0000
,
1000
0000
1000
0001
,
0100
0000
0001
1000
,
0100
0100
0010
0010
,
0001
1001
0000
0000
,
0001
0000
0000
1000
0000
0000
0001
0000
0100
0000
0000
0000
0001
0000
0000
0000
,
0010
0001
0000
1000
,
0010
1000
0000
0001
,
1000
0100
0000
0100
,
0010
0001
0000
1000
,
0010
1000
0000
0001
,
0010
0001
0000
1000
,
0010
0001
0010
1000
,
0001
1000
0000
0001
,
0000
0001
0100
1000
,
0000
1000
0100
0001
,
0000
0001
0010
1000
,
0000
1000
0010
0001
,
0000
0001
0100
1000
,
0000
1000
0100
0001
,
1000
0010
0100
0001
,
0000
0100
1001
0001
,
0100
0010
0110
1000
,
0010
0100
0110
0001
,
0000
1000
0000
0010
,
0010
0100
0001
1000
,
0100
0001
0000
0001
,
0100
1000
0000
1000
,
0010
0100
0010
1000
,
0010
0100
0000
0001
,
0000
0001
1001
0100
,
0000
1000
1001
0100
,
0010
1000
0000
0010
,
0100
0001
1000
0001
,
0100
0001
1000
0100
,
0100
1000
0001
1000
,
0100
0010
0000
0010
,
0001
0100
0010
1000
,
0100
1000
0010
0100
,
0100
0010
1000
0001
,
0010
0100
1000
0002
,
0000
0000
0000
0000
0000
0000
0000
0000
0003
0000
0000
0000
1000
0000
0000
0100
,
0000
0000
1000
0000
0000
0001
0000
0000
0100
0000
0000
0000
1010
0000
0000
0000
;

//---------------dance-single - Kimchinim----------------
#NOTES:
     dance-single:
     Kimchinim:
     Beginner:
     1:
     0.103,0.118,0.037,0.028,0.000:
0000
0000
0000
0000
,
0000
0000
0000
0000
,
0000
0000
0000
0000
,
0000
0000
0000
0000
,
0000
0000
0000
0000
,
0001
0000
0001
0000
,
0010
0000
0000
0000
,
1000
0000
1000
0000
,
0010
0000
0000
0000
,
1000
0000
0000
0000
,
0100
0000
0000
0000
,
0001
0000
0000
0000
,
0100
0000
0000
0000
,
1000
0000
1001
0001
,
0000
0000
0000
0010
,
0000
0000
0000
1000
,
0000
0000
0000
0100
,
0000
0000
0000
0001
,
0000
0000
0000
1000
,
0000
0000
0000
0100
,
0000
0000
0000
0010
,
0010
0000
0000
0010
,
0000
0001
0000
0100
,
0000
0000
0000
0010
,
0000
1000
0000
0100
,
0000
0000
0000
1000
,
0000
0001
0000
0100
,
0000
0000
0000
0001
,
0000
1000
0000
0100
,
0000
0000
0000
1000
,
0000
0100
0100
0000
,
0000
0100
0100
0000
,
0000
0001
0000
1000
,
0000
0001
0000
0200
,
0000
0000
0000
0320
,
0000
0000
0000
1030
,
0000
0001
0000
1000
,
0000
0000
0000
1100
,
0000
0000
0000
0101
,
0000
0000
0000
1000
,
0000
0001
0000
1000
,
0000
0001
0000
0010
,
0000
0010
0000
0100
,
0000
0100
0000
0010
,
0000
0100
0000
1000
,
0000
0001
0000
1000
,
0000
0100
0000
1000
,
0000
0010
0000
1000
,
0000
0001
0000
0200
,
0000
0000
0300
0001
,
0000
1000
0000
0110
;

//---------------dance-double - Kimchinim----------------
#NOTES:
     dance-double:
     Kimchinim:
     Hard:
     10:
     0.574,0.499,0.354,0.103,0.289:
00000000
00000000
00000000
00000110
,
00001001
00000001
00000010
00000100
00000010
00000001
00001000
00000100
,
00001100
00000100
00010000
00001000
00010000
01000000
00100000
00010000
,
00110000
00010000
00100000
00010000
01000000
00100000
10000000
01000000
,
01100000
00000000
00000000
00000000
00000000
00000000
00000000
00000000
00000000
10000000
00100000
00000000
10000000
00010000
10000000
00010000
,
10000000
00000000
00000000
10000000
01000000
00000000
00000000
01000000
00010000
00000000
00001000
00000000
00000010
00000000
00000000
00000010
,
00000001
00000000
00000000
00000001
00000100
00000000
00000000
00000100
00001000
00000000
00010000
00000000
00100000
00000000
01000000
00000000
,
00010000
00000000
00000000
00010000
00100000
00000000
00000000
00100000
00001000
00000000
00000100
00000000
00000010
00000000
00001000
00000000
,
00001001
00000000
00000000
00000000
00000000
00000000
00000000
00000000
00000001
00000100
00000001
00000100
00000001
00000000
00001000
00000000
,
00000200
00000300
00001100
00000100
00010000
00001000
00100000
00010000
,
01000000
10000000
01000000
00000000
01000000
00010000
01000000
00000000
,
00010000
10000000
00100000
00100000
01000000
01000000
00010000
10000000
,
01000000
02200000
00000000
03300000
,
00110000
00000000
00000000
00011000
00000000
00000000
00001100
00000000
00001001
00000000
00000000
00000000
00000001
00000000
00000100
00000000
,
00001000
00000100
00000001
00000000
00001000
00000100
00010000
01000000
,
10000000
00000000
00010000
01000000
00010000
00000000
10000000
00100000
,
01000000
00100000
00010000
00100000
01000000
00010000
00100000
00010000
,
01000000
00000000
00001000
00010000
00000100
00000000
00001000
00000100
,
00000010
00000001
00000200
00000300
00000110
00000010
00001000
00000001
,
00000010
00000000
00000100
00000000
00001000
00000000
00000100
00001000
00000100
00000000
00000000
00000000
00010000
00000000
00001000
00000000
,
01000000
00000000
00000000
00000000
00001000
00000000
00010000
00000000
00000100
00000000
00000000
00000000
00010000
00001000
00010000
00001000
,
00010000
00000000
00001000
00010000
00000000
00000000
00000000
00000000
00011000
00000000
00000000
00000000
00010000
01000000
00000000
00000000
,
00010000
00000000
10000000
01000000
00000000
10000000
00100000
00000000
01000000
00000000
00000000
00000000
00010000
00100000
00000000
00000000
,
00001000
00000000
00000100
00000010
00000000
00001000
00000001
00000000
00000100
00000010
00001000
00000000
00000001
00000010
00000000
00000000
,
00000100
00000000
00001000
00000010
00000000
00001000
00000100
00000000
00001000
00000000
00000000
00000000
00000100
00010000
00000000
00000000
,
00001000
00000000
00100000
00010000
00000000
00100000
01000000
10000000
00100000
00000000
00100000
00000000
01000000
00010000
00000000
00000000
,
10000000
00000000
00010000
01000000
00000000
00010000
00100000
00000000
00001000
00000000
00000000
00000000
00000100
00000010
00000000
00000000
,
00001000
00000000
00000100
00000010
00000000
00000100
00001000
00000000
00000001
00000000
00001000
00000000
00000001
00000100
00000000
00000000
,
00000001
00000000
00001000
00000100
00000000
00010000
00001000
00000000
01000000
00000000
00010000
00000000
10000000
00100000
00000000
00000000
,
10100000
00000000
00100000
01000000
00000000
00010000
00100000
01000000
10000000
00000000
00100000
00000000
01000000
00010000
01000000
00000000
,
00010000
01000000
00010000
00000000
00100000
00000000
00100000
00000000
00001000
00000000
00001000
00000000
00010000
00000000
00000100
00000000
,
00001000
00000010
00001000
00000000
00000001
00000000
00000001
00000000
00001000
00000000
00001000
00000000
00001001
00000000
00000000
00000001
,
00000100
00000000
00000000
00000100
00000010
00000000
00001000
00000000
00000100
00000000
00000000
00000100
00001000
00000000
00000000
00001000
,
00010000
00000000
00000000
00010000
00100000
00000000
01000000
00000000
10000000
00000000
00100000
00000000
01000000
00000000
00000000
01000000
,
00010000
00000000
10000000
00000000
00100000
00000000
00100000
00000000
00100000
00000000
00100000
00000000
00010000
00001000
00010000
00000000
,
00001000
00000100
00000001
00000001
00000001
00000001
00002000
00003000
,
00001100
00001000
00000001
00000001
00001000
00001000
00000200
00000300
,
00000110
00000100
00001000
00010000
00100000
01000000
10000000
10000000
,
00100000
01000000
00010000
00100000
10010000
00000000
00001000
00010000
,
00000100
00001000
00000010
00000100
00001001
00000000
00001000
00000100
,
00010000
00000000
00001000
00000000
00200000
00000000
00300000
00000000
01010000
00000000
00000000
00000000
01010000
00000000
00000000
00110000
,
00000000
00000000
00101000
00000000
00000000
00011000
00000000
00000000
00010100
00000000
00001010
00000000
00001001
00000000
00000001
00000000
,
00000010
00000001
00000100
00000010
00001000
00001000
00000100
00010000
,
01000000
10000000
00010000
01000000
00100000
00100000
00010000
00100000
,
01000000
00100000
10000000
01000000
00100000
00100000
00010000
00100000
,
00001000
00000000
00010000
00000000
00000100
00001000
00000001
00000000
00000100
00000001
00001000
00000000
00001001
00000000
00000001
00000000
,
00000010
00000001
00000100
00000010
00001000
00000100
00011000
00100000
,
00010000
01000000
00100000
10000000
01000000
00100000
10010000
00100000
,
01000000
10000000
00100000
01000000
00010000
00200000
02000000
00000000
,
00000000
00000000
03300000
00000000
00100000
00010000
00100000
00000000
00001000
00010000
00000100
00000000
00001100
00000000
00000000
00000110
,
00000000
00000000
00000011
00000000
00000000
00000110
00000000
00000000
00001100
00000000
00011000
00000000
02020000
00000000
00000000
00000000
,
03030000
00000000
00000000
00000000
;

//---------------dance-double - Kimchinim----------------
#NOTES:
     dance-double:
     Kimchinim:
     Medium:
     7:
     0.314,0.308,0.121,0.028,0.023:
00000000
00000000
00000000
00000000
,
00101000
00000000
00000000
00000000
,
00010010
00000000
00000000
00000000
,
01001000
00000000
00000000
00000000
,
00010100
00000000
00000000
00000000
00000000
00010000
00001000
00010000
,
00001000
00000000
00010000
00000000
00001000
00100000
01000000
00000000
,
00100000
00000000
00010000
00000000
01000000
00100000
10000000
00000000
,
00010000
00000000
10000000
00000000
00100000
01000000
00010000
00000000
,
00110000
00000000
00000000
00000000
00001000
00000100
00001000
00000000
,
00000010
00000000
00000100
00000000
00000001
00000010
00000001
00000000
,
00000100
00000000
00000010
00000000
00001000
00000100
00001000
00000000
,
00000010
00000010
00000100
00000100
,
00000001
00001001
00000000
00000000
,
00000100
00000000
00000000
00010000
00000000
00000000
00001000
00000000
01000000
00000000
00000000
00000000
00010000
00000000
00000000
00000000
,
10000000
00000000
00010000
01000000
00100000
00000000
10000000
00000000
,
00010000
00000000
10000000
00100000
01000000
00000000
00001000
00000000
,
00010000
00000000
00000100
00001000
00000010
00000000
00001000
00000000
,
00001000
00000100
00000100
00001000
,
00000001
00000000
00000010
00000100
00001000
00000000
00000001
00000000
,
00001000
00000000
00000010
00000100
00000001
00000000
00000010
00000000
,
00000010
00000000
00000100
00000000
00000100
00000000
00001000
00000100
,
00010000
00001000
00000000
00000000
00011000
00000000
00010000
00000000
,
00100000
00000000
01000000
00010000
01000000
00000000
00100000
00000000
,
10000000
00000000
01000000
00100000
01000000
00000000
10000000
00000000
,
01000000
00100000
00010000
01000000
,
00100000
00000000
10000000
00010000
10000000
00010000
10000000
00000000
,
01000000
00000000
00100000
00010000
00100000
00000000
00001000
00000000
,
00010000
00000000
00000010
00001000
00000010
00000000
00001000
00000000
,
00000100
00000000
00001000
00000010
00001000
00000000
00000001
00000000
,
00000100
00000000
00000010
00000000
00001010
00000000
00001000
00000100
,
00010000
00000000
00011000
00000000
00011000
00000000
00010000
00001000
,
01000000
01001000
01010000
00010000
,
10000000
00000000
00100000
00100000
00100000
00000000
10000000
00000000
,
00010000
00000000
01000000
01000000
01000000
00000000
00100000
00000000
,
00010000
00001000
00000200
00000000
00000000
00000000
00000310
00000000
,
00000100
00001000
00020000
00000000
00000000
00000000
00130000
00000000
,
01000000
00000000
00010000
00100000
01000000
00000000
00100000
00000000
,
00001000
00010000
00000010
00001000
,
00001000
00000000
00000100
00001000
00000001
00000000
00000010
00000000
,
00000010
00000000
00000001
00001000
00000100
00000000
00010000
00000000
,
01000000
00000000
00000000
00000000
10000000
00000000
00010000
00000000
01000000
00000000
00000000
00000000
00100000
00000000
00000000
00010000
,
00000000
00000000
00001000
00000000
00000000
00000100
00000000
00000000
00000010
00000000
00000001
00000000
00000100
00000000
00000000
00000000
,
00000100
00000010
00001000
00000100
,
00000100
00000000
00010000
00001000
00010000
00000000
00001000
00000000
,
00100000
00010000
00010000
01000000
,
00100000
00000000
10000000
01000000
00100000
00000000
00110000
00000000
,
00000000
00000000
00010000
01000000
00010000
00000000
00100000
00000000
,
00001000
00000100
00000010
00001000
,
00000000
00000000
00000100
00010000
00001000
01000000
00020000
00000000
,
00000000
00000000
00000000
00000000
00000000
00000000
00000000
00000000
00030000
00000000
00000000
00000000
01000000
00000000
00000000
00010000
,
00000000
00000000
01000000
00000000
00000000
00001000
00000000
00000000
00010000
00000000
00000100
00000000
00000010
00000000
00000000
00000000
;

//---------------dance-double - Kimchinim----------------
#NOTES:
     dance-double:
     Kimchinim:
     Easy:
     4:
     0.237,0.284,0.093,0.019,0.014:
00000000
00000000
00000000
00000000
,
00110000
00000000
00000000
00000000
,
00011000
00000000
00000000
00000000
,
00001010
00000000
00000000
00000000
,
00011000
00000000
00000000
00000000
,
00010000
00010000
00000100
00010000
,
00001000
00001000
01000000
00001000
,
00010000
00010000
00000010
00010000
,
00001000
00000000
00000000
00000000
00001000
00010000
00001000
00000000
,
00010000
00010000
00100000
00000000
,
10000000
10000000
00100000
00000000
,
10000000
01000000
00010000
00001000
,
00000100
00000001
00000000
00000000
,
00001000
00000000
00000000
00000001
00000000
00000000
00001000
00000000
00000100
00000000
00000000
00000000
00001000
00000000
00000000
00000000
,
00000100
00000001
00000000
00000001
,
00000100
00001000
00000000
00000100
,
00000010
00000001
00000100
00000010
,
00000010
00000010
00000000
00000100
,
00001000
00000100
00000000
00100000
,
00010000
00100000
00000000
00001000
,
00010000
00000000
00001000
00000000
00000000
00000000
00010000
00001000
,
00010000
00001000
00000000
00000000
00000000
00000000
00001000
00000000
,
00010000
00100000
00000000
01000000
,
00010000
00100000
00000000
01000000
,
10000000
00100000
00100000
01000000
,
00010000
10000000
00000000
00100000
,
00010000
00001000
00000000
00100000
,
00010000
01000000
00000000
00001000
,
00010000
00000100
00001000
00000010
,
00000100
00000001
00000000
00001000
,
00000010
00001010
00001010
00001000
,
00000100
00001100
00001100
00010000
,
00000000
00001000
00000000
00010000
,
00001000
01000000
00000000
00010000
,
00100000
00001000
00000000
00010000
,
00000010
00001000
00000000
00000100
,
00010000
00001000
01000000
00010000
,
00010000
10010000
00000000
10000000
,
01000000
00010000
00010000
00001000
,
00000100
00000001
00000001
00000010
,
00000100
00001000
00000010
00000100
,
00001000
00010000
00100000
01000000
,
00010000
00100000
00010000
01000000
,
00000000
00010000
00010000
00100000
,
00001000
00000100
00000010
00001000
,
00000100
00000000
00010000
00001000
00010000
00000000
00000100
00000000
,
00010000
00001000
01000000
00010000
,
00010000
00100000
00001000
00010000
,
00100000
01000000
00010000
20020000
,
00000000
00000000
00000000
00000000
00000000
00000000
00000000
00000000
30030000
00000000
00000000
00000000
10000000
00000000
00000000
01000000
,
00000000
00000000
10000000
00000000
00010000
00000000
00000000
01000000
00000000
00000000
00010000
00000000
00100000
00000000
00000000
00000000
;
