#TITLE:Kiss Kiss;
#ARTIST:Chris Brown feat. T-Pain;
#GENRE:R&B;
#MUSIC:Kiss Kiss.ogg;
#BANNER:Kiss Kiss.png;
#BACKGROUND:Kiss Kiss-bg.png;
#SAMPLESTART:69.720;
#SAMPLELENGTH:15;
#OFFSET:-0.058;
#BPMS:0=139.962;
#DISPLAYBPM:139;
#BGSTAGE:4;

//--------------- dance-single - XLev450X-bSP ----------------
#NOTES:
     dance-single:
     XLev450X:
     Beginner:
     2:
     0,0,0,0,0:
0000
0000
0000
0000
,
0000
0000
0000
0000
,
0000
0000
0000
0000
,
0000
0000
0000
0000
,
0000
0000
0000
0000
,
0000
0000
0000
0000
,
0000
0000
0000
0000
,
0000
0000
0000
0000
,
0000
0000
0000
0000
,
0001
0000
0000
0000
,
1000
0000
0000
0000
,
0001
0000
1000
0000
,
0001
0000
0000
0000
,
0010
0000
0000
0000
,
0100
0000
0000
0000
,
0010
0000
0100
0000
,
0010
0000
0000
0000
,
1001
0000
0000
0000
,
0000
0000
0000
0000
,
0001
0000
0001
0000
,
0001
0000
0000
0000
,
1000
0000
1000
0000
,
1000
0000
0000
0000
,
0100
0000
0100
0000
,
0100
0000
0000
0000
,
0010
0000
0001
0000
,
0010
0000
0000
0000
,
0100
0000
1000
0000
,
0100
0000
0000
0000
,
0001
0001
0000
0000
,
1000
1000
0000
0000
,
1001
0000
0000
0000
,
0000
0000
0000
0000
,
0001
0000
0000
0000
,
1000
0000
0000
0000
,
0010
0000
0000
0000
,
0100
0000
0000
0000
,
0001
0000
0000
0000
,
1000
0000
0000
0000
,
0100
0000
0000
0000
,
0010
0000
0000
0000
,
0001
0000
0000
0000
,
1000
0000
0000
0000
,
0010
0000
0000
0000
,
0100
0000
0000
0000
,
1000
0000
0000
0000
,
0001
0000
0000
0000
,
1001
0000
0000
0000
,
0000
0000
0000
0000
,
1000
0000
0001
0000
,
1000
0000
0000
0000
,
0010
0000
1000
0000
,
0010
0000
0000
0000
,
0100
0000
0001
0000
,
0100
0000
0000
0000
,
1000
0000
1000
0000
,
1000
0000
0000
0000
,
0001
0000
0010
0000
,
0001
0000
0000
0000
,
0010
0000
0100
0000
,
0010
0000
0000
0000
,
1000
0000
0100
0000
,
1000
0000
0000
0000
,
1001
0000
0000
0000
,
0000
0000
0000
0000
,
0010
0000
0100
0000
,
0010
0000
0000
0000
,
1000
0000
0001
0000
,
1000
0000
0000
0000
;

//--------------- dance-single - XLev450X-BSP ----------------
#NOTES:
     dance-single:
     XLev450X:
     Easy:
     5:
     0,0,0,0,0:
0000
0000
0000
0000
,
0000
0000
0000
0000
,
0000
0000
0000
0000
,
0000
0000
0000
0000
,
0000
0000
0000
0000
,
0000
0000
0000
0000
,
0000
0000
0000
0000
,
0000
0000
0000
0000
,
0000
0000
0000
0000
,
0001
0000
0010
0000
,
1000
0000
0100
0000
,
0001
0000
1000
0000
,
0001
0000
0000
0000
,
0010
0000
1000
0000
,
0100
0000
0001
0000
,
0010
0000
0100
0000
,
1000
0000
0000
0000
,
2002
0000
0000
0000
,
0000
0000
3003
0000
,
1000
0000
0001
0000
,
1000
0000
0010
0000
,
1000
0000
0100
0000
,
0001
0000
0010
0000
,
1000
0000
0001
0000
,
1000
0000
0000
0000
,
1000
0000
0001
0000
,
2002
0000
0000
0000
0000
0000
0000
3003
,
0010
0000
0100
0000
,
0110
0000
0000
0000
,
1000
1000
0001
0001
,
0010
0010
0100
0100
,
1001
0000
0000
0000
,
0001
1000
0001
0000
,
0010
1000
0010
0000
,
0001
0010
0001
0000
,
0100
0010
1000
0001
,
0100
1000
0001
0000
,
0001
0000
1000
0000
,
0010
1000
0100
0001
,
0010
0000
1000
0000
,
0010
0100
1000
0000
,
0001
0010
1000
0100
,
0001
0010
0100
0000
,
0010
1000
0010
1000
,
0100
0001
0010
0000
,
1000
0100
0001
0000
,
0001
1000
0010
1000
,
2002
0000
0000
0000
0000
0000
0000
3003
,
0001
1000
0001
0010
,
0200
0000
0000
0000
0000
0000
0000
0300
,
1000
0010
1000
0100
,
0001
0000
0001
0000
,
1000
0001
1000
0010
,
0100
0000
0010
0000
,
1000
0010
1000
0000
,
0001
0100
0001
1000
,
0001
0000
0000
0000
,
0001
0000
1000
0001
,
2002
0000
0000
3003
0010
0000
0000
0000
,
0100
0000
0010
0100
,
0220
0000
0000
0000
0000
0000
0000
0330
,
0001
0000
1000
0001
,
1000
0000
0010
1000
,
1001
0000
0101
0000
,
0010
1000
0100
0000
,
0010
1000
1100
0000
,
0001
0010
0011
0000
,
0010
0100
0010
0100
,
0220
0330
0000
0000
;

//--------------- dance-single - XLev450X-DSP ----------------
#NOTES:
     dance-single:
     XLev450X:
     Medium:
     8:
     0,0,0,0,0:
0000
0000
0000
0000
,
0000
0000
0000
0000
,
0000
0000
0000
0000
,
0000
0000
0000
0000
,
0000
0000
0000
0000
,
0000
0000
0000
0000
,
0000
0000
0000
0000
,
0000
0000
0000
0000
,
0000
0000
0000
0000
,
0001
1000
0010
0000
,
0100
1000
0100
0001
,
0010
0100
1000
0010
,
1000
0001
1000
0000
0010
1000
0010
0000
,
0100
1000
0001
0000
,
0100
0001
1000
0010
,
0200
0000
0300
0002
0003
2000
0000
3000
,
0010
1000
0100
0001
,
1000
0000
0000
0000
,
0001
0010
0100
1000
,
0001
0100
1000
0010
,
1000
0010
1000
0000
0010
0100
0010
0000
,
0001
0010
0001
0000
,
1000
0001
0100
0000
,
1000
0010
0100
0001
,
2002
0000
0000
0000
0000
0000
0000
3003
,
2002
3003
0010
0000
1000
0000
0100
0000
,
2002
0000
0000
3003
0010
0000
0100
0000
,
2002
3003
0010
0000
0100
0000
0010
0000
,
2002
0000
0000
0000
0000
0000
0000
3003
,
0001
1000
0100
0001
,
0010
1000
0001
0010
,
1000
0000
0000
0100
0000
0000
0001
0000
0200
0000
0000
0000
0000
0000
0300
0000
,
1000
0000
0000
0010
0000
0001
0000
0000
0200
0000
0000
0000
0000
0000
0300
0000
,
0001
1000
0001
0100
,
0010
0010
1000
1000
,
0001
0100
1000
0010
,
0001
0010
0001
0000
1000
0000
0100
0000
,
0010
1000
0100
0000
,
0010
1000
0100
1000
,
0100
1000
0100
0000
0010
0100
0010
0000
,
0001
0000
1000
0000
2002
0000
0000
3003
,
0001
1000
0100
0010
,
0001
0010
0001
0000
0010
0100
0010
0000
,
1000
0100
1000
0100
,
2002
0000
0000
0000
0000
0000
0000
3003
,
0010
1000
0100
0000
,
0001
0010
1000
0001
,
2000
0000
3000
0002
0003
0200
0000
0300
,
0010
1000
0100
0001
,
1000
0000
0001
0010
,
1000
0100
0001
1000
,
0001
1000
0001
0000
0010
1000
0010
0000
,
0100
1000
0001
0000
,
0100
0001
1000
0001
,
0010
1000
0101
0000
,
0010
0000
1000
0000
0001
1000
0001
0000
,
2002
0000
0000
0000
0000
0000
0000
3003
,
0220
0330
1000
0000
0001
0000
0100
0000
,
0220
0000
0000
0330
1000
0000
0001
0000
,
2002
3003
0010
0000
0100
0000
0010
0000
,
0220
0000
0000
0330
0001
0000
1000
0000
,
0001
0000
1000
0100
,
1000
0000
0001
0000
0010
0001
0010
0000
,
1000
0000
0000
0001
0000
0000
0100
0000
0000
0000
0020
0000
0000
0000
0030
0000
,
1000
0000
0000
0001
0000
1000
0000
0000
0200
0000
0000
0000
0000
0000
0300
0000
,
1000
0010
0001
0010
,
0001
0010
0001
0000
1000
0100
1000
0000
,
0001
0010
0100
0010
,
2002
3003
0000
0000
;

//--------------- dance-single - XLev450X-ESP ----------------
#NOTES:
     dance-single:
     XLev450X:
     Hard:
     12:
     0,0,0,0,0:
0000
0000
0000
0000
,
0000
0000
0000
0000
,
0000
0000
0000
0000
,
0000
0000
0000
0000
,
0000
0000
0000
0000
,
0000
0000
0000
0000
,
0000
0000
0000
0000
,
0000
0000
0000
0000
,
0000
0000
0000
0000
,
0001
0100
1000
0001
0010
0100
1000
0001
,
0100
1000
0100
0001
0010
1000
0001
0100
,
0010
0000
1000
0001
0010
1000
0000
0010
,
1000
0000
0000
0001
0000
0000
0100
0000
2000
0000
0000
0000
3000
0000
0001
0000
,
0010
1000
0010
0100
1000
0100
0001
1000
,
0010
0001
1000
0100
1000
0001
0010
1000
,
0001
0000
0100
1000
0000
0001
0000
0100
,
1000
0000
0000
0001
0000
0000
0100
0000
1000
0000
0000
0000
0001
0000
0100
0000
,
1000
0010
1000
0010
1000
0100
0001
1000
,
0000
0002
0003
1000
0100
1000
0001
0020
,
0030
1000
0100
1000
0001
0010
1000
0002
,
0003
0000
0100
0010
0100
0000
1000
0000
0001
0000
1000
0000
0010
0000
0200
0000
,
0300
0000
0001
1000
0010
0000
1000
0000
0001
0000
0100
0000
1000
0000
0200
0000
,
0300
0000
0001
0100
1000
0000
0010
0000
0100
0000
1000
0000
0001
0000
0010
0000
,
1000
0100
1000
0001
0010
1000
0100
0001
,
0010
1000
0000
1000
0001
1000
0001
1000
,
2002
3003
0001
1000
0100
1000
0020
0030
,
2002
0000
3003
0100
0010
0100
1000
0001
,
2002
3003
0001
1000
0100
0010
0002
0003
,
2002
0000
3003
0001
1000
0010
0100
1000
,
0002
0000
0000
0000
0003
0000
1000
0000
0100
0000
0010
0000
0001
0000
0000
1000
,
0000
0000
0000
0010
0100
1000
0001
0000
,
0010
0000
0000
1000
0000
0000
0100
0000
0001
0000
0000
0100
0000
0000
0001
0000
,
1000
0010
0100
1000
0002
1000
1000
1003
,
1000
0010
0001
0010
1000
0001
0100
0001
,
0010
1000
0100
0001
0010
1000
0001
0100
,
1000
0000
0001
0010
0100
1000
0000
0100
,
0010
0000
0000
1000
0000
0000
0001
0000
0100
0000
0000
0000
0000
0000
0001
0000
,
1000
0010
1000
0100
0000
0001
0010
1000
,
0100
0101
1001
1100
,
0010
0000
1000
0100
0000
0001
0000
0010
,
1000
0000
0000
0001
0000
0000
0100
0000
1000
0000
0000
0000
0001
0000
0010
0000
,
1000
0100
1000
0001
0010
1000
0010
1000
,
0100
1000
0001
0010
1000
0010
0100
1000
,
0001
0000
1000
0100
0010
0001
0000
1000
,
0010
0000
0000
0001
0000
0000
1000
0000
0200
0000
0000
0000
0300
0000
0001
0000
,
0010
1000
0001
0100
2002
3003
1000
0010
,
2002
3003
2200
3300
0202
0303
2002
3003
,
0002
0003
1000
0001
0000
0100
0000
1000
,
0010
0000
0000
1000
0000
0000
0100
0000
0001
0000
0000
0000
0001
0000
1000
0000
,
0010
0100
1000
0100
0001
1000
0100
1000
,
0010
1000
0100
1000
0001
0010
1000
0100
,
1000
0001
0010
1000
0100
1000
0001
0010
,
0000
1000
0100
1000
0001
0010
0100
1000
,
0001
0000
1001
0000
0000
0001
0000
1000
,
0010
0000
0100
0000
0000
0020
0130
1000
,
0100
1000
0001
0010
1000
0100
0010
0001
,
2002
0000
0000
0000
0000
0000
0000
3003
,
2002
3003
0100
0001
1000
0100
1000
0000
,
2002
0000
0000
3003
0001
1000
0010
0100
,
2002
0000
0000
3003
0100
1000
0001
0000
,
2002
0000
0000
3003
0001
1000
0010
1000
,
2002
0000
0000
0000
3003
0000
0001
0000
1000
0000
0001
0000
0000
0100
0000
0000
,
0010
0000
0000
0010
0100
1000
0001
0000
,
0010
0000
0000
1000
0000
0000
0100
0010
0001
0000
0100
0000
0000
0010
0000
0000
,
0000
0000
0001
1000
0010
0100
1000
0001
,
1000
0010
0001
0010
1000
0001
0100
0001
,
0010
1000
0100
0001
0010
1000
0001
0100
,
1000
0000
0001
0010
0100
1000
0000
0100
,
0220
0330
0000
0000
;
