#VERSION:0.83;
#TITLE:grande valse brillante;
#SUBTITLE:;
#ARTIST:Z.AL & Cashew;
#TITLETRANSLIT:;
#SUBTITLETRANSLIT:;
#ARTISTTRANSLIT:;
#GENRE:Classical Remix;
#CREDIT:Cashew & Cartoon Network;
#MUSIC:grande valse brillante.ogg;
#BANNER:grande valse brillante.png;
#BACKGROUND:grande valse brillante-bg.png;
#CDTITLE:Cashew.png;
#SAMPLESTART:2.716;
#SAMPLELENGTH:23.704;
#SELECTABLE:YES;
#OFFSET:0.000;
#BPMS:0.000=121.498
,3.000=242.997
;
#STOPS:;
#DISPLAYBPM:242.000;
#TAGS:DMCA;
#JACKET:grande valse brillante-jacket.png;
#BGCHANGES:;
#FGCHANGES:;

//--------------- dance-single - Wrland ----------------
#NOTEDATA:;
#CHARTSTYLE:Pad;
#CREDIT:Wrland;
#STEPSTYPE:dance-single;
#DESCRIPTION:Wrland;
#DIFFICULTY:Beginner;
#METER:1;
#RADARVALUES:0,0,0,0,0;
#NOTES:
0000
0000
0000
0000
,
0000
0000
0000
0000
,
0000
1000
0000
0000
,
0000
0000
0000
0000
,
0000
0000
0000
0000
,
0000
0100
0000
0000
,
0000
0000
0000
0000
,
0000
0000
0000
0000
,
0000
0001
0000
0000
,
0000
0000
0000
0000
,
0000
0000
0000
0000
,
0000
0100
0000
0000
,
0000
0000
0000
0000
,
0000
0000
0000
0000
,
0000
1000
0000
0000
,
0000
0000
0000
0000
,
0000
0000
0000
0000
,
0000
1000
0000
0000
,
0000
0000
0000
0000
,
0000
0000
0000
0000
,
0000
0000
0100
0000
,
0000
0000
0000
0000
,
0000
0000
0000
0000
,
0000
1000
0000
0000
,
0000
0000
0000
0000
,
0000
0000
0000
0000
,
0000
0100
0000
0000
,
0000
0000
0000
0000
,
0000
0000
0000
0000
,
0000
1000
0000
0000
,
0000
0000
0000
0000
,
0000
0000
0000
0000
,
0000
0001
0000
0000
,
0000
0000
0000
0000
,
0000
0000
0000
0000
,
0000
0100
0000
0000
,
0000
0000
0000
0000
,
0000
0000
0000
0000
,
0000
0010
0000
0000
,
0000
0000
0000
0000
,
0000
0000
0000
0000
,
0000
0100
0000
0000
,
0000
0000
0000
0000
,
0000
0000
0000
0000
,
0000
0100
0000
0000
,
0000
0000
0000
0000
,
0000
0000
0000
0000
,
0000
0001
0000
0000
,
0000
0000
0000
0000
,
0000
0000
0000
0000
,
0000
0100
0000
0000
,
0000
0000
0000
0000
,
0000
0000
0000
0000
,
0000
0010
0000
0000
,
0000
0000
0000
0000
,
0000
0000
0000
0000
,
0000
0100
0000
0000
,
0000
0000
0000
0000
,
0000
0000
0000
0000
,
0000
0010
0000
0000
,
0000
0000
0000
0000
,
0000
0000
0000
0000
,
0000
0100
0000
0000
,
0000
0000
0000
0000
,
0000
0000
0000
0000
,
0000
0010
0000
0000
,
0000
0000
0000
0000
,
0000
0000
0000
0000
,
0000
0001
0000
0000
,
0000
0000
0000
0000
,
0000
0000
0000
0000
,
0000
0100
0000
0000
,
0000
0000
0000
0000
,
0000
0000
0000
0000
,
0000
1000
0000
0000
,
0000
0000
0000
0000
,
0000
0000
0000
0000
,
0000
0100
0000
0000
,
0000
0000
0000
0000
,
0000
0000
0000
0000
,
0000
0010
0000
0000
,
0000
0000
0000
0000
,
0000
0000
0000
0000
,
0000
0001
0000
0000
,
0000
0000
0000
0000
,
0000
0000
0000
0000
,
2002
0000
0000
0000
,
0000
0000
3003
1000
,
0000
0000
0000
0000
,
0000
0000
0000
0000
,
0000
0000
0000
0001
,
0000
0000
0000
0000
,
0000
0000
0000
0000
,
0000
0000
0000
1000
,
0000
0000
0000
0000
,
0000
0000
0000
0000
,
0000
0000
0000
0002
,
0000
0000
0000
0000
,
0003
1001
0000
0000
,
0000
0000
0000
0000
,
0000
0000
0000
0000
,
0000
1100
0000
0000
,
0000
0000
0000
0000
,
0000
0000
0000
0000
,
0000
0000
0011
0000
,
0000
0000
0000
0000
,
0000
0000
0000
0000
,
0000
0110
0000
0000
,
0000
0000
0000
0000
,
0000
0000
0000
0000
,
0000
1100
0000
0000
,
0000
0000
0000
1001
,
0000
0000
0000
0000
,
0000
0011
0000
0000
,
0000
0000
0000
1010
,
0000
0000
0000
0000
,
0000
0110
0000
0000
,
0000
0000
0000
0011
,
0000
0000
0000
0000
,
0000
1001
0000
0000
,
0000
0000
0000
0110
,
0000
0000
0000
0110
;

//--------------- dance-single - Wrland ----------------
#NOTEDATA:;
#CHARTSTYLE:Pad;
#CREDIT:Wrland;
#STEPSTYPE:dance-single;
#DESCRIPTION:Wrland;
#DIFFICULTY:Easy;
#METER:4;
#RADARVALUES:0,0,0,0,0;
#NOTES:
0000
0000
0000
0000
,
0000
0000
0000
0000
,
0000
1000
0000
0000
,
0000
0000
0000
1000
,
0000
0000
0000
0000
,
0000
0100
0000
0000
,
0000
0000
0000
0010
,
0000
0000
0000
0000
,
0000
0001
0000
0000
,
0000
0000
0000
1000
,
0000
0000
0000
0000
,
0000
0100
0000
0000
,
0000
0000
0000
0010
,
0000
0000
0000
0000
,
0000
1000
0000
0000
,
0000
0000
0000
0001
,
0000
0000
0000
0000
,
0000
1000
0000
0000
,
0000
0000
0000
1000
,
0000
0000
0000
0000
,
0000
0000
0100
0000
,
0000
0000
0000
0010
,
0000
0000
0000
0000
,
0000
1000
0000
0000
,
0000
0000
0000
0001
,
0000
0000
0000
0000
,
0000
0100
0000
0000
,
0000
0000
0000
0010
,
0000
0000
0000
0000
,
0000
1000
0000
0000
,
0000
0000
0000
0100
,
0000
0000
0000
0000
,
0000
0001
0000
0000
,
0000
0000
0000
0010
,
0000
0000
0000
0000
,
0000
0100
0000
0000
,
0000
0000
0000
1000
,
0000
0000
0000
0000
,
0000
0010
0000
0000
,
0000
0000
0000
0001
,
0000
0000
0000
0000
,
0000
0100
0000
0000
,
0000
0000
0000
0010
,
0000
0000
0000
0000
,
0000
0100
0000
0000
,
0000
0000
0000
1000
,
0000
0000
0000
0000
,
0000
0001
0000
0000
,
0000
0000
0000
0100
,
0000
0000
0000
0000
,
0000
0100
0000
0000
,
0000
0000
0000
1000
,
0000
0000
0000
0000
,
0000
0010
0000
0000
,
0000
0000
0000
0001
,
0000
0000
0000
0000
,
0000
0100
0000
0000
,
0000
0000
0000
0010
,
0000
0000
0000
0000
,
0000
0010
0000
0000
,
0000
0000
0000
0001
,
0000
0000
0000
0000
,
0000
0100
0000
0000
,
0000
0000
0000
1000
,
0000
0000
0000
0000
,
0000
0010
0000
0000
,
0000
0000
0000
0100
,
0000
0000
0000
0000
,
0000
0001
0000
0000
,
0000
0000
0000
0001
,
0000
0000
0000
0000
,
0000
0100
0000
0000
,
0000
0000
0000
0000
,
0000
0000
0000
0000
,
0000
1000
0000
0000
,
0000
0000
0000
0010
,
0000
0000
0000
0000
,
0000
0100
0000
0000
,
0000
0000
0000
0001
,
0000
0000
0000
0000
,
0000
0010
0000
0000
,
0000
0000
0000
1000
,
0000
0000
0000
0000
,
0000
0001
0000
0000
,
0000
0000
0000
0000
,
0000
0000
0000
0000
,
2002
0000
0000
0000
,
0000
0000
3003
1000
,
0000
0000
0000
0000
,
0000
1000
0000
0000
,
0000
0000
0000
0001
,
0000
0000
0000
0000
,
0000
0001
0000
0000
,
0000
0000
0000
1000
,
0000
0000
0000
0000
,
0000
1000
0000
0000
,
0000
0000
0000
0002
,
0000
0000
0000
0000
,
0003
1001
0000
0000
,
0000
0000
0000
1100
,
0000
0000
0000
0000
,
0000
1100
0000
0000
,
0000
0000
0000
0110
,
0000
0000
0000
0000
,
0000
0000
0011
0000
,
0000
0000
0000
0011
,
0000
0000
0000
0000
,
0000
0110
0000
0000
,
0000
0000
0000
1100
,
0000
0000
0000
0000
,
0000
1100
0000
0000
,
0110
0000
0000
1001
,
0000
0000
1100
0000
,
0000
0011
0000
0000
,
0011
0000
0000
1010
,
0000
0000
0110
0000
,
0000
0110
0000
0000
,
1100
0000
0000
0011
,
0000
0000
1001
0000
,
0000
1001
0000
0000
,
1100
0000
0000
0110
,
0000
0000
0011
0110
;

//--------------- dance-single - Wrland ----------------
#NOTEDATA:;
#CHARTSTYLE:Pad;
#CREDIT:Wrland;
#STEPSTYPE:dance-single;
#DESCRIPTION:Wrland;
#DIFFICULTY:Medium;
#METER:8;
#RADARVALUES:0,0,0,0,0;
#NOTES:
0000
0000
0000
0000
,
0000
0000
0000
0000
,
0000
1000
0000
0000
,
1000
0000
0000
1000
,
0000
0000
2002
0000
,
3003
0100
0000
0000
,
0010
0000
0000
0010
,
0000
0000
0001
0000
,
0000
0001
0000
0000
,
0010
0000
0000
1000
,
0000
0000
0220
0000
,
0330
0100
0000
0000
,
0001
0000
0000
0010
,
0000
0000
1000
0000
,
0000
1000
0000
0000
,
0100
0000
0000
0001
,
0000
0000
0220
0000
,
0330
1000
0000
0000
,
0001
0000
0000
1000
,
0000
0000
0100
0000
,
0000
0001
0000
0000
,
1100
0000
0000
0010
,
0000
0000
0220
0000
,
0330
1000
0000
0000
,
0110
0000
0000
0001
,
0000
0000
1001
0000
,
0000
0100
0000
0000
,
0001
0000
0000
0010
,
0000
0000
1000
0000
,
0000
1000
0000
0000
,
0100
0000
0000
0100
,
0000
0000
0010
0000
,
0000
0001
0000
0000
,
0001
0000
0000
0010
,
0000
0000
0100
0000
,
0000
0100
0000
0000
,
0010
0000
0000
1000
,
0000
0000
0100
0000
,
0000
0010
0000
0000
,
0001
0000
0000
0001
,
0000
0000
2002
0000
,
3003
0100
0000
0000
,
1000
0000
0000
0010
,
0000
0000
0100
0000
,
0000
0100
0000
0000
,
0010
0000
0000
1000
,
0000
0000
0001
0000
,
0000
0001
0000
0000
,
0100
0000
0000
0100
,
0000
0000
0010
0000
,
0000
0100
0000
0000
,
0001
0000
0000
1000
,
0000
0000
1000
0000
,
0000
0010
0000
0000
,
0100
0000
0000
0001
,
0000
0000
0010
0000
,
0000
0100
0000
0000
,
0001
0000
0000
0010
,
0000
0000
1000
0000
,
0000
0010
0000
0000
,
0100
0000
0000
0001
,
0000
0000
0010
0000
,
0000
0100
0000
0000
,
0001
0000
0000
1000
,
0000
0000
1000
0000
,
0000
0010
0000
0000
,
0010
0000
0000
0100
,
0000
0000
0001
0000
,
0000
0001
0000
0000
,
0100
0000
0000
0001
,
0000
0000
0010
0000
,
0000
0100
0000
0000
,
0001
0000
0000
0100
,
0000
0000
0010
0000
,
0000
1000
0000
0000
,
1000
0000
0000
0010
,
0000
0000
1000
0000
,
0000
0100
0000
0000
,
0010
0000
0000
0001
,
0000
0000
0001
0000
,
0000
0010
0000
0000
,
0100
0000
0000
1000
,
0000
0000
0010
0000
,
0000
0001
0000
0000
,
0100
0000
0000
0010
,
0000
0100
0010
0000
,
2002
0000
0000
0000
,
0000
0000
3003
1000
,
0000
0000
0001
0000
,
0000
1000
0000
0000
,
0001
0000
0000
0001
,
0000
0000
1000
0000
,
0000
0001
0000
0000
,
1000
0000
0000
1000
,
0000
0000
0001
0000
,
0000
1000
0000
0000
,
0001
0000
0000
0002
,
0000
0000
0000
0000
,
0003
1001
0000
0000
,
0011
0000
0000
1100
,
0000
0000
0022
0000
,
0033
1100
0000
0000
,
0110
0000
0000
0110
,
0000
0000
1100
0000
,
0000
0011
0000
0000
,
1001
0000
0000
1100
,
0000
0000
2002
0000
,
3003
0110
0000
0000
,
1100
0000
0000
1100
,
0000
0000
0011
0000
,
0000
0000
1100
0000
0010
0100
0010
0000
,
0110
0000
0001
1000
0001
0000
1001
0000
,
0100
0100
1000
0000
2200
3300
0100
0001
,
0010
1000
0011
0000
1000
0100
1000
0000
,
0011
0000
0100
0010
0100
0000
1010
0000
,
0001
0010
0001
0000
0110
0000
0100
0010
,
0100
0000
0110
1000
0001
1000
0001
0010
,
1100
0001
0100
1000
0100
1000
0011
0100
,
0010
0001
0010
0100
2002
0000
3003
0100
,
0010
0100
1001
0010
0001
0010
0100
0001
,
1100
0010
0100
0010
0001
1000
0110
1000
,
0100
1000
0100
0010
0011
0000
0220
0000
,
0000
0000
0330
0000
;

//--------------- dance-single - Wrland ----------------
#NOTEDATA:;
#CHARTSTYLE:Pad;
#CREDIT:Wrland;
#STEPSTYPE:dance-single;
#DESCRIPTION:Wrland;
#DIFFICULTY:Hard;
#METER:11;
#RADARVALUES:0,0,0,0,0;
#NOTES:
0000
0000
0000
0000
,
0000
0000
0000
0000
,
0000
1000
0001
1000
,
0100
1000
0100
0010
,
0001
0100
0020
0030
,
0100
0010
0001
0100
,
0010
0100
1000
0100
,
1000
0100
0010
0001
,
1000
0100
1000
0100
,
0010
0100
0010
0001
,
0100
0001
2002
3003
,
0100
1000
0100
0010
,
0001
0100
0010
0100
,
1000
0100
0010
0001
,
0100
0000
0100
0000
0100
0100
0100
0000
,
0010
0000
0010
0010
0010
0000
0001
0000
,
0001
0001
0001
0000
2002
0000
3003
0000
,
1000
0000
0001
0000
1000
0001
0001
0000
,
1000
0000
0001
1000
0001
0000
0010
0000
,
0100
0001
0010
0000
0100
0000
0010
1000
,
0001
0000
0100
0000
0010
1000
0100
0000
,
0100
0000
0010
0100
0010
0000
0001
0000
,
0010
0001
0010
0000
0220
0000
0330
0000
,
1000
0000
0100
0000
1000
0100
1000
0000
,
0100
0000
0010
0100
0010
0000
0001
0000
,
0100
0001
0100
0000
0010
0000
0100
0000
,
1000
0100
1000
0100
,
0010
0001
0100
0002
,
0003
0100
1000
0100
,
1000
2000
3000
0100
,
1000
0100
0010
0001
,
0100
0010
0100
0010
,
0100
0020
0030
0001
,
0100
0010
1000
0200
,
0300
1000
0100
1000
,
0100
0020
0030
0001
,
0100
0010
0100
0010
,
0001
0100
0010
1000
,
0100
1000
0001
0100
,
0010
1000
0100
1000
,
0100
0010
0002
0003
,
0001
0100
0010
0100
,
1000
0100
0010
0001
,
0100
0010
0100
1000
,
0100
0000
1000
0010
0100
0001
1000
0000
,
0100
0001
0010
0100
0001
0000
0010
0001
,
0100
0010
0100
0000
2000
0000
3200
0000
,
1300
0000
0100
0000
1000
0100
1000
0000
,
0100
0000
0010
0100
0010
0000
0001
0000
,
0100
0001
0100
0000
0010
0000
0100
0000
,
1000
0100
0010
0100
,
0010
0001
0100
0020
,
0030
0100
1000
0100
,
1000
0200
0300
1000
,
0100
0010
0001
0100
,
0010
0100
1000
0100
,
0010
0001
0100
0010
,
0100
1000
0100
2000
,
3000
0100
1000
0100
,
0010
0002
0003
0100
,
0010
0001
0100
0010
,
1000
0100
1000
0100
,
0010
0002
0003
1000
,
0100
1000
0100
0020
,
0030
0100
0010
0001
,
0100
0002
0003
0100
,
0010
0100
1000
0100
,
0010
0100
0010
0001
,
0100
0020
0030
0100
,
0010
0001
0100
0020
,
0030
1000
0100
1000
,
0100
0000
0010
0000
0001
1000
0100
0000
,
0010
0000
0100
0001
0010
0000
0001
0000
,
0010
0000
0100
0000
1000
0000
0100
0001
,
1000
0200
0300
1000
,
0100
1000
0100
0020
,
0030
0001
0100
0010
,
0100
0020
0030
0001
,
0100
0010
0100
1000
,
0100
0010
0001
0100
,
0010
0002
0003
0100
,
0001
0100
0010
2000
,
3000
0100
1000
0100
,
0010
0000
0001
0000
0000
0001
1000
0000
,
0100
1000
0100
0010
,
0001
0100
0010
0100
,
0011
0110
1010
0101
,
1100
0110
1001
0110
,
1000
0100
1000
0100
,
0010
1000
0001
0000
0100
0001
0100
0000
,
0010
0100
0010
0000
1000
0100
0010
0000
,
0100
0010
0001
0100
,
0010
0001
1100
0000
1010
0000
0101
0000
,
1010
0101
1010
0011
,
0001
0010
1000
0000
0100
0000
1000
0000
,
0100
0010
0010
0000
1000
0100
0001
0000
,
1000
0100
1000
0000
0110
0000
2002
0000
,
0000
0000
0000
0000
,
3003
0000
0100
0000
0010
1000
0001
0000
,
0100
0000
0010
0001
0100
0000
1000
0000
,
0100
1000
0010
0000
0002
0000
0003
0000
,
0100
0000
0010
0000
0100
0010
0100
0000
,
0001
0000
0100
0001
0100
0000
0010
0000
,
0100
0010
0100
0000
1000
0000
0100
1000
,
0100
0000
0010
0000
0100
0010
0100
0000
,
0001
0000
0100
0001
0100
0000
0010
0000
,
0100
0010
0100
0000
2000
0000
3200
0000
,
0310
0000
0001
0000
0100
0001
0100
0000
,
0010
0000
0100
0010
0100
0000
1000
0000
,
0100
1000
0100
0000
0010
0000
0100
0000
,
0010
0000
1001
0000
0100
0010
0100
0000
,
1100
0000
0010
0001
0010
0000
0100
0000
,
0010
0100
0010
0000
2002
0000
3003
0000
,
0100
0000
1000
0000
0100
1000
0100
0000
,
0101
0000
0010
0001
0100
0000
1010
0000
,
0100
0010
0100
0000
0011
0000
0001
0010
,
0001
0000
0011
1000
0100
0010
0001
0000
,
1001
0100
0010
0100
0010
0000
1100
0010
,
1000
0001
0100
0000
0101
0000
0010
0000
,
0100
0000
0010
0000
0001
0100
1001
0000
,
0010
0000
0100
0010
0101
0000
1000
0000
,
0100
1000
0101
0000
0010
0000
0220
0000
,
0000
0000
0330
0000
;

//--------------- dance-single - Wrland ----------------
#NOTEDATA:;
#CHARTSTYLE:Pad;
#CREDIT:Wrland;
#STEPSTYPE:dance-single;
#DESCRIPTION:Wrland;
#DIFFICULTY:Challenge;
#METER:15;
#RADARVALUES:0,0,0,0,0;
#NOTES:
0000
0000
0000
1000
,
0001
1000
0001
1000
,
0100
0000
1000
0000
0100
0010
0200
0300
,
0001
0000
0100
0001
0200
0300
0010
0000
,
0100
0010
0200
0300
2000
0000
3000
0000
,
0100
0000
1000
0000
0100
1000
0200
0300
,
0010
0000
0100
0010
0200
0300
0001
0000
,
0100
0001
0200
0300
0010
0000
0100
0001
,
1000
0000
0100
0000
1000
0100
2000
3000
,
0100
0000
0100
0010
0200
0300
0001
0000
,
0010
0100
0020
0030
0002
0000
0000
0003
,
0100
1000
0001
0010
0100
0001
0200
0300
,
0010
0000
0100
0010
0200
0300
1000
0000
,
0100
1000
0200
0300
0100
0000
0010
0000
,
0100
0010
1000
0000
0001
0100
0002
0003
,
1100
0000
0010
0100
0020
0030
1100
0000
,
0100
1000
0200
0300
0220
0000
0330
0000
,
0100
0000
0010
0000
0001
0100
0002
0003
,
0011
0000
0100
0010
0200
0300
1001
0000
,
0100
1000
0200
0300
1100
0000
0010
1000
,
0001
0000
0100
0000
0001
0100
0002
0003
,
1100
0000
0010
0100
0020
0030
1001
0000
,
0100
1000
0200
0300
2020
0000
3030
1000
,
0100
0001
0010
1000
0001
0100
0002
0003
,
1010
0001
0100
0010
0200
0300
1001
0010
,
0100
1000
0200
0300
1010
0000
0100
0000
,
0010
0000
0001
0000
0100
0001
0100
0000
,
0010
0000
0100
1000
0100
0000
0010
0000
,
0100
0010
0100
0000
1000
0000
0100
1000
,
0100
0000
0100
0000
0010
0001
0100
0000
,
0010
0000
0100
0010
0100
0000
0001
0000
,
0001
0100
0001
0000
0100
0000
0010
0100
,
0010
0000
1000
0000
0100
1000
0100
0000
,
0010
0000
0100
0010
0100
0000
0001
0000
,
0100
0001
0100
0000
0010
0000
0100
0010
,
0100
0000
1000
0000
0100
1000
0100
0000
,
0100
0000
0010
0100
0010
0000
0001
0000
,
0100
0001
0100
0000
0010
0000
0100
0010
,
0100
0000
0100
0000
1000
0010
0200
0300
,
1000
0000
0100
0010
0200
0300
0001
0000
,
0100
0001
0200
0300
0020
0000
0030
0000
,
0100
0000
1000
0000
0100
1000
0200
0300
,
0010
0000
0100
0010
0200
0300
0010
0000
,
0001
0100
0002
0003
0010
0000
0100
0000
,
0010
0000
0001
0000
0100
0010
0200
0300
,
0010
0000
0100
0010
0200
0300
1000
0000
,
0100
1000
0200
0300
0100
0000
0010
0000
,
0001
0000
0100
0000
0001
0100
0002
0003
,
0010
0000
0100
0010
0200
0300
1000
0000
,
0100
1000
0200
0300
0100
0000
0010
0000
,
0001
0000
0100
0000
0010
0100
0010
0000
,
0001
0000
0100
0001
0100
0000
0010
0000
,
0100
1000
0200
0010
,
0301
0100
0010
0001
,
0100
0010
0100
0010
,
0001
0100
0001
0000
0020
0000
1000
0000
,
0130
0100
1000
0100
,
1000
0100
0010
0001
,
0100
0001
0100
0000
0020
0000
1000
0000
,
1030
0100
1000
0100
,
0010
0001
0100
0010
,
0100
0010
0100
0000
0001
0000
0100
0000
,
0010
2000
3000
0001
,
1000
0100
0010
0002
,
0003
0100
0010
0001
,
0100
0020
0030
0100
,
0010
0100
0010
0001
,
1000
0100
0010
0001
,
0100
0020
0030
0100
,
0010
0001
0100
0020
,
0030
1000
0100
1000
,
0100
0000
0010
0000
0001
1000
0100
0000
,
0001
0000
0100
1000
0020
0000
0030
0000
,
0010
0001
0100
0010
,
0100
2000
3000
0100
,
0010
0001
0100
0002
,
0003
0100
0010
0100
,
1000
0200
0300
1000
,
0100
0010
0001
0100
,
0010
0100
1000
0100
,
0010
0002
0003
0100
,
0010
0001
0100
0020
,
0030
0100
0010
0001
,
0100
0000
0010
0000
0001
1000
0200
0000
,
0300
0000
0010
0001
0100
0000
0010
0000
,
0100
0010
0001
0000
1000
0000
0100
0000
,
1000
0001
1000
0000
0001
1000
0001
0000
,
0100
0010
0100
0000
1000
0100
1000
0000
,
0100
0010
0100
0010
,
0001
0100
0010
0100
,
1000
0100
1000
0100
,
0010
0001
0100
0010
,
0100
0010
0001
0100
,
0010
0100
1000
0100
,
0010
0001
1000
0001
,
1000
0001
0100
0010
,
1000
0000
0100
0000
1000
0000
0100
0001
,
0010
0100
0001
0010
0100
1000
0010
0100
,
0001
0010
1100
0000
0010
0001
0200
0300
,
0011
0000
0100
0010
0200
0300
1001
0000
,
0100
1000
0200
0300
2020
0000
3030
0000
,
0001
0000
0100
0000
0001
0100
0002
0003
,
1010
0000
0100
0010
0200
0300
1001
0000
,
0100
1000
0200
0300
0110
0000
0010
0000
,
0001
0000
0100
0000
0001
0100
0002
0003
,
1010
0000
0100
0010
0200
0300
1001
0000
,
0100
1000
0200
0300
0110
0000
0010
0001
,
0100
1000
0010
1000
0001
0100
0020
0030
,
1010
0000
0100
0010
0200
0300
1001
0000
,
0100
1000
0200
0300
1010
0000
0100
0000
,
0010
0000
1011
0000
0100
0001
0200
0300
,
1011
0000
0100
0010
0200
0300
1011
0000
,
0100
1000
0200
0300
2012
0000
0000
3003
,
0100
0000
1000
0000
0100
1000
0200
0300
,
0111
0000
0010
0100
0020
0030
1110
0000
,
0001
1000
0200
0300
0111
0000
0010
0100
,
0020
0030
1000
0100
1000
0100
0020
0030
,
11M1
0100
0001
0100
2000
3000
M111
0010
,
0100
0010
0200
0300
21M2
0000
0000
3003
,
0100
0010
0100
0001
0010
0100
0010
0100
,
1M11
0100
0010
0001
0001
0010
111M
1000
,
0100
0010
0001
0100
1000
0001
2M12
0000
,
0000
0000
3003
0000
;
