#TITLE:SWEET BROWNIE;
#SUBTITLE:;
#ARTIST:SID-SOUND (MAX & bamani);
#TITLETRANSLIT:;
#SUBTITLETRANSLIT:;
#ARTISTTRANSLIT:;
#GENRE:Happy Electro-Pop;
#CREDIT:INNOCENT;
#MUSIC:SWEET BROWNIE.ogg;
#BANNER:SWEET BROWNIE.png;
#BACKGROUND:SWEET BROWNIE-bg.png;
#CDTITLE:KOREAN MUSIC.png;
#SAMPLESTART:59.570524;
#SAMPLELENGTH:15.000000;
#SELECTABLE:YES;
#OFFSET:0.000000;
#BPMS:0.000000=126.000000
,4.000000=128.000000
;
#STOPS:;
#DISPLAYBPM:128.000000;
#JACKET:SWEET BROWNIE-jacket.png;
#DISCIMAGE:;
#CDIMAGE:;
#BGCHANGES:0.000000=SWEET BROWNIE.mp4=0.000000=0=0=0=StretchNoLoop====,
99999.000000=-nosongbg-=1.000000=0=0=0=StretchNoLoop====
;
#FGCHANGES:;

//--------------- dance-single - Wrland ----------------
#NOTES:
     dance-single:
     Wrland:
     Beginner:
     1:
     0,0,0,0,0:
0000
0000
0000
0000
,
0000
0000
0000
0000
,
0000
0000
0000
0000
,
0000
0000
0000
0000
,
0000
0000
0000
0000
,
1000
0000
0000
0000
,
0000
0000
0000
0000
,
0002
0000
0000
0000
,
1003
0000
0000
0000
,
0001
0000
0000
0001
,
0001
0000
0000
1000
,
1000
0000
0000
0000
,
0002
0000
0000
0003
,
0100
0000
0000
0100
,
0100
0000
0000
0010
,
0010
0000
0000
0000
,
0020
0000
0000
0030
,
0001
0000
0000
0000
,
0000
0000
0000
0000
,
1000
0000
0000
0000
,
0000
0000
0000
0000
,
0001
0000
0000
0000
,
0000
0000
0000
0000
,
1000
0000
0000
0000
,
0000
0000
0000
0000
,
0100
0000
0000
0000
,
0000
0000
0000
0000
,
0010
0000
0000
0000
,
0000
0000
0000
0000
,
0100
0000
0000
0000
,
0000
0000
0000
0000
,
0200
0000
0000
0300
,
0000
0000
0000
0000
,
0110
0000
0000
0000
,
0000
0000
0000
0000
,
0100
0000
0000
0000
,
0000
0000
0000
0000
,
0010
0000
0000
0000
,
0000
0000
0000
0000
,
0010
0000
0000
0000
,
0000
0000
0000
0000
,
0001
0000
0000
0000
,
0000
0000
0000
0000
,
0001
0000
0000
0000
,
0000
0000
0000
0000
,
1000
0000
0000
0000
,
0000
0000
0000
0000
,
2000
0000
0000
0000
,
3001
0000
0000
0000
,
0000
0000
0000
0000
,
0000
0000
0000
0000
,
0000
0000
0000
0000
,
0000
0000
0000
0000
,
0000
0000
0000
0000
,
0000
0000
0000
0000
,
0000
0000
0000
0000
,
0000
0000
0000
0000
,
1000
0000
0000
1000
,
1000
0000
0000
0001
,
0001
0000
0000
0000
,
0002
0000
0000
0003
,
0100
0000
0000
0100
,
0100
0000
0000
0010
,
0010
0000
0000
0000
,
0020
0000
0000
0000
0000
0000
0000
0000
0000
0000
0000
0030
0000
0000
0000
0000
;

//--------------- dance-single - Wrland ----------------
#NOTES:
     dance-single:
     Wrland:
     Easy:
     2:
     0,0,0,0,0:
0000
0000
0000
0000
,
0000
0000
0000
0000
,
0000
0000
0000
0000
,
0000
0000
0000
0000
,
0000
0000
0000
0000
,
1000
0000
0000
0000
,
1000
0000
0000
0000
,
2000
0000
0000
0000
,
3000
0000
0000
0000
,
0001
0000
0000
0000
,
0001
0000
0000
0000
,
1000
0000
0000
0000
,
2000
0000
0000
3000
,
1000
0000
0000
0000
,
0001
0000
0000
0000
,
1000
0000
0000
0000
,
0002
0000
0000
0003
,
0100
0000
0000
0000
,
0010
0000
0000
0000
,
1000
0000
0000
0000
,
0001
0000
0000
0000
,
0100
0000
0000
0000
,
0010
0000
0000
0000
,
2000
0000
0000
3000
,
0002
0000
0000
0003
,
1000
0000
0000
0000
,
0001
0000
0000
0000
,
0100
0000
0000
0000
,
0010
0000
0000
0000
,
0100
0000
0000
0000
,
0001
0000
0000
0000
,
2000
0000
0000
3000
,
0000
0000
0000
0000
,
1001
0000
0000
0000
,
0001
0000
0000
0000
,
0100
0000
0000
0000
,
0010
0000
0000
0000
,
0100
0000
0000
0000
,
0010
0000
0000
0000
,
1000
0000
0000
0000
,
0002
0000
0000
0003
,
1000
0000
0000
0000
,
0001
0000
0000
0000
,
1000
0000
0000
0000
,
0001
0000
0000
0000
,
0100
0000
0000
0000
,
0010
0000
0000
0000
,
0200
0000
0000
0300
,
0010
0000
0000
0000
,
0000
0000
0000
0000
,
0000
0000
0000
0000
,
0000
0000
0000
0000
,
0000
0000
0000
0000
,
0000
0000
0000
0000
,
0000
0000
0000
0000
,
0000
0000
0000
0000
,
0000
0000
0000
0000
,
1000
0000
0000
0000
,
1000
0000
0000
0000
,
1000
0000
0000
0000
,
2000
0000
0000
3000
,
0001
0000
0000
0000
,
0001
0000
0000
0000
,
0001
0000
0000
0000
,
0002
0000
0000
0003
;

//--------------- dance-single - Wrland ----------------
#NOTES:
     dance-single:
     Wrland:
     Medium:
     4:
     0,0,0,0,0:
0000
0000
0000
0000
,
0000
0000
0000
0000
,
0000
0000
0000
0000
,
0000
0000
0000
0000
,
0000
0000
0000
0000
,
1000
0000
0001
0000
,
0010
0000
0100
0000
,
0020
0000
0000
0000
0000
0030
0000
0010
,
0100
0000
0000
0010
0000
0000
1001
0000
0000
0000
0000
0000
0000
0000
0000
0000
,
1000
0000
0100
0010
,
0001
0000
0010
0100
,
1000
0000
0000
0000
0001
0000
1000
1000
,
0000
0010
0010
0100
0000
0010
0000
0000
,
0100
0000
0010
1000
,
0100
0000
0010
0001
,
0010
0000
0000
0000
0010
0000
0100
0010
,
0000
0010
0100
0010
0000
0001
0000
0000
,
0001
0000
0001
0000
,
1000
0000
1000
0000
,
0001
0000
0001
0000
,
1000
0000
1000
0000
,
0001
0000
0001
0000
,
1000
0000
1000
0000
,
0002
0000
0000
0000
,
2000
0000
0000
3003
,
1000
0000
0100
0000
,
1000
0000
0100
0000
,
0010
0000
0100
0000
,
0010
0000
0001
0000
,
0010
0000
0100
0000
,
0010
0000
0001
0000
,
0020
0000
0000
0000
,
0200
0000
0000
0330
,
0200
0000
0300
0010
,
0100
0000
0000
0010
0000
0000
0110
0000
0000
0000
0000
0000
0000
0000
0000
0000
,
0001
0000
0010
0000
,
0100
0000
0000
0010
0000
0000
1001
0000
0000
0000
0000
0000
0000
0000
0000
0000
,
1000
0000
0100
0000
,
0010
0000
0010
0000
,
0001
0000
0001
0000
,
2000
0000
0000
0000
,
3001
0000
1000
0000
,
0001
0000
0000
1000
0000
0000
1001
0000
0000
0000
0000
0000
0000
0000
0000
0000
,
0001
0000
1000
0000
,
0100
0000
0010
0000
,
0001
0000
0010
0000
,
0100
0000
0010
0000
,
0002
0000
0000
0003
,
1000
0000
0000
0001
0000
0000
1001
0000
0000
0000
0000
0000
0000
0000
0000
0000
,
0000
0000
0000
0000
,
0000
0000
0000
0000
,
0000
0000
0000
0000
,
0000
0000
0000
0000
,
0000
0000
0000
0000
,
0000
0000
0000
0000
,
0000
0000
0000
0000
,
0000
0000
0000
0000
,
1000
0000
0001
0100
,
0010
0000
0100
0010
,
0100
0000
0000
0000
0001
0000
0100
0001
,
0000
0100
0001
0100
0000
0001
0000
0000
,
0100
0000
0010
0100
,
0010
0000
1000
0100
,
1000
0000
0000
0000
0100
0000
0010
0001
,
0000
0010
0100
1000
0000
0001
0000
0000
;

//--------------- dance-single - Wrland ----------------
#NOTES:
     dance-single:
     Wrland:
     Hard:
     8:
     0,0,0,0,0:
0000
0000
0000
0000
,
0000
0000
0000
0000
,
0000
0000
0000
0000
,
0000
0000
0000
0000
,
0000
0000
0000
0000
,
1000
0000
0000
0001
0000
0000
1000
0000
0000
0000
0010
0000
0000
0000
0100
0000
,
0010
0000
0000
1000
0000
0000
0100
0000
0000
0000
0010
0000
0001
0000
0010
0000
,
0200
0000
0000
0000
0000
0000
0300
0010
,
0100
0000
0000
0010
0000
0000
0220
0000
0000
0000
0000
0000
0330
0000
0000
0000
,
0100
0000
1000
0100
1000
0000
0000
0000
0100
0000
0010
0000
0001
0000
0110
0000
,
0100
0000
1000
0100
1000
0000
0000
0000
0100
0000
0010
0000
0001
0000
0011
0000
,
0010
0000
0100
0010
0100
0000
0000
0000
1000
0000
0100
0000
0010
0000
0002
0000
,
0003
0010
0100
2000
0000
3100
0000
0000
,
0100
0000
0010
0100
0010
0000
0000
0000
0001
0000
0010
0000
0100
0000
1100
0000
,
1000
0000
0100
1000
0100
0000
0000
0000
0010
0000
0001
0000
0010
0000
0110
0000
,
0100
0000
1000
0100
1000
0000
0000
0000
0100
0000
0010
0000
0001
0000
0200
0000
,
0300
0010
0100
0020
0000
1030
0000
0000
,
0000
1000
1000
1000
0000
0001
0001
0001
,
0000
1000
1000
1000
0000
0001
0001
0001
,
0000
0100
0100
0100
0000
0010
0010
0010
,
0000
0100
0100
0100
0010
0100
0010
0100
,
0000
0010
0001
0010
0000
0100
1000
0100
,
0000
0010
0001
0010
0000
0100
1000
0100
,
0020
0000
0000
0130
0000
1000
0100
0010
,
0002
0000
0000
1003
,
1000
0000
0001
0000
1000
0000
0001
1000
,
0001
1000
0000
0001
0000
1000
0001
1000
,
0000
0000
1000
0010
0100
0001
0010
0000
,
0100
0000
0010
0001
0000
1000
0020
0000
0000
0000
0000
0000
0030
0000
0100
0000
,
0001
1000
0001
1000
,
0010
0000
0100
0000
0010
2000
3000
0010
,
0200
0000
0000
0000
0000
0000
0000
0000
0000
0000
0000
0300
0000
0000
0010
0000
,
0200
0000
0000
0020
0000
0000
0330
0000
,
2002
0000
0000
0000
3003
1000
0001
1000
,
0001
0000
0000
1000
0000
0000
1001
0000
0000
0000
1000
0000
0200
0000
0000
0000
,
0300
0010
0100
0010
0001
1000
0001
1000
,
0001
0000
0000
1000
0000
0000
1001
0000
0000
0000
1000
0000
0002
0000
0000
0003
,
1000
0000
0000
0010
0000
0000
0100
0000
0000
0000
0001
0000
0100
0000
0001
0000
,
0100
0000
0000
0010
0000
0000
0100
0000
0000
0000
0010
0000
1000
0000
0100
0000
,
0000
0010
0100
0010
0000
0001
0000
0010
,
0100
0000
0000
0010
0000
0000
0100
0000
0000
0000
1000
0000
0100
0000
1000
0000
,
0200
0000
0300
0010
0000
0100
0010
0100
,
0010
0000
0000
0001
0000
0000
1001
0000
0000
0000
1000
0000
0002
0000
0000
0000
,
0003
0001
1000
0001
1000
0001
0000
1000
,
0001
0000
0000
0010
0000
0000
0100
0000
0000
0000
0010
0000
0200
0000
0000
0300
,
0010
0000
0000
0100
0000
0000
0010
0000
0000
0000
0001
0000
0000
0000
0100
0000
,
0010
0000
0000
0100
0000
0000
0010
0000
0000
0000
0100
0000
0010
0000
1000
0000
,
0200
0000
0000
0000
0000
0000
0300
0010
,
0001
0000
0000
1000
0000
0000
1001
0000
0000
0000
0000
0000
0000
0000
0000
0000
,
0000
0000
0000
0000
,
0000
0000
0000
0000
,
0000
0000
0000
0000
,
0000
0000
0000
0000
,
0002
0000
0003
2000
0000
0000
3000
0000
,
0200
0000
0300
0020
0000
0000
0030
0000
,
0002
0000
0000
0000
2000
0000
3003
0001
,
0000
1000
0010
1000
0000
1001
0000
0000
,
1000
0000
0100
1000
0100
0000
0000
0000
0010
0000
0001
0000
0010
0000
0110
0000
,
0100
0000
1000
0100
1000
0000
0000
0000
0100
0000
0010
0000
0001
0000
1001
0000
,
1000
0000
0010
0100
0010
0000
0000
0000
0100
0000
0010
0000
0100
0000
0020
0000
,
0030
0000
1000
0000
0010
0000
0200
0000
0000
0000
0310
0000
0100
0001
0100
0001
,
0100
0000
0010
0100
0010
0000
0000
0000
1000
0000
0010
0000
0100
0000
0110
0000
,
0001
0000
0100
0010
0100
0000
0000
0000
0010
0000
1000
0000
0100
0000
1100
0000
,
1000
0000
0100
0010
0100
0000
0000
0000
0010
0000
0001
0000
0010
0000
0200
0000
,
0300
1000
0001
0020
0000
0031
0000
0000
;

//--------------- dance-single - Wrland ----------------
#NOTES:
     dance-single:
     Wrland:
     Challenge:
     10:
     0,0,0,0,0:
0000
0000
0000
0000
,
0000
0000
0000
0000
,
0000
0000
0000
0000
,
0000
0000
0000
0000
,
0000
0000
0000
0000
,
1000
0000
0000
0010
0000
0000
0100
0000
0000
0000
0001
0000
0000
0000
0100
0000
,
0010
0000
0000
1000
0000
0000
0100
0000
0000
0000
0010
0000
0001
0000
0100
0000
,
0020
0000
0100
0000
0000
0000
0100
0000
0000
0000
0130
0000
0100
0000
0010
0100
,
0010
0000
0000
1000
0000
0000
2002
0000
0000
0000
0000
0000
3003
0000
0000
0000
,
1000
0000
0010
0100
0010
0000
0000
0000
0100
0000
0010
0000
1000
0000
1001
0000
,
0001
0000
1000
0001
1000
0000
0000
0000
0001
0000
0010
0000
0100
0000
0110
0000
,
0100
0000
1000
0001
0100
0000
0000
0000
0010
0000
0100
0000
0010
0000
2000
0000
,
3000
0001
0100
0020
0000
0130
0000
0000
,
0010
0000
0100
0010
0100
0000
0000
0000
0010
0000
1000
0000
0001
0000
1001
0000
,
0001
0000
1000
0010
0100
0000
0000
0000
0010
0000
1000
0000
0100
0000
0110
0000
,
0010
0000
0001
0010
0001
0000
0000
0000
0010
0000
0100
0000
1000
0000
0002
0000
,
0003
1000
0010
0200
0000
0310
0000
0000
,
0000
0100
0010
0100
0000
0001
0100
0001
,
0000
0100
0010
0100
0000
0010
1000
0100
,
0000
0010
0001
0010
0000
0100
1000
0100
,
0000
0010
0001
0010
0100
1000
0010
0100
,
0000
0010
0100
0010
0000
0100
0001
0100
,
0000
0010
1000
0010
0000
0100
0001
0100
,
0002
0000
0000
1003
0000
0100
0010
0001
,
2000
0000
0000
3001
,
1000
0000
0001
0000
0100
0000
0010
0100
,
0010
0100
0000
0001
0000
0100
0010
0100
,
0000
0000
0010
0100
0001
0100
0010
0000
,
0100
0000
0001
0010
0000
0100
2000
0000
0000
0000
0000
0000
3000
0000
0001
0000
,
1000
0100
0010
0100
,
1000
0000
0001
0000
0100
0010
0000
0100
,
0002
0000
0000
0000
0000
0000
0003
1000
,
0001
0000
1000
0001
1000
0000
0010
0000
0100
0000
0001
0100
0001
0000
0000
0000
,
2002
0000
0000
0000
3003
0001
1000
0001
,
1000
0000
0000
0010
0000
0000
0100
0000
0000
0000
0010
0100
0002
0000
0000
0000
,
0003
1000
0100
1000
0001
0100
0001
1000
,
0100
0000
0000
0010
0000
0000
0011
0000
0000
0000
1000
0001
1000
0000
0000
0000
,
0001
0000
0000
0100
0000
0000
0001
0000
0000
0000
0100
0000
0010
0000
0100
0000
,
0001
0000
0000
0100
0000
0000
1001
0000
0000
0000
0001
0000
1000
0000
0001
0000
,
0000
1000
0001
1000
0000
0001
0000
0100
,
0010
0000
0000
0100
0000
0000
0010
0000
0000
0000
1000
0000
0100
0000
0010
0000
,
0002
0000
0000
2000
3003
0001
1000
0001
,
0010
0000
0000
0100
0000
0000
0110
0000
0000
0000
0100
0010
0100
0000
0000
0000
,
0000
0010
0001
0010
0100
1000
0000
0100
,
0010
0000
0000
0001
0000
0000
0110
0000
0000
0000
0010
0100
0010
0000
0000
0000
,
0001
0000
0000
1000
0000
0000
0100
0000
0000
0000
0010
0000
0000
0000
0100
0000
,
0010
0000
0000
0001
0000
0000
1000
0000
0000
0000
0010
0000
0100
0000
0010
0000
,
2000
0001
0000
0001
0000
0001
3001
1000
,
0001
0000
0000
1000
0000
0000
1001
0000
0000
0000
0000
0000
0000
0000
0000
0000
,
0000
0000
0000
0000
,
0000
0000
0000
0000
,
0000
0000
0000
0000
,
0000
0000
0000
0000
,
2000
0000
0000
0000
3000
0000
0200
0000
0000
0000
0000
0300
0020
0000
0000
0030
,
0002
0000
0000
0000
0003
0000
0020
0000
0000
0000
0030
0000
0200
0000
0000
0300
,
0020
0000
0030
0200
0000
0300
1000
0200
,
0300
0000
1000
0000
0001
0000
0100
0000
0000
0000
0001
0000
0100
0000
0010
0100
,
0010
0000
1000
0010
0100
0000
0000
0000
0001
0000
0100
0000
0010
0000
0110
0000
,
1000
0000
0010
0100
0010
0000
0000
0000
0010
0000
0100
0000
0010
0000
1001
0000
,
1000
0000
0001
0100
0010
0000
0000
0000
0100
0000
0010
0000
1000
0000
0010
0000
,
0000
0100
0010
0100
0000
0010
0000
0000
,
1000
0000
0001
0100
0010
0000
0000
0000
0100
0000
0010
0000
0100
0000
1001
0000
,
0001
0000
1000
0001
1000
0000
0000
0000
0010
0000
0100
0000
0001
0000
1001
0000
,
0001
0000
0100
0001
0100
0000
0000
0000
0001
0000
1000
0000
0100
0000
0020
0000
,
0030
0001
0010
0002
0000
0013
0000
0000
;
