#VERSION:0.83;
#TITLE:PHYSALIS;
#SUBTITLE:;
#ARTIST:TAG;
#TITLETRANSLIT:;
#SUBTITLETRANSLIT:;
#ARTISTTRANSLIT:;
#GENRE:J-Core;
#CREDIT:BIG UP!;
#MUSIC:PHYSALIS.ogg;
#BANNER:PHYSALIS.png;
#BACKGROUND:BG.png;
#JACKET:;
#DISCIMAGE:;
#CDIMAGE:;
#SELECTABLE:YES;
#LYRICSPATH:;
#CDTITLE:BMS OF FIGHTERS.png;
#SAMPLESTART:65.466;
#SAMPLELENGTH:15.000;
#BPMS:0.000000=164.000000,
1.000000=200.000000,
132.000000=100.000000,
168.000000=200.000000,
400.000000=100.000000,
402.000000=200.000000
;
#STOPS:;
#WARPS:;
#DELAYS:;
#SPEEDS:;
#SCROLLS:;
#TICKCOUNTS:;
#TIMESIGNATURES:;
#LABELS:;
#COMBOS:;
#FAKES:;
#BGCHANGES:0.000=PHYSALIS.avi=0.000=0=0=0=StretchNoLoop====,
99999=-nosongbg-=1.000=0=0=0 // don't automatically add -songbackground-
;
#FGCHANGES:;
#ATTACKS:;
#DISPLAYBPM:100.000:200.000;
#TAGS:DMCA;

//---------------dance-single - Wrland---------------
#NOTEDATA:;
#CHARTNAME:;
#CHARTSTYLE:Pad;
#CREDIT:Wrland;
#STEPSTYPE:dance-single;
#DESCRIPTION:Wrland;
#DIFFICULTY:Beginner;
#METER:4;
#METERF:4;
#RADARVALUES:0,0,0,0,0;
#NOTES:
// measure 0
0000
0000
0000
0000
,  // measure 1
0000
0000
0000
0000
,  // measure 2
0000
0000
0000
0000
,  // measure 3
0000
0000
0000
0000
,  // measure 4
0000
0000
0000
0000
,  // measure 5
0000
0000
0000
0000
,  // measure 6
0000
0000
0000
0000
,  // measure 7
0000
0000
0000
0000
,  // measure 8
0000
0000
0000
0000
,  // measure 9
0100
0000
0000
0000
,  // measure 10
1000
0100
1000
0000
,  // measure 11
0100
0000
0000
0000
,  // measure 12
0001
0100
0001
0000
,  // measure 13
0100
0000
0000
0000
,  // measure 14
0001
0100
0001
0000
,  // measure 15
0100
0010
0100
0000
,  // measure 16
0001
0100
0010
0000
,  // measure 17
0200
0000
0000
0000
,  // measure 18
0000
0000
0000
0300
,  // measure 19
0020
0000
0000
0000
,  // measure 20
0000
0000
0000
0030
,  // measure 21
0002
0000
0000
0000
,  // measure 22
0000
0000
0000
0003
,  // measure 23
2000
0000
0000
0000
,  // measure 24
0000
0000
0000
3000
,  // measure 25
0100
1000
0100
0000
,  // measure 26
0100
0010
0001
0000
,  // measure 27
0100
0001
0100
0000
,  // measure 28
0100
0010
0100
0000
,  // measure 29
0100
0010
0001
0000
,  // measure 30
0010
0100
0001
0000
,  // measure 31
0010
1000
0100
0000
,  // measure 32
0100
0000
0200
0000
,  // measure 33
0310
0000
0000
0000
,  // measure 34
0000
0000
0000
0000
,  // measure 35
0000
0000
0000
0000
,  // measure 36
0000
0000
0000
0000
,  // measure 37
0000
0000
0000
0000
,  // measure 38
2000
0000
0000
3000
2000
0000
0000
3000
,  // measure 39
0002
0000
0000
0003
0002
0000
0000
0003
,  // measure 40
0200
0000
0000
0300
0200
0000
0000
0300
,  // measure 41
0020
0000
0000
0030
0020
0000
0000
0030
,  // measure 42
0100
0000
0000
0000
,  // measure 43
0010
0000
0000
0000
,  // measure 44
0100
0000
0001
0000
0100
0000
0000
0110
,  // measure 45
0000
1001
0110
0000
0000
0000
0000
0000
,  // measure 46
1000
0001
0100
0010
,  // measure 47
0001
0100
0010
0100
,  // measure 48
0010
0001
0100
0000
,  // measure 49
0001
0100
0010
0000
,  // measure 50
0001
0100
0010
0100
,  // measure 51
1000
0100
0010
0001
,  // measure 52
0100
0000
0010
0000
0001
0000
0100
0020
,  // measure 53
0000
0000
0000
0130
,  // measure 54
0010
0000
0010
0001
,  // measure 55
0001
0100
0020
0000
,  // measure 56
1030
0000
1000
0100
,  // measure 57
0001
0100
2000
0000
,  // measure 58
3001
0000
0100
0001
0100
0000
0010
0000
,  // measure 59
0100
0000
1000
0100
1000
0000
0100
0000
,  // measure 60
0010
0000
0001
0100
0001
0000
0100
0000
,  // measure 61
0010
0000
0001
0100
0002
0000
0000
0000
,  // measure 62
0013
0000
1000
0100
,  // measure 63
0010
0000
0000
0100
0001
0000
0100
0000
,  // measure 64
0020
0000
0000
0000
,  // measure 65
0000
0000
0000
0030
,  // measure 66
2000
0000
0000
0000
,  // measure 67
0000
0000
0000
0000
0000
0000
0000
3000
,  // measure 68
0002
0000
0000
0000
,  // measure 69
0000
0000
0000
0000
0000
0000
0000
0003
,  // measure 70
0200
0000
0000
0000
,  // measure 71
0000
0000
0000
0000
0000
0000
0000
0300
,  // measure 72
0010
0000
0010
0001
,  // measure 73
0100
0000
0001
0010
,  // measure 74
0100
0000
1000
0100
,  // measure 75
1000
0000
0100
0010
,  // measure 76
1000
0000
0010
0001
,  // measure 77
0100
0000
0001
0010
,  // measure 78
0100
0001
0000
0100
0010
0000
0001
0100
,  // measure 79
0000
0010
1000
0000
0200
0000
0310
0000
,  // measure 80
0000
0000
0000
0000
,  // measure 81
0000
0000
0000
0000
,  // measure 82
0001
0000
1000
0000
,  // measure 83
0100
1000
0100
0000
,  // measure 84
1000
0100
0010
0001
,  // measure 85
0100
0010
0001
0000
,  // measure 86
0010
0000
0001
0000
0100
0000
0010
0002
,  // measure 87
0000
0000
0000
1003
,  // measure 88
0100
0000
0001
0000
,  // measure 89
0010
0100
0200
0000
,  // measure 90
0310
0000
0100
0000
,  // measure 91
1000
0100
0002
0000
,  // measure 92
1003
0000
0100
0010
0100
0000
0001
0000
,  // measure 93
0100
0000
0001
0100
0001
0000
0100
0000
,  // measure 94
1000
0000
0100
1000
0100
0000
0100
0000
,  // measure 95
0010
0000
0001
0100
0002
0000
0000
0000
,  // measure 96
2003
0000
0000
0000
0000
3000
0100
0020
,  // measure 97
0000
0000
0000
0030
,  // measure 98
0200
0000
0000
0000
0000
0000
0000
0300
,  // measure 99
0001
0000
0000
1000
0000
0000
0001
0000
1000
0000
0000
0001
0000
0000
1000
0000
,  // measure 100
0000
0000
0100
0010
,  // measure 101
0001
0100
0100
1000
,  // measure 102
0100
0100
0100
0010
,  // measure 103
0001
0001
0100
0010
,  // measure 104
0100
0100
0010
0001
,  // measure 105
0100
0100
0100
1000
,  // measure 106
0100
0100
0100
0010
,  // measure 107
0001
0100
0001
0200
0000
0000
0000
0000
,  // measure 108
0000
0310
0001
0000
,  // measure 109
0010
0100
0010
0000
1000
0000
0000
0000
,  // measure 110
0002
0000
1003
0000
,  // measure 111
1000
0100
1000
0000
0100
0000
0000
0000
,  // measure 112
0200
0000
0310
0001
,  // measure 113
0100
0001
0100
0000
0010
0000
0100
0000
,  // measure 114
1000
0100
1000
0000
0100
0000
0010
0000
,  // measure 115
0001
0100
0001
0000
0200
0000
0000
0000
,  // measure 116
0310
0000
0200
0000
,  // measure 117
0000
0000
0000
0000
,  // measure 118
0000
0300
0020
0000
,  // measure 119
0000
0000
0000
0000
,  // measure 120
0000
0030
0002
0000
,  // measure 121
0000
0000
0000
0000
,  // measure 122
0000
0003
2000
0000
,  // measure 123
0000
0000
0000
0000
,  // measure 124
0000
3000
0000
1001
;

//---------------dance-single - Wrland---------------
#NOTEDATA:;
#CHARTNAME:;
#CHARTSTYLE:Pad;
#CREDIT:Wrland;
#STEPSTYPE:dance-single;
#DESCRIPTION:Wrland;
#DIFFICULTY:Easy;
#METER:6;
#METERF:6;
#RADARVALUES:0,0,0,0,0;
#NOTES:
// measure 0
0000
0000
0000
0000
,  // measure 1
0000
0000
0000
0000
,  // measure 2
0000
0000
0000
0000
,  // measure 3
0000
0000
0000
0000
,  // measure 4
0000
0000
0000
0000
,  // measure 5
0000
0000
0000
0000
,  // measure 6
0000
0000
0000
0000
,  // measure 7
0000
0000
0000
0000
,  // measure 8
0000
0000
0000
0000
,  // measure 9
0100
0000
0100
0000
,  // measure 10
1000
0100
1000
0000
,  // measure 11
0100
0000
0010
0000
,  // measure 12
0001
0100
0001
0000
,  // measure 13
0100
0000
0010
0000
,  // measure 14
0001
0100
0001
0000
,  // measure 15
0100
0010
0100
0000
,  // measure 16
0001
0100
0010
0000
,  // measure 17
0200
0000
0000
0000
,  // measure 18
0000
0000
0000
0300
,  // measure 19
0020
0000
0000
0000
,  // measure 20
0000
0000
0000
0030
,  // measure 21
0002
0000
0000
0000
,  // measure 22
0000
0000
0000
0003
,  // measure 23
2000
0000
0000
0000
,  // measure 24
0000
0000
0000
3000
,  // measure 25
0100
1000
0100
1000
,  // measure 26
0100
0010
0001
0000
,  // measure 27
0100
0001
0100
0001
,  // measure 28
0100
0010
0100
0000
,  // measure 29
0100
0010
0001
0100
,  // measure 30
0010
0000
0001
0100
,  // measure 31
0010
1000
0100
1000
,  // measure 32
0100
0000
0200
0000
,  // measure 33
0310
0000
0000
0000
,  // measure 34
0000
0000
0000
0000
,  // measure 35
0000
0000
0000
0000
,  // measure 36
0000
0000
0000
0000
,  // measure 37
0000
0000
0000
0000
,  // measure 38
2000
0000
0000
3000
2000
0000
0000
3000
,  // measure 39
0002
0000
0000
0003
0002
0000
0000
0003
,  // measure 40
0200
0000
0000
0300
0200
0000
0000
0300
,  // measure 41
0020
0000
0000
0030
0020
0000
0000
0030
,  // measure 42
0100
0000
0100
0000
,  // measure 43
0010
0000
0001
0000
,  // measure 44
0100
0000
0001
0000
0100
0000
0000
0110
,  // measure 45
0000
1001
0110
0000
0000
0000
0000
0000
,  // measure 46
1000
0001
0100
0010
,  // measure 47
0001
0100
0010
0100
,  // measure 48
0010
0001
0100
0010
,  // measure 49
0001
0100
0010
0000
,  // measure 50
0001
0100
0010
0100
,  // measure 51
1000
0100
0010
0001
,  // measure 52
0100
0000
0010
0000
0001
0000
0100
0020
,  // measure 53
0000
0000
0000
0130
,  // measure 54
0010
0000
0100
0000
0010
0000
0001
0100
,  // measure 55
0001
0100
0020
0000
,  // measure 56
1030
0100
1000
0100
,  // measure 57
0001
0010
0100
0000
2000
0000
0000
0000
,  // measure 58
3001
0000
0100
0001
0100
0000
0010
0000
,  // measure 59
0100
0000
1000
0100
1000
0000
0100
0000
,  // measure 60
0010
0000
0001
0100
0001
0000
0100
0000
,  // measure 61
0010
0000
0001
0100
0002
0000
0000
0000
,  // measure 62
0013
0100
1000
0100
,  // measure 63
0010
0000
0001
0100
0001
0000
0100
0000
,  // measure 64
0020
0000
0000
0000
,  // measure 65
0000
0000
0000
0030
,  // measure 66
2000
0000
0000
0000
,  // measure 67
0000
0000
0000
0000
0000
0000
0000
3000
,  // measure 68
0002
0000
0000
0000
,  // measure 69
0000
0000
0000
0000
0000
0000
0000
0003
,  // measure 70
0200
0000
0000
0000
,  // measure 71
0000
0000
0000
0000
0000
0000
0000
0300
,  // measure 72
0010
0100
0010
0001
,  // measure 73
0100
0000
0001
0100
0001
0000
0000
0000
,  // measure 74
0100
0010
1000
0100
,  // measure 75
1000
0000
0100
1000
0100
0000
0000
0000
,  // measure 76
1000
0100
0010
0001
,  // measure 77
0100
0000
0001
0100
0001
0000
0000
0000
,  // measure 78
0100
0001
0000
0100
0010
0000
0001
0100
,  // measure 79
0000
0010
1000
0000
0200
0000
0310
0000
,  // measure 80
0000
0000
0000
0000
,  // measure 81
0000
0000
0000
0000
,  // measure 82
0001
1000
0001
1000
,  // measure 83
0100
1000
0100
0000
,  // measure 84
1000
0100
0010
0001
,  // measure 85
0100
0010
0001
0100
,  // measure 86
0010
0000
0001
0000
0100
0000
0010
0002
,  // measure 87
0000
0000
0000
1003
,  // measure 88
0100
0010
0001
0100
,  // measure 89
0010
0100
0200
0000
,  // measure 90
0310
0001
0100
0010
,  // measure 91
1000
0100
0002
0000
,  // measure 92
1003
0000
0100
0010
0100
0000
0001
0000
,  // measure 93
0100
0000
0001
0100
0001
0000
0100
0000
,  // measure 94
1000
0000
0100
1000
0100
0000
0100
0000
,  // measure 95
0010
0000
0001
0100
0002
0000
0000
0000
,  // measure 96
2003
0000
0000
0000
0000
3010
0100
0020
,  // measure 97
0000
0000
0000
0030
,  // measure 98
0100
0010
0001
0100
,  // measure 99
0001
0000
0000
1000
0000
0000
0001
0000
1000
0000
0000
0001
0000
0000
1000
0000
,  // measure 100
0000
0000
0100
0010
,  // measure 101
0001
0100
0001
0000
0100
0000
1000
0000
,  // measure 102
0100
1000
0100
0000
0100
0000
0010
0000
,  // measure 103
0001
0100
0001
0000
0100
0000
0010
0000
,  // measure 104
0100
1000
0100
0000
0010
0000
0001
0000
,  // measure 105
0100
0001
0100
0000
0100
0000
1000
0000
,  // measure 106
0100
1000
0100
0000
0100
0000
0010
0000
,  // measure 107
0001
0100
0001
0200
0000
0000
0000
0000
,  // measure 108
0000
0310
0001
0100
,  // measure 109
0010
0100
0010
0000
1000
0000
0100
0000
,  // measure 110
0002
0000
1003
0100
,  // measure 111
1000
0100
1000
0000
0100
0000
0010
0000
,  // measure 112
0200
0000
0310
0001
,  // measure 113
0100
0001
0100
0000
0010
0000
0100
0000
,  // measure 114
1000
0100
1000
0000
0100
0000
0010
0000
,  // measure 115
0001
0100
0001
0000
0200
0000
0000
0000
,  // measure 116
0310
0000
0200
0000
,  // measure 117
0000
0000
0000
0000
,  // measure 118
0000
0300
0020
0000
,  // measure 119
0000
0000
0000
0000
,  // measure 120
0000
0030
0002
0000
,  // measure 121
0000
0000
0000
0000
,  // measure 122
0000
0003
2000
0000
,  // measure 123
0000
0000
0000
0000
,  // measure 124
0000
3000
0000
1001
;

//---------------dance-single - Wrland---------------
#NOTEDATA:;
#CHARTNAME:;
#CHARTSTYLE:Pad;
#CREDIT:Wrland;
#STEPSTYPE:dance-single;
#DESCRIPTION:Wrland;
#DIFFICULTY:Medium;
#METER:10;
#METERF:10;
#RADARVALUES:0,0,0,0,0;
#NOTES:
// measure 0
0000
0000
0000
0000
,  // measure 1
0000
0000
0000
0000
,  // measure 2
0000
0000
0000
0000
,  // measure 3
0000
0000
0000
0000
,  // measure 4
0000
0000
0000
0000
,  // measure 5
0000
0000
0000
0000
,  // measure 6
0000
0000
0000
0000
,  // measure 7
0000
0000
0000
0000
,  // measure 8
0000
0000
0000
0000
,  // measure 9
0100
0010
0100
0010
,  // measure 10
0001
0100
0010
0000
,  // measure 11
0100
1000
0100
1000
,  // measure 12
0100
0010
0001
0000
,  // measure 13
0100
0000
0001
0100
0001
0000
0000
0000
,  // measure 14
0100
0000
0010
0100
0010
0000
0000
0000
,  // measure 15
1000
0100
1000
0100
,  // measure 16
0010
0000
0001
0100
0001
0000
0000
0000
,  // measure 17
0100
0010
0100
0010
0000
0001
0000
0100
,  // measure 18
0010
0000
0000
0010
0100
0010
0100
0010
,  // measure 19
0001
0100
1000
0001
0000
0100
0000
0010
,  // measure 20
0100
0000
0000
0100
1000
0100
1000
0100
,  // measure 21
0010
0001
0100
0010
0000
0100
0000
0010
,  // measure 22
0100
0000
0000
0001
0100
0001
0100
0010
,  // measure 23
0100
1000
0100
0010
0000
0001
0000
0100
,  // measure 24
0010
0000
0000
0100
0010
0001
0100
0000
,  // measure 25
0010
0100
0010
0100
0000
0010
0100
0001
,  // measure 26
0100
0000
0000
0010
0100
0010
0001
0100
,  // measure 27
0010
0100
1000
0100
0000
1000
0100
1000
,  // measure 28
0100
0000
0000
0100
0010
0001
0100
0010
,  // measure 29
0100
1000
0100
0010
0000
0001
0100
0001
,  // measure 30
0100
0000
0000
0010
0100
0010
0001
0100
,  // measure 31
0010
0100
1000
0100
0000
0010
0001
0100
,  // measure 32
0010
0000
0000
0100
0010
0001
0100
0010
,  // measure 33
0220
0000
0000
0000
,  // measure 34
0330
0000
0000
0000
,  // measure 35
0000
0000
0000
0000
,  // measure 36
0000
0000
0000
0000
,  // measure 37
0000
0000
0000
0000
,  // measure 38
2000
0000
0000
3000
2000
0000
0000
3000
,  // measure 39
0002
0000
0000
0003
0002
0000
0000
0003
,  // measure 40
0200
0000
0000
0300
0200
0000
0000
0300
,  // measure 41
0020
0000
0000
0030
0020
0000
0000
0030
,  // measure 42
0100
0010
0100
0001
,  // measure 43
0100
0000
0001
0100
0001
0000
0100
0000
,  // measure 44
1000
0000
0100
1000
0100
0010
0001
0200
,  // measure 45
0000
0000
0310
0000
,  // measure 46
0001
0000
1000
0000
0001
1000
0100
1000
,  // measure 47
0000
0100
0010
0001
0100
0000
0010
0000
,  // measure 48
0100
0000
0001
0200
0000
0000
0000
0300
,  // measure 49
0010
0000
0100
0020
0000
0000
0000
0030
,  // measure 50
0001
0000
0100
0000
0010
0100
1000
0100
,  // measure 51
0010
0000
0001
0000
0100
0010
0100
0010
,  // measure 52
0100
0000
1000
0100
0010
0001
0100
0010
,  // measure 53
0000
0100
0000
0010
0001
0100
0010
0000
,  // measure 54
0100
0000
1000
0100
0010
0001
0100
0010
,  // measure 55
0100
0010
0100
0000
2000
0000
0000
3000
,  // measure 56
0100
0000
0010
0001
0100
0010
0100
0001
,  // measure 57
1000
0010
0001
0000
0200
0000
0000
0300
,  // measure 58
0010
0001
0100
0010
0100
1000
0100
0010
,  // measure 59
0002
0000
0003
0100
0010
0100
0010
0100
,  // measure 60
0020
0000
0030
0100
2000
0000
0000
3000
,  // measure 61
0101
0000
0000
0000
1010
0000
0000
0000
0001
0000
0000
0100
0000
0000
0010
0000
,  // measure 62
0002
0000
0003
0100
0020
0030
0001
0000
,  // measure 63
0200
0000
0300
0010
0200
0000
0310
0000
,  // measure 64
0002
0000
0000
0000
0000
1000
0000
0000
,  // measure 65
1000
0000
0000
1000
0000
0000
1000
0000
,  // measure 66
2003
0000
0000
0000
0000
0001
0000
0000
,  // measure 67
0001
0000
0000
0001
0000
0000
0001
0000
,  // measure 68
3002
0000
0000
0000
0000
0100
0000
0000
,  // measure 69
0100
0000
0000
0100
0000
0000
0100
0000
,  // measure 70
0023
0000
0000
0000
0000
0001
0000
0000
,  // measure 71
0001
0000
0000
0001
0000
0000
0001
0000
,  // measure 72
0130
0000
1000
0000
0100
1000
0100
0000
,  // measure 73
1000
0000
0100
0000
0001
0100
0001
0000
,  // measure 74
0100
0000
0010
0000
0100
0010
0100
0000
,  // measure 75
0001
0000
0100
0000
0010
0100
0010
0000
,  // measure 76
1000
0000
0100
0000
1000
0100
1000
0000
,  // measure 77
0100
0000
0010
0000
0001
0100
0001
0000
,  // measure 78
0100
0001
0000
0100
0010
0000
0001
0100
,  // measure 79
0000
0010
0100
0000
1000
0000
1001
0000
,  // measure 80
0110
0000
0000
0000
,  // measure 81
0000
0000
0000
0000
,  // measure 82
1000
0000
0100
2000
0000
3000
0010
0000
,  // measure 83
0001
0000
0100
0001
0100
0010
0100
0010
,  // measure 84
0100
0000
1000
0000
0100
0001
0001
0100
,  // measure 85
0020
0030
0001
0010
0100
0010
0100
1000
,  // measure 86
0200
0300
0010
0002
0003
0100
0010
0001
,  // measure 87
0000
1000
0000
0001
1000
0001
1000
0000
,  // measure 88
0100
0001
1000
0010
0100
0000
0001
0100
,  // measure 89
0001
0010
0100
0000
0200
0000
0000
0300
,  // measure 90
0001
0000
0100
0001
0010
0000
1000
0100
,  // measure 91
0010
0001
0100
0000
0020
0000
0000
0000
,  // measure 92
0130
0000
0010
0000
0001
0100
0001
0100
,  // measure 93
0002
0000
0000
0003
0100
0010
0100
1000
,  // measure 94
0200
0000
0300
0010
0001
0000
1000
0000
,  // measure 95
0100
0000
0000
0000
2000
0000
0000
0000
0001
0000
0000
0001
0000
0000
0001
0000
,  // measure 96
3100
0000
0010
0000
0001
0000
0100
0001
,  // measure 97
0100
0010
0100
1000
,  // measure 98
0100
0000
1000
0100
1000
0100
0010
0001
,  // measure 99
0100
0000
0000
0010
0000
0000
0100
0000
0010
0000
0000
0100
0000
0000
0220
0000
,  // measure 100
0000
0000
0000
0330
0100
0000
0010
0001
,  // measure 101
0100
0000
0010
0000
0100
0000
1000
0100
,  // measure 102
1000
0000
0100
0000
0010
0000
0001
0100
,  // measure 103
0001
0000
0100
0000
0010
0000
0100
1000
,  // measure 104
0100
0000
0100
0000
1000
0000
0100
0010
,  // measure 105
0001
0000
0100
0000
0010
0000
0001
0100
,  // measure 106
0001
0000
0100
0000
0010
0000
0100
0010
,  // measure 107
0100
0000
0010
0100
0000
0010
0000
0001
,  // measure 108
0100
0001
0100
0000
0010
0000
0100
0010
,  // measure 109
0001
0100
0010
1000
0001
0100
0010
0000
,  // measure 110
0200
0000
0000
0300
0010
0001
0100
0010
,  // measure 111
1000
0100
0010
0001
0100
0010
1000
0000
,  // measure 112
0020
0000
0000
0030
0100
1000
0100
1000
,  // measure 113
0100
0010
0001
0100
0010
0100
1000
0100
,  // measure 114
0010
0001
0100
0001
0100
0000
0010
0000
,  // measure 115
0100
0010
0001
0100
0020
0000
1000
0000
,  // measure 116
0100
1000
0130
0000
0100
0010
0100
0010
,  // measure 117
0000
0001
0000
0100
0010
0000
0000
0010
,  // measure 118
0100
0010
0100
0010
0001
0100
1000
0001
,  // measure 119
0000
0100
0000
0010
0100
0000
0000
0100
,  // measure 120
1000
0100
1000
0100
0010
0001
0100
0010
,  // measure 121
0000
0100
0000
0010
0100
0000
0000
0001
,  // measure 122
0100
0001
0100
0010
0100
1000
0100
0010
,  // measure 123
0000
0001
0000
0100
0010
0000
0000
0100
,  // measure 124
0010
0001
0100
0000
0000
0000
0110
0000
;

//---------------dance-single - Wrland---------------
#NOTEDATA:;
#CHARTNAME:;
#CHARTSTYLE:Pad;
#CREDIT:Wrland;
#STEPSTYPE:dance-single;
#DESCRIPTION:Wrland;
#DIFFICULTY:Hard;
#METER:15;
#METERF:15;
#RADARVALUES:0,0,0,0,0;
#NOTES:
// measure 0
0000
0000
0000
0000
,  // measure 1
1000
0001
1000
0100
,  // measure 2
1000
0100
0010
0001
,  // measure 3
0100
0000
0001
0100
0001
0000
0100
0000
,  // measure 4
0010
0100
1000
0100
,  // measure 5
0010
0000
0001
0100
0001
0000
0100
0000
,  // measure 6
0010
0000
0100
0010
0100
0000
1000
0000
,  // measure 7
0100
0000
1000
0100
1000
0000
0100
0000
,  // measure 8
0010
0000
0001
0100
0001
0000
0100
0000
,  // measure 9
0010
0100
0001
0010
0100
0000
1000
0000
,  // measure 10
0100
1000
0100
1000
0100
0000
0100
0000
,  // measure 11
0010
0001
0100
0001
0100
0000
0010
0000
,  // measure 12
0100
1000
0100
1000
0100
0000
0010
0000
,  // measure 13
0001
0000
0100
0001
0100
0000
0010
0000
,  // measure 14
0100
0000
1000
0100
0010
0000
0100
0000
,  // measure 15
0010
0000
0001
0100
0001
0000
0100
0000
,  // measure 16
0010
0000
0000
0000
0100
0000
0010
0000
0001
0010
1000
0100
0022
0000
0033
0000
,  // measure 17
0100
0010
0100
0020
0030
0001
0100
0001
,  // measure 18
2000
3000
0000
0010
0001
0100
0010
0100
,  // measure 19
0010
0001
0100
0020
0030
0100
1000
0100
,  // measure 20
2000
3000
0000
0010
0001
0001
0100
0010
,  // measure 21
0100
0010
0100
0020
0030
0100
0010
0001
,  // measure 22
0200
0300
0000
0100
0010
0100
0010
0001
,  // measure 23
1000
0100
1000
0200
0300
0100
0010
0001
,  // measure 24
0200
0000
0300
0000
0000
0000
0100
0000
0010
0000
0001
0010
0100
0000
0010
0000
,  // measure 25
0100
1000
0100
0020
0030
0001
0100
0001
,  // measure 26
0100
0020
0030
0100
1000
0100
0010
0001
,  // measure 27
0100
0010
0100
0020
0030
0001
0100
0001
,  // measure 28
0100
0002
0003
0100
0010
0100
1000
0100
,  // measure 29
0010
0001
0100
0020
0030
0100
1000
0100
,  // measure 30
0010
0002
0003
0010
0100
1000
0100
0010
,  // measure 31
0001
0100
0010
0200
0300
1000
0100
0010
,  // measure 32
0001
0010
0001
0010
0100
0000
0010
0000
0100
0000
0010
0000
0001
0000
0100
0000
,  // measure 33
0020
0000
0000
0000
,  // measure 34
0230
0000
2300
0000
3200
0000
2300
3200
,  // measure 35
0302
0000
0000
0000
0203
0000
0000
0000
0320
0000
0032
0000
0203
0000
0301
0100
,  // measure 36
0002
0000
0203
0320
0032
0203
0320
2030
,  // measure 37
3200
0000
0000
0000
2300
0000
3200
0000
0320
0000
0031
0100
0002
0000
0203
0000
,  // measure 38
0310
0000
0000
0000
0100
0000
0010
0000
0000
0000
0001
0000
0100
0000
0010
0000
0000
0000
0100
0000
1000
0000
0000
0000
0200
0000
0000
0010
0000
0000
0001
0000
,  // measure 39
0310
0000
0000
0000
0001
0000
0100
0000
0000
0000
0010
0000
0100
0000
1000
0000
0100
0000
0010
0000
0100
0000
0000
0000
0002
0000
0000
1000
0000
0000
0100
0000
,  // measure 40
0023
0000
0000
0000
1000
0000
0000
0000
0230
0000
0000
0001
0000
0000
0010
0000
0301
0000
0001
0000
0010
0000
0100
0000
0001
0000
0010
0000
0100
0000
0010
0000
,  // measure 41
0001
0000
0010
0000
0100
0000
0010
0000
0002
0000
0003
0000
1000
0000
0100
0000
0020
0000
0000
0000
0000
0000
0030
0000
0002
0000
0000
0100
0000
0000
0010
0000
,  // measure 42
0013
0100
0010
0001
0100
0010
0100
1000
,  // measure 43
0100
0010
0001
0100
0010
0100
0010
0100
,  // measure 44
0010
0010
0100
0000
0001
0010
0100
0000
0010
1000
0100
0000
0010
0000
0002
0000
,  // measure 45
0000
1003
1001
0000
0000
0000
0000
0000
,  // measure 46
0200
0300
0010
0002
0003
0100
0010
0200
,  // measure 47
0300
1000
0100
1000
0100
0010
0001
0100
,  // measure 48
0020
0030
0100
0020
0000
0000
0000
0030
,  // measure 49
0001
0010
0100
0010
1000
0100
1000
0100
,  // measure 50
0020
0000
0030
0000
0001
0000
0100
0000
0010
0000
0100
0000
0010
0100
0010
0000
,  // measure 51
0002
0003
0100
0010
0010
0100
1000
0100
,  // measure 52
0020
0030
0001
0100
0010
0001
0100
0001
,  // measure 53
0000
1001
0000
1000
0000
1001
0110
0110
,  // measure 54
0100
0010
1000
0200
0300
0010
0001
0200
,  // measure 55
0300
0000
0010
0000
0200
0000
0300
0000
0020
0000
0000
0100
0000
0000
0100
0000
,  // measure 56
1030
0001
0100
2000
3000
0100
0010
0001
,  // measure 57
0100
0000
0010
0000
0200
0000
0300
0000
0020
0000
0000
0001
0000
0000
0100
0000
,  // measure 58
0031
0000
1000
0000
0100
0000
0001
0000
0100
0001
0010
0000
0100
0000
1000
0000
,  // measure 59
0100
0000
0010
0000
0001
0000
0100
0000
0010
0100
0010
0000
1000
0000
0100
0000
,  // measure 60
0020
0000
0130
0000
0002
0000
0103
0000
2000
0000
3100
0000
0100
0010
0001
0100
,  // measure 61
0020
0000
0000
0000
0230
0000
0000
0000
0310
0000
0000
0010
0000
0000
0100
0000
,  // measure 62
0100
1000
0100
0000
0010
0000
0100
0000
0001
0000
0100
0000
0001
0010
0100
0000
,  // measure 63
0020
0000
0130
0010
2000
0000
3100
0000
,  // measure 64
0100
0010
0200
0000
0000
0301
0000
0000
,  // measure 65
0200
0000
0000
0310
0000
2000
0000
3100
,  // measure 66
0010
0100
0020
0000
0000
0031
0000
0000
,  // measure 67
0200
0000
0000
1300
0000
0010
0100
0010
,  // measure 68
0100
0010
0002
0000
0000
0103
0000
0000
,  // measure 69
2000
0000
0000
3100
0000
0001
1000
0100
,  // measure 70
0010
0100
0020
0000
0000
0130
0000
0000
,  // measure 71
0020
0000
0000
0000
0000
0000
0031
0000
0000
0000
0100
0000
0010
0100
0010
0100
,  // measure 72
0010
0001
1000
0001
1000
0100
2000
3000
,  // measure 73
0100
0010
0001
0100
0010
0100
2000
3000
,  // measure 74
0100
0000
0010
0000
0001
0000
0100
0000
0010
0100
0010
0000
0020
0000
0030
0000
,  // measure 75
1000
0000
0100
0000
1000
0000
0100
0000
0010
0100
0001
0000
0200
0000
0300
0000
,  // measure 76
0100
0001
0010
0000
0001
0010
0100
0000
0010
0001
0100
0000
1000
0000
0100
0000
,  // measure 77
0010
0100
0001
0000
0100
1000
0010
0000
0100
0000
0001
0000
1000
0000
0010
0000
,  // measure 78
0100
0110
0000
0100
0110
0000
0010
0110
,  // measure 79
0000
0010
0110
0000
2002
0000
0000
3003
,  // measure 80
0100
0000
0010
0200
0300
0001
0100
0020
,  // measure 81
0030
0000
1100
0000
0000
0000
0020
0000
0030
0000
0101
0000
0100
0001
0010
0000
,  // measure 82
0100
0010
0100
0010
0000
0001
0100
0001
,  // measure 83
0100
0010
0100
1000
0100
1000
0100
0010
,  // measure 84
0002
0003
0100
0010
0100
0010
0100
1000
,  // measure 85
0200
0300
0010
0100
0001
0010
0100
0010
,  // measure 86
0001
0100
0010
0200
0300
1000
0100
0020
,  // measure 87
0000
0230
0000
0320
0001
0130
0010
0001
,  // measure 88
0100
0010
0100
2000
3000
0100
0010
0001
,  // measure 89
0100
0000
0010
0000
0200
0000
0300
0000
2010
0000
0000
0001
0000
0000
0100
0000
,  // measure 90
3100
0010
0001
0100
0010
0100
1000
0100
,  // measure 91
0010
0000
0001
0000
0200
0000
0000
0000
0001
0000
0000
0010
0000
0000
0001
0000
,  // measure 92
1300
0001
0010
0000
0001
0000
0100
0000
0010
0000
0001
0000
0100
0000
1000
0000
,  // measure 93
0100
0010
0100
0000
0001
0000
0100
0000
0010
0000
0100
0000
0010
0000
0001
0000
,  // measure 94
0100
0010
0100
0001
1000
0000
0010
0000
0100
0000
0010
0000
0100
0000
0010
0000
,  // measure 95
0002
0000
0000
0000
0100
0000
0010
0000
1003
0000
0000
1100
0000
0000
1000
0000
,  // measure 96
0100
0010
0010
0001
0100
0000
0010
0000
0001
0000
0100
0000
0010
0000
1000
0000
,  // measure 97
0100
0001
0010
0000
0001
0000
0100
0000
0010
0000
0100
0000
1000
0000
0100
0000
,  // measure 98
0010
0100
0001
0000
0100
0000
0010
0000
0100
0000
0010
0000
1000
0000
0100
0000
,  // measure 99
0011
0000
0000
0110
0000
0000
1001
0000
1100
0000
0000
0110
0000
0000
2002
0000
,  // measure 100
0000
0000
0000
3013
0100
0010
0100
0010
,  // measure 101
0001
0100
0010
0100
1000
0100
0010
0001
,  // measure 102
0100
0010
0100
1000
0100
0010
0001
0100
,  // measure 103
0010
0100
1000
0100
0010
0001
0100
0010
,  // measure 104
1000
0000
0100
0000
0010
0000
0001
0000
0100
0001
0010
0000
1000
0000
0100
0000
,  // measure 105
0010
0000
0100
0000
0001
0000
0010
0000
0100
1000
0010
0000
0001
0000
0100
0000
,  // measure 106
0010
0000
1000
0000
0100
0000
0010
0000
0001
0010
0100
0000
0010
0000
1000
0000
,  // measure 107
0100
0010
0001
1000
0000
1001
0000
0100
,  // measure 108
0010
0000
0100
0000
0010
0001
0100
0000
0010
0100
0001
0000
0010
0000
0100
0000
,  // measure 109
1000
0000
0100
0000
0010
0000
0001
0000
0100
0001
0010
0000
0200
0000
0000
0000
,  // measure 110
2310
0000
0000
0001
0000
0000
0010
0000
3100
0001
0010
0000
0001
0000
0100
0000
,  // measure 111
0010
0000
1000
0000
0100
0000
0010
0000
0001
0010
0100
0000
0020
0000
0000
0000
,  // measure 112
0230
0000
0000
0001
0000
0000
1000
0000
0310
0001
0010
0000
0100
0000
0010
0000
,  // measure 113
1000
0000
0100
0000
0010
0000
0001
0000
0100
0010
0100
0000
1000
0000
0100
0000
,  // measure 114
0010
0000
0001
0000
0100
0000
0010
0000
0100
0001
0010
0000
0100
0010
0001
0000
,  // measure 115
0100
0000
1000
0000
0100
0000
0010
0000
0100
0001
0010
0100
0010
0100
0010
0100
,  // measure 116
0010
0001
0100
0010
1001
0000
0000
0000
0100
0000
0010
0000
0100
0000
0020
0000
,  // measure 117
0030
0001
0100
0001
2000
3000
0000
0010
,  // measure 118
0001
0100
0010
0100
0010
0001
0100
0020
,  // measure 119
0030
0100
1000
0100
2000
3000
0000
0010
,  // measure 120
0001
0001
0100
0010
0100
0010
0100
0020
,  // measure 121
0030
0100
0010
0001
0200
0300
0000
0100
,  // measure 122
0010
0100
0010
0001
1000
0100
1000
0200
,  // measure 123
0300
0100
0010
0001
0200
0300
0000
0100
,  // measure 124
0010
0000
0001
0010
0200
0000
0000
0000
0000
0000
0000
0000
0020
0000
0000
0000
,  // measure 125
0000
0000
0000
0000
,  // measure 126
0000
0000
0331
0000
;

//---------------dance-single - Wrland---------------
#NOTEDATA:;
#CHARTNAME:;
#CHARTSTYLE:Pad;
#CREDIT:Wrland;
#STEPSTYPE:dance-single;
#DESCRIPTION:Wrland;
#DIFFICULTY:Challenge;
#METER:18;
#METERF:18;
#RADARVALUES:0,0,0,0,0;
#NOTES:
// measure 0
0000
0000
0000
0000
,  // measure 1
2000
0010
0100
0100
0010
0001
0100
0000
,  // measure 2
3002
0010
0100
0000
0203
0001
0010
0000
,  // measure 3
0320
0000
0100
1000
0100
1000
0100
0000
,  // measure 4
2030
0000
0100
0010
3200
0000
0000
0000
,  // measure 5
2300
0000
0001
0100
0001
0100
0001
0000
,  // measure 6
3200
0010
0321
0100
,  // measure 7
1032
0000
0100
1000
0100
1000
0100
0000
,  // measure 8
0203
0010
0321
0000
,  // measure 9
0032
0000
0100
0010
0100
0010
0100
0000
,  // measure 10
2003
0001
3210
0000
,  // measure 11
2300
0000
0010
0100
0010
0001
0100
0000
,  // measure 12
3200
0010
0321
1000
,  // measure 13
0132
0000
1000
0100
1000
0100
1000
0000
,  // measure 14
0203
0000
0010
0001
0320
0000
1000
0100
,  // measure 15
1032
0000
0100
0000
0010
0000
0100
0010
,  // measure 16
0203
0000
0010
0000
0001
0010
1301
0000
,  // measure 17
0100
0010
0100
0020
0030
0100
0010
0100
,  // measure 18
0010
0100
0010
0000
0001
0000
0010
0000
0100
0000
0010
0000
0100
0000
0010
0000
,  // measure 19
0100
1000
0100
0020
0030
0100
1000
0100
,  // measure 20
0010
0100
0010
0000
0100
0000
0010
0000
0001
0000
0100
0000
0010
0000
0100
0000
,  // measure 21
1000
0100
0010
0002
0003
0100
0010
0100
,  // measure 22
0010
0100
0010
0000
0001
0000
0010
0000
0001
0000
0100
0000
0010
0000
1000
0000
,  // measure 23
0100
0010
0001
0200
0300
0010
0100
1000
,  // measure 24
0100
0010
0001
0000
0010
0000
0100
0000
0010
0000
0100
0000
1000
0000
0100
0000
,  // measure 25
0010
0100
0010
0200
0300
0010
0001
0100
,  // measure 26
0010
0001
0010
0000
0100
0000
1000
0000
0100
0000
1000
0000
0100
0000
0010
0000
,  // measure 27
0001
0100
0010
0200
0300
0100
0010
0001
,  // measure 28
0100
0010
0001
0000
0010
0000
0100
0000
1000
0000
0100
0000
0010
0000
0001
0000
,  // measure 29
0100
0010
0100
2000
3000
0100
1000
0100
,  // measure 30
0010
0100
0010
0000
0001
0000
0100
0000
0001
0000
0100
0000
0010
0000
0100
0000
,  // measure 31
1000
0100
0010
0002
0003
0100
0010
0100
,  // measure 32
1000
0100
0010
0000
0100
0000
0010
0000
0001
0000
0100
0000
0010
0000
0100
0000
,  // measure 33
2002
0000
0000
0000
0000
0000
0000
3003
,  // measure 34
0100
0000
0010
0100
0010
0000
0100
0010
0001
0000
0100
0000
0010
0000
0100
1000
,  // measure 35
0100
0000
1000
0000
0100
0000
0010
0001
0100
0000
0010
0000
0100
0000
1000
0100
,  // measure 36
1000
0000
0100
0000
0010
0000
0001
0100
0001
0000
0100
0010
0100
0000
1000
0100
,  // measure 37
1000
0000
0100
0000
0010
0000
0001
0100
0001
0000
0100
0000
0010
0000
0100
0000
,  // measure 38
1000
0000
0000
0000
0100
0000
1000
0000
0100
0000
0010
0000
0100
0000
0010
0000
0000
0000
0100
0000
0001
0000
0100
0000
0001
0000
0000
0100
0000
0000
0010
0000
,  // measure 39
0001
0000
0000
0000
0010
0000
0100
0000
0010
0000
0100
0000
1000
0000
0100
0000
0010
0000
0001
0000
0100
0000
0000
0000
0010
0000
0000
0100
0000
0000
0010
0000
,  // measure 40
0001
0100
0010
0100
0001
1000
0100
1000
0010
0100
0010
0100
0010
0100
0010
0000
,  // measure 41
0001
0100
0001
0100
0010
0100
1000
0100
0010
0001
0100
0010
0100
1000
0100
0010
,  // measure 42
0002
0100
0010
0100
0010
1000
0100
2003
,  // measure 43
0100
0000
0010
0000
0001
0000
0100
0000
3200
0001
0010
0000
0320
0001
0100
0000
,  // measure 44
0031
1000
0010
0100
0100
0010
1000
0010
0100
0010
0100
0001
0100
0010
2002
0000
,  // measure 45
0000
3003
0100
0000
0220
0000
0000
0330
0002
0003
0200
0300
0020
0030
0200
0300
,  // measure 46
0020
0130
0002
0103
0000
0010
0200
1300
,  // measure 47
0100
0010
0001
0000
0010
0100
1000
0000
0010
0001
0100
0000
1000
0010
0100
0000
,  // measure 48
0010
0000
0100
0000
1010
0000
0020
0000
0100
1000
0130
0000
0200
0010
0001
0300
,  // measure 49
1000
0001
0010
0100
0001
0010
0100
1000
0010
0000
0100
0000
0010
0000
0001
0000
,  // measure 50
0200
0000
0300
0000
0010
0000
0100
0010
0001
0000
0100
0000
0010
0000
0001
0000
,  // measure 51
0100
0000
0010
0100
0001
0000
0010
0000
0100
0000
0100
0000
1000
0000
0100
0000
,  // measure 52
1000
0000
0100
0010
0001
0000
0100
0000
0010
0000
0001
0000
0100
0000
0202
0000
,  // measure 53
0303
0000
2020
0000
3030
0000
0101
0000
0010
0000
1001
0000
0100
0010
0100
0000
,  // measure 54
0100
0010
0100
0010
0001
0100
0010
0100
,  // measure 55
1000
0010
0100
0000
0010
0001
0010
0000
2200
3300
0000
0220
0330
0000
0202
0303
,  // measure 56
0001
0010
0100
0010
0001
0100
0010
0100
,  // measure 57
0010
0001
0100
0000
2000
0000
3100
0000
0022
0033
0000
2200
3300
0000
0220
0330
,  // measure 58
0001
0000
0010
0100
0001
0000
0100
0000
0010
0000
0001
0000
0100
0000
0010
0000
,  // measure 59
0100
0010
0100
0000
1000
0000
0100
0000
1000
0000
0100
0000
0010
0000
0001
0000
,  // measure 60
0100
0001
0010
1000
0010
0001
0100
1000
0010
0100
0001
0010
0100
1000
0010
0000
,  // measure 61
0202
0000
0303
0000
2200
0000
3300
0000
0220
0330
0000
2200
3300
0000
0220
0330
,  // measure 62
0001
1000
0010
0100
0010
1000
0010
0100
0001
0010
0100
0001
0010
0001
0100
0010
,  // measure 63
2000
0010
0100
0010
3020
0030
1101
0000
,  // measure 64
0100
0010
0201
0000
0300
1020
0000
0030
,  // measure 65
0102
0000
0003
0201
0300
2010
3000
0100
,  // measure 66
0010
0001
1200
0000
0300
0021
0000
0030
,  // measure 67
1200
0000
0300
0012
0003
1000
0100
0001
,  // measure 68
0010
0100
0021
0000
0030
1020
0000
0030
,  // measure 69
0210
0000
0300
2001
3000
0102
0003
0100
,  // measure 70
0010
0100
1020
0000
0030
0201
0000
0300
,  // measure 71
1020
0000
0030
0102
0003
0100
0010
0100
,  // measure 72
0010
0100
0010
0001
0100
0010
0001
0100
,  // measure 73
0010
0100
0010
0000
1000
0010
0100
0000
0010
0000
0100
0000
0020
0000
0030
0000
,  // measure 74
0001
0100
0001
0100
0010
0100
0010
1000
,  // measure 75
0100
0001
0010
0000
0001
0010
0100
0000
0010
0000
0100
0000
2000
0000
3000
0000
,  // measure 76
0100
0001
0010
0100
0001
0010
0100
0001
0010
0100
0010
0100
2000
0000
3000
0000
,  // measure 77
0100
0010
0100
0010
0100
0001
0010
0100
0001
0010
0100
0001
0020
0000
0030
0000
,  // measure 78
0100
0200
0300
1000
2000
3000
0001
0002
,  // measure 79
0003
0000
0100
0000
0200
0000
0300
0000
0010
0100
0010
0000
0010
0000
0001
0000
,  // measure 80
0200
0300
0010
0200
0300
0001
0100
0022
,  // measure 81
0033
2200
3300
0220
0330
1001
0220
0330
,  // measure 82
0100
0000
0010
0000
0100
0000
0020
0000
1000
0100
1030
0000
0002
0000
0000
0003
,  // measure 83
0100
0001
0010
0001
0100
0000
0010
0000
1000
0000
0100
0000
1000
0000
0100
0000
,  // measure 84
2000
0000
3000
0000
0100
0001
0010
0100
0001
0010
0100
0001
0010
0000
0100
0000
,  // measure 85
2000
3100
0200
0310
0002
0103
0020
0130
,  // measure 86
0010
0100
0001
0000
0100
0000
0010
0000
0100
0000
0010
0000
0100
0000
0022
0000
,  // measure 87
0033
0000
2200
0000
3300
0000
0220
0000
0330
0000
2002
0000
3013
0000
0100
1000
,  // measure 88
0010
0001
0100
0100
0010
0001
0100
0010
,  // measure 89
1000
0000
0000
0010
0000
0000
0100
0000
0000
0000
0000
0000
0010
0000
0000
0001
0000
0000
0010
0000
0000
0000
0000
0000
0022
0000
0000
0000
0033
0000
0000
0000
0000
0220
0000
0000
0330
0000
0000
0000
0000
0000
2200
0000
0000
3300
0000
0000
,  // measure 90
0001
1000
0010
0100
0010
0100
0010
1000
0001
0000
0100
0000
0010
0000
0100
0000
,  // measure 91
0010
0001
0100
0000
1000
0100
0001
0000
0220
0330
0000
2200
3300
0000
0220
0330
,  // measure 92
0001
0000
0001
0000
1000
0000
0100
0000
0010
0001
0100
1000
0010
0000
0001
0000
,  // measure 93
0100
0000
0010
0000
0010
0000
0100
0000
1000
0010
0100
0100
0010
0000
0001
0000
,  // measure 94
0100
0000
0010
0000
0010
0000
0100
0000
0010
0100
0001
0010
0001
0100
0010
0001
,  // measure 95
0200
0000
0000
0000
0000
0000
0300
0000
2000
0000
3000
0200
0000
0300
0020
0030
,  // measure 96
0201
0010
0001
0000
0010
0001
0010
0000
0010
1000
0301
0000
0010
0000
0200
0000
,  // measure 97
0010
1000
0010
0000
0010
1000
0010
0000
0001
0010
1000
0000
0010
0000
1300
0000
,  // measure 98
0020
0000
0100
0000
1000
0000
0100
0000
0001
0100
1000
0000
0100
0000
1030
0000
,  // measure 99
0220
0330
0000
2002
3003
0000
0220
0330
0220
0330
0000
2002
3003
0000
0220
0000
,  // measure 100
0000
0000
0000
0000
0330
0000
1001
0000
0100
0001
0010
0000
0001
0010
0100
0000
,  // measure 101
0010
0001
0100
0000
1000
0000
0100
0000
0010
0100
0001
0000
0100
0001
0010
0000
,  // measure 102
0100
0010
1000
0000
0100
0000
0010
0000
0001
0010
0100
0000
0010
0100
0001
0000
,  // measure 103
0100
0001
0010
0000
0100
0000
1000
0000
0100
0001
0010
0000
0001
0010
0100
0000
,  // measure 104
0010
0001
0100
0000
1000
0000
0100
0000
0020
0000
0031
0000
0200
0000
0310
0000
,  // measure 105
0200
1300
0200
0310
0002
0103
0020
0130
,  // measure 106
2000
3100
0020
0031
0200
0310
0200
1300
,  // measure 107
0200
0310
0002
0103
0000
0011
0000
1010
,  // measure 108
0100
0001
0100
0000
0010
0000
0001
0000
0100
0010
0001
0100
0010
0000
0001
0000
,  // measure 109
0100
0000
0010
0000
0001
0000
0100
0000
0010
1000
0100
0010
1000
0000
0100
0000
,  // measure 110
0022
0033
0000
2200
3300
0000
0022
0033
0001
0010
0100
1000
0010
0001
0100
0010
,  // measure 111
1000
0010
0100
1000
0010
0100
0001
0010
0100
1000
0010
0100
0001
0010
0100
0001
,  // measure 112
0220
0330
0000
2200
3300
0000
0022
0033
0001
0010
0100
1000
0010
0000
0001
0000
,  // measure 113
0100
0000
0010
0000
0100
0000
1000
0000
0100
0001
0010
0000
0001
0000
0100
0000
,  // measure 114
0010
0000
0100
0000
1000
0000
0100
0000
0010
0001
0001
0010
0100
1000
0010
0000
,  // measure 115
0100
0000
1000
0000
0010
0000
0100
0000
0002
0023
2030
3200
0320
0032
0023
0030
,  // measure 116
0100
0010
0100
0010
1001
0000
0000
0000
0100
0000
0010
0000
0100
0000
0020
0000
,  // measure 117
0030
0000
0100
0000
0010
0000
0100
0000
0010
0100
0010
0000
0001
0000
0010
0000
,  // measure 118
0100
0010
0100
0010
0100
1000
0100
0020
,  // measure 119
0030
0000
0100
0000
1000
0000
0100
0000
0010
0100
0010
0000
0100
0000
0010
0000
,  // measure 120
0001
0100
0010
0100
1000
0100
0010
0002
,  // measure 121
0003
0000
0100
0000
0010
0000
0100
0000
0010
0100
0010
0000
0001
0000
0010
0000
,  // measure 122
0001
0100
0010
1000
0100
0010
0001
0200
,  // measure 123
0300
0000
0010
0000
0100
0000
1000
0000
0100
0010
0001
0000
0010
0000
0100
0000
,  // measure 124
0010
0100
1000
0200
0000
0300
2012
0000
,  // measure 125
0000
0000
0000
0000
,  // measure 126
0000
0000
3003
0000
;
