#VERSION:0.83;
#TITLE:Chemical;
#SUBTITLE:;
#ARTIST:아뽀키;
#TITLETRANSLIT:;
#SUBTITLETRANSLIT:;
#ARTISTTRANSLIT:APOKI;
#GENRE:K-Pop;
#CREDIT:VV;
#MUSIC:Chemical.ogg;
#BANNER:Chemical.png;
#BACKGROUND:BG.png;
#JACKET:Chemical-jacket.png;
#DISCIMAGE:;
#CDIMAGE:;
#SELECTABLE:YES;
#LYRICSPATH:;
#CDTITLE:Korean.png;
#SAMPLESTART:73.712;
#SAMPLELENGTH:15;
#OFFSET:-0.001;
#BPMS:0.000000=128.000000;
#STOPS:;
#WARPS:;
#DELAYS:;
#SPEEDS:0.000000=1.000000=0.000000=0,
70.000000=3.000000=0.000000=0,
70.500000=1.000000=0.000000=0,
70.750000=3.000000=0.000000=0,
71.250000=1.000000=0.000000=0,
74.000000=3.000000=0.000000=0,
74.500000=1.000000=0.000000=0,
74.750000=3.000000=0.000000=0,
75.250000=1.000000=0.000000=0,
78.000000=3.000000=0.000000=0,
78.500000=1.000000=0.000000=0,
78.750000=3.000000=0.000000=0,
79.250000=1.000000=0.000000=0,
82.000000=3.000000=0.000000=0,
82.500000=1.000000=0.000000=0,
82.750000=3.000000=0.000000=0,
83.250000=1.000000=0.000000=0,
86.000000=3.000000=0.000000=0,
86.500000=1.000000=0.000000=0,
86.750000=3.000000=0.000000=0,
87.250000=1.000000=0.000000=0,
90.000000=3.000000=0.000000=0,
90.500000=1.000000=0.000000=0,
90.750000=3.000000=0.000000=0,
91.250000=1.000000=0.000000=0,
94.000000=3.000000=0.000000=0,
94.500000=1.000000=0.000000=0,
94.750000=3.000000=0.000000=0,
95.250000=1.000000=0.000000=0,
98.000000=3.000000=0.000000=0,
98.500000=1.000000=0.000000=0,
98.750000=3.000000=0.000000=0,
99.250000=1.000000=0.000000=0,
106.000000=3.000000=0.000000=0,
106.500000=1.000000=0.000000=0,
106.750000=3.000000=0.000000=0,
107.250000=1.000000=0.000000=0,
114.000000=3.000000=0.000000=0,
114.500000=1.000000=0.000000=0,
114.750000=3.000000=0.000000=0,
115.250000=1.000000=0.000000=0,
122.000000=3.000000=0.000000=0,
122.500000=1.000000=0.000000=0,
122.750000=3.000000=0.000000=0,
123.250000=1.000000=0.000000=0,
202.000000=0.800000=0.000000=0,
202.250000=1.000000=0.000000=0,
202.750000=0.800000=0.000000=0,
203.000000=1.000000=0.000000=0,
206.000000=0.800000=0.000000=0,
206.250000=1.000000=0.000000=0,
206.750000=0.800000=0.000000=0,
207.000000=1.000000=0.000000=0,
210.000000=3.000000=0.000000=0,
210.500000=1.000000=0.000000=0,
210.750000=3.000000=0.000000=0,
211.250000=1.000000=0.000000=0,
214.000000=3.000000=0.000000=0,
214.500000=1.000000=0.000000=0,
214.750000=3.000000=0.000000=0,
215.250000=1.000000=0.000000=0,
218.000000=3.000000=0.000000=0,
218.500000=1.000000=0.000000=0,
218.750000=3.000000=0.000000=0,
219.250000=1.000000=0.000000=0,
222.000000=3.000000=0.000000=0,
222.500000=1.000000=0.000000=0,
222.750000=3.000000=0.000000=0,
223.250000=1.000000=0.000000=0,
226.000000=3.000000=0.000000=0,
226.500000=1.000000=0.000000=0,
226.750000=3.000000=0.000000=0,
227.250000=1.000000=0.000000=0,
230.000000=3.000000=0.000000=0,
230.500000=1.000000=0.000000=0,
230.750000=3.000000=0.000000=0,
231.250000=1.000000=0.000000=0
;
#SCROLLS:;
#TICKCOUNTS:;
#TIMESIGNATURES:;
#LABELS:;
#COMBOS:;
#FAKES:;
#BGCHANGES:0.000=Chemical.avi=0.000=0=0=0=StretchNoLoop====,
99999=-nosongbg-=1.000=0=0=0 // don't automatically add -songbackground-
;
#FGCHANGES:;
#ATTACKS:;
#TAGS:DMCA;
#DISPLAYBPM:128.000;

//---------------dance-single - Wrland---------------
#NOTEDATA:;
#CHARTNAME:;
#CHARTSTYLE:Pad;
#CREDIT:Wrland;
#STEPSTYPE:dance-single;
#DESCRIPTION:Wrland;
#DIFFICULTY:Beginner;
#METER:2;
#METERF:2;
#RADARVALUES:0,0,0,0,0;
#NOTES:
// measure 0
0000
0000
0000
0000
,  // measure 1
0000
0000
1000
0000
,  // measure 2
0000
0000
0001
0000
,  // measure 3
0000
0000
0100
0000
,  // measure 4
0000
0000
0010
0000
,  // measure 5
0000
0000
0100
0000
,  // measure 6
0000
0000
1000
0000
,  // measure 7
0000
0000
1000
0000
,  // measure 8
0000
0000
0001
0000
,  // measure 9
0000
0000
0010
0000
,  // measure 10
0000
0000
0100
0000
,  // measure 11
0000
0000
0100
0000
,  // measure 12
0000
0000
0001
0000
,  // measure 13
0000
0000
0010
0001
,  // measure 14
0100
0000
0010
0100
,  // measure 15
1000
0000
0001
1000
,  // measure 16
0001
0000
0000
0000
,  // measure 17
0000
0000
1000
0000
,  // measure 18
1000
0000
0001
0000
,  // measure 19
0001
0000
0100
0000
,  // measure 20
0100
0000
0001
0000
,  // measure 21
0001
0000
0010
0000
,  // measure 22
0100
0000
1000
0000
,  // measure 23
0100
0000
0010
0000
,  // measure 24
0001
0000
0000
0000
0200
0000
0000
0300
,  // measure 25
0001
0100
0001
0000
0100
0000
0000
0000
,  // measure 26
0100
0010
0001
0100
0010
0000
0000
0000
,  // measure 27
1000
0000
1000
0000
,  // measure 28
0001
0100
0001
0100
0010
0000
0000
0000
,  // measure 29
1000
0100
1000
0000
0100
0000
0000
0000
,  // measure 30
0001
0100
0001
0100
0010
0000
0000
0000
,  // measure 31
1000
0000
1000
0100
,  // measure 32
0001
0010
0100
0010
,  // measure 33
0001
0100
0001
0000
0000
0000
0000
0000
,  // measure 34
0000
0000
0100
0000
,  // measure 35
0000
0000
0010
0000
,  // measure 36
0000
0000
1000
0000
,  // measure 37
0000
0000
0010
0000
,  // measure 38
0000
0000
0100
0000
,  // measure 39
0000
0000
0001
0000
,  // measure 40
0000
0000
0010
0000
,  // measure 41
0000
0000
0100
0000
,  // measure 42
0000
0000
0010
0000
,  // measure 43
0000
0000
0100
0000
,  // measure 44
0000
0000
0100
0000
,  // measure 45
0000
0000
0001
0000
,  // measure 46
0000
0000
0010
0001
,  // measure 47
0100
0000
0010
0100
,  // measure 48
1000
0000
0001
1000
,  // measure 49
0002
0000
0000
0000
,  // measure 50
0000
0003
1000
0000
,  // measure 51
1000
0000
0001
0000
,  // measure 52
0001
0000
0100
0000
,  // measure 53
0100
0000
0001
0000
,  // measure 54
0001
0000
0010
0000
,  // measure 55
0100
0000
1000
0000
,  // measure 56
0100
0000
0010
0000
,  // measure 57
0001
0000
0000
0000
0200
0000
0000
0300
,  // measure 58
0001
0100
0001
0000
0100
0000
0000
0000
,  // measure 59
0100
0010
0001
0100
0010
0000
0000
0000
,  // measure 60
1000
0000
1000
0000
,  // measure 61
0001
0100
0001
0100
0010
0000
0000
0000
,  // measure 62
1000
0100
1000
0000
0100
0000
0000
0000
,  // measure 63
0001
0100
0001
0100
0010
0000
0000
0000
,  // measure 64
1000
0000
1000
0100
,  // measure 65
0001
0010
0100
0010
,  // measure 66
0001
0100
0001
0000
0000
0000
0000
0000
;

//---------------dance-single - Wrland---------------
#NOTEDATA:;
#CHARTNAME:;
#CHARTSTYLE:Pad;
#CREDIT:Wrland;
#STEPSTYPE:dance-single;
#DESCRIPTION:Wrland;
#DIFFICULTY:Easy;
#METER:4;
#METERF:4;
#RADARVALUES:0,0,0,0,0;
#NOTES:
// measure 0
0000
0000
0000
0000
,  // measure 1
0000
0000
1000
0000
,  // measure 2
1000
0000
0001
0000
,  // measure 3
0001
0000
0100
0000
,  // measure 4
0100
0000
0010
0000
,  // measure 5
0010
0000
0100
0000
,  // measure 6
0100
0000
1000
0000
,  // measure 7
0100
0000
1000
0000
,  // measure 8
0100
0000
0001
0000
,  // measure 9
0100
0000
0010
0000
,  // measure 10
1000
0000
0100
0000
,  // measure 11
1000
0000
0100
0000
,  // measure 12
0010
0000
0001
0000
,  // measure 13
0100
0000
0010
0001
,  // measure 14
0100
0000
0010
0100
,  // measure 15
1000
0000
0001
1000
,  // measure 16
0001
0000
0000
0000
,  // measure 17
0000
0000
1000
1000
,  // measure 18
1000
0001
0001
0001
,  // measure 19
0001
1000
0100
0100
,  // measure 20
0100
0010
0001
0001
,  // measure 21
0001
0100
0010
0010
,  // measure 22
0100
0100
1000
1000
,  // measure 23
0100
0100
0010
0010
,  // measure 24
0001
0000
0001
0000
0200
0000
0000
0300
,  // measure 25
0001
0100
0001
0000
0100
0000
0010
0000
,  // measure 26
0100
0010
0001
0100
0010
0000
0100
0000
,  // measure 27
1000
0100
1000
0100
,  // measure 28
0001
0100
0001
0100
0010
0000
0100
0000
,  // measure 29
1000
0100
1000
0000
0100
0000
0010
0000
,  // measure 30
0001
0100
0001
0100
0010
0000
0100
0000
,  // measure 31
1000
0100
1000
0100
,  // measure 32
0001
0010
0100
0010
,  // measure 33
0001
0100
0001
0000
0000
0000
0000
0000
,  // measure 34
0000
0000
0100
0000
,  // measure 35
0100
0000
0010
0000
,  // measure 36
0001
0000
1000
0000
,  // measure 37
0100
0000
0010
0000
,  // measure 38
0001
0000
0100
0000
,  // measure 39
0010
0000
0001
0000
,  // measure 40
0100
0000
0010
0000
,  // measure 41
0001
0000
0100
0000
,  // measure 42
1000
0000
0010
0000
,  // measure 43
1000
0000
0100
0000
,  // measure 44
1000
0000
0100
0000
,  // measure 45
0010
0000
0001
0000
,  // measure 46
0100
0000
0010
0001
,  // measure 47
0100
0000
0010
0100
,  // measure 48
1000
0000
0001
1000
,  // measure 49
0002
0000
0000
0000
,  // measure 50
0000
0003
1000
1000
,  // measure 51
1000
0000
0001
0001
,  // measure 52
0001
0000
0100
0100
,  // measure 53
0100
0010
0001
0001
,  // measure 54
0001
0100
0010
0010
,  // measure 55
0100
0100
1000
1000
,  // measure 56
0100
0100
0010
0010
,  // measure 57
0001
0000
0001
0000
0200
0000
0000
0300
,  // measure 58
0001
0100
0001
0000
0100
0000
0010
0000
,  // measure 59
0100
0010
0001
0100
0010
0000
0100
0000
,  // measure 60
1000
0100
1000
0100
,  // measure 61
0001
0100
0001
0100
0010
0000
0100
0000
,  // measure 62
1000
0100
1000
0000
0100
0000
0010
0000
,  // measure 63
0001
0100
0001
0100
0010
0000
0100
0000
,  // measure 64
1000
0100
1000
0100
,  // measure 65
0001
0010
0100
0010
,  // measure 66
0001
0100
0001
0000
0000
0000
0000
0000
;

//---------------dance-single - Wrland---------------
#NOTEDATA:;
#CHARTNAME:;
#CHARTSTYLE:Pad;
#CREDIT:Wrland;
#STEPSTYPE:dance-single;
#DESCRIPTION:Wrland;
#DIFFICULTY:Medium;
#METER:8;
#METERF:8;
#RADARVALUES:0,0,0,0,0;
#NOTES:
// measure 0
0000
0000
0000
0000
,  // measure 1
0000
0000
1000
0001
,  // measure 2
1000
1000
0001
1000
,  // measure 3
0001
1000
0001
0000
0100
0000
0010
0000
,  // measure 4
0100
0010
0100
0000
0001
0000
0100
0000
,  // measure 5
0001
0100
0001
0000
0010
0000
0100
0000
,  // measure 6
0010
0100
1000
0000
0100
0000
1000
0000
,  // measure 7
0100
1000
0100
0000
0100
0000
0010
0000
,  // measure 8
0001
0100
0001
0000
0100
0000
0010
0000
,  // measure 9
0100
0000
0010
0000
0100
0000
0000
0000
1000
0000
0001
0000
0000
1000
0000
0000
,  // measure 10
0100
0000
0000
1000
0000
0000
0100
0000
1000
0000
0100
1000
0001
0000
0100
0000
,  // measure 11
0010
0000
0000
0100
0000
0000
0010
0000
0001
0000
0100
0000
0000
0010
0000
0000
,  // measure 12
0100
0000
0000
1000
0000
0000
0100
0000
1000
0000
0100
1000
0010
0000
0100
0000
,  // measure 13
0010
0000
0000
0001
0000
0000
0100
0000
0010
0000
0000
0001
0000
1000
0100
0000
,  // measure 14
0010
0000
0100
0000
0010
0000
0001
0000
0100
0000
0001
0100
0000
0000
0010
0000
,  // measure 15
0100
0000
0010
0000
0001
0000
0100
0000
0010
0000
0100
0010
0000
0000
0100
0000
,  // measure 16
1000
0100
0010
0001
0200
0000
0000
0000
,  // measure 17
0000
0000
0000
0000
0310
0000
0000
0000
0001
0000
0000
0100
0000
0000
0001
0000
,  // measure 18
0000
0100
0000
0000
0010
0000
0100
0000
1000
0000
0000
0100
0000
0000
1000
0000
,  // measure 19
0000
0100
0000
0000
1000
0000
0100
0000
0010
0000
0000
0001
0000
0000
0100
0000
,  // measure 20
0000
0010
0000
0000
0001
0000
0100
0000
0001
0000
0000
0100
0000
0000
0010
0000
,  // measure 21
0000
0100
0000
0000
1000
0000
0100
0000
1000
0000
0000
0100
0000
0000
1000
0000
,  // measure 22
0000
0100
0000
0000
0100
0000
0010
0000
0001
0000
0000
0100
0000
0000
0010
0000
,  // measure 23
0000
0001
0000
0000
0100
0000
0010
0000
0100
0000
0000
0100
0000
0000
0010
0000
,  // measure 24
0000
0001
0000
0000
0100
0000
0100
0000
0010
0000
0000
0100
0000
0000
1000
0000
,  // measure 25
0000
0100
0000
0000
0010
0000
0100
0000
0020
0000
0000
0000
0030
0000
1000
0000
,  // measure 26
0100
0000
0001
0000
1000
0000
0001
0000
1000
0000
0000
0001
0000
0000
1000
0000
,  // measure 27
0000
0100
0000
0000
1000
0000
0100
0000
2000
0000
0000
3000
0000
0000
0001
0000
,  // measure 28
0100
0000
0001
0000
0100
0000
0010
0000
0100
0000
0000
0100
0000
0000
0010
0000
,  // measure 29
0000
0001
0000
0000
0100
0000
0001
0000
0200
0000
0000
0300
0000
0000
0010
0000
,  // measure 30
0100
0000
0010
0000
0001
0000
0100
0000
0010
0000
0000
0100
0000
0000
1000
0000
,  // measure 31
0000
0100
0000
0000
0100
0000
0010
0000
0002
0000
0003
1000
0000
0000
0001
0000
,  // measure 32
0000
1000
0000
0000
0100
0000
1000
0000
0100
0000
0000
1000
0000
0000
0100
0000
,  // measure 33
0000
0010
0000
0000
0001
0000
0100
0000
0020
0000
0000
0000
0000
0000
0000
0000
,  // measure 34
0000
0030
1000
0001
,  // measure 35
1000
0001
1000
0000
0100
0000
1000
0000
,  // measure 36
0100
1000
0100
0000
0100
0000
0010
0000
,  // measure 37
0001
0100
0001
0000
0100
0000
0010
0000
,  // measure 38
0001
0000
0100
0000
0001
0000
0000
0000
0100
0000
0000
0010
0000
0000
0100
0000
,  // measure 39
0000
0010
0000
0000
0001
0000
0000
0000
0100
0000
0000
1000
0000
0000
0100
0000
,  // measure 40
0000
1000
0000
0000
0100
0000
0000
0000
0100
0000
0000
0010
0000
0000
0001
0000
,  // measure 41
0000
0100
0000
0000
0010
0000
0000
0000
0100
0000
0000
0010
0000
0000
0001
0000
,  // measure 42
0000
0100
0000
0000
0010
0000
0000
0000
1000
0000
0001
0000
0000
1000
0000
0000
,  // measure 43
0100
0000
0000
1000
0000
0000
0100
0000
1000
0000
0100
1000
0001
0000
0100
0000
,  // measure 44
0010
0000
0000
0100
0000
0000
0010
0000
0001
0000
0100
0000
0000
0010
0000
0000
,  // measure 45
0100
0000
0000
1000
0000
0000
0100
0000
1000
0000
0100
1000
0010
0000
0100
0000
,  // measure 46
0010
0000
0000
0001
0000
0000
0100
0000
0010
0000
0000
0001
0000
1000
0100
0000
,  // measure 47
0010
0000
0100
0000
0010
0000
0001
0000
0100
0000
0001
0100
0000
0000
0010
0000
,  // measure 48
0100
0000
0010
0000
0001
0000
0100
0000
0010
0000
0100
0010
0000
0000
0100
0000
,  // measure 49
1000
0100
0010
0001
0200
0000
0000
0000
,  // measure 50
0000
0000
0000
0000
0310
0000
0000
0000
0001
0000
0000
0100
0000
0000
0001
0000
,  // measure 51
0000
0100
0000
0000
0010
0000
0100
0000
1000
0000
0000
0100
0000
0000
1000
0000
,  // measure 52
0000
0100
0000
0000
1000
0000
0100
0000
0010
0000
0000
0001
0000
0000
0100
0000
,  // measure 53
0000
0010
0000
0000
0001
0000
0100
0000
0001
0000
0000
0100
0000
0000
0010
0000
,  // measure 54
0000
0100
0000
0000
1000
0000
0100
0000
1000
0000
0000
0100
0000
0000
1000
0000
,  // measure 55
0000
0100
0000
0000
0100
0000
0010
0000
0001
0000
0000
0100
0000
0000
0010
0000
,  // measure 56
0000
0001
0000
0000
0100
0000
0010
0000
0100
0000
0000
0100
0000
0000
0010
0000
,  // measure 57
0000
0001
0000
0000
0100
0000
0100
0000
0010
0000
0000
0100
0000
0000
1000
0000
,  // measure 58
0000
0100
0000
0000
0010
0000
0100
0000
0020
0000
0000
0000
0030
0000
1000
0000
,  // measure 59
0100
0000
0001
0000
1000
0000
0001
0000
1000
0000
0000
0001
0000
0000
1000
0000
,  // measure 60
0000
0100
0000
0000
1000
0000
0100
0000
2000
0000
0000
3000
0000
0000
0001
0000
,  // measure 61
0100
0000
0001
0000
0100
0000
0010
0000
0100
0000
0000
0100
0000
0000
0010
0000
,  // measure 62
0000
0001
0000
0000
0100
0000
0001
0000
0200
0000
0000
0300
0000
0000
0010
0000
,  // measure 63
0100
0000
0010
0000
0001
0000
0100
0000
0010
0000
0000
0100
0000
0000
1000
0000
,  // measure 64
0000
0100
0000
0000
0100
0000
0010
0000
0002
0000
0003
1000
0000
0000
0001
0000
,  // measure 65
0000
1000
0000
0000
0100
0000
1000
0000
0100
0000
0000
1000
0000
0000
0100
0000
,  // measure 66
0000
0010
0000
0000
0001
0000
0100
0000
0020
0000
0000
0000
0000
0000
0000
0000
,  // measure 67
0000
0030
0000
0000
;

//---------------dance-single - Wrland---------------
#NOTEDATA:;
#CHARTNAME:;
#CHARTSTYLE:Pad;
#CREDIT:Wrland;
#STEPSTYPE:dance-single;
#DESCRIPTION:Wrland;
#DIFFICULTY:Hard;
#METER:11;
#METERF:11;
#RADARVALUES:0,0,0,0,0;
#NOTES:
// measure 0
0000
0000
0000
0000
,  // measure 1
0000
0000
0000
0000
0000
0000
0001
0000
1000
0000
0000
0100
0000
0000
1000
0000
,  // measure 2
0100
0000
0100
0010
0001
0100
0010
0100
,  // measure 3
1000
0000
0100
0000
1000
0000
0100
0000
0100
0000
0000
0100
0000
0000
0010
0000
,  // measure 4
0001
0000
0000
0100
0000
0000
0010
0000
0001
0000
0000
0100
0000
0000
0010
0000
,  // measure 5
0100
0000
0000
1000
0000
0000
0100
0000
1000
0000
0000
0100
0000
0000
0010
0000
,  // measure 6
0001
0000
0100
0010
0001
0100
0010
0001
,  // measure 7
0100
0000
0010
0000
0100
0000
1000
0000
0100
0000
0000
0100
0000
0000
1000
0000
,  // measure 8
0100
0000
0000
0100
0000
0000
0010
0000
0001
0000
0000
0001
0000
0000
0100
0000
,  // measure 9
0001
0000
0000
0100
0000
0000
0010
0000
0100
0000
0100
1000
0100
0010
0001
0000
,  // measure 10
0100
0000
0000
1000
0000
0000
0100
0000
1000
0000
0100
0000
0010
0000
0001
0000
,  // measure 11
0100
0000
0010
0100
0010
0000
0001
0000
0100
0000
1000
0000
0000
0100
0000
0000
,  // measure 12
1000
0000
0000
0100
0000
0000
0010
0000
0001
0000
0100
0001
0100
0000
0000
0000
,  // measure 13
0010
0000
0100
0000
0010
0000
0001
0000
0100
0000
0000
0010
0000
1000
0100
0000
,  // measure 14
0010
0000
0100
0000
0010
0000
0001
0000
0100
0000
0000
0001
0000
0100
0001
0000
,  // measure 15
0100
0000
0010
1000
0100
0000
0010
0000
0100
0000
0010
0100
0000
1000
0001
0000
,  // measure 16
0100
0000
0010
0000
0100
0000
0010
0000
0001
0100
0000
0000
0010
0100
0000
0000
,  // measure 17
1000
0000
0001
0000
1000
0000
0000
0000
2000
0000
3000
0200
0000
0300
1000
0000
,  // measure 18
0000
0100
0000
0000
0010
0000
0001
0000
0200
0000
0300
0020
0000
0030
0100
0000
,  // measure 19
0000
1000
0000
0000
0100
0000
1000
0000
0200
0000
0300
0020
0000
0030
0100
0000
,  // measure 20
0000
0001
0000
0000
0100
0001
0100
0001
0200
0000
0300
0020
0000
0030
0100
0000
,  // measure 21
0000
1000
0000
0000
0100
0000
1000
0000
0200
0000
0300
0020
0000
0030
0100
0000
,  // measure 22
0000
0001
0000
0000
0100
0001
0100
0001
0200
0000
0300
0020
0000
0030
0100
0000
,  // measure 23
0000
1000
0000
0000
0100
0000
1000
0000
0200
0000
0300
0200
0000
0300
0010
0000
,  // measure 24
0000
0001
0000
0000
0100
0001
0100
0001
0200
0000
0300
0020
0000
0030
0100
0000
,  // measure 25
0000
1000
0000
0000
0100
0000
1000
0000
0100
0000
0000
0010
0100
0000
0010
0000
,  // measure 26
0001
0000
0100
0000
0010
0000
0100
0000
2000
0000
3000
0002
0000
0003
0100
0000
,  // measure 27
0000
0100
0000
0000
0010
0000
0100
0000
1000
0000
0000
0000
0100
0000
1000
0000
,  // measure 28
0100
0000
0010
0000
0001
0000
0100
0000
0002
0000
0003
0200
0000
0300
0001
0000
,  // measure 29
0000
0100
0000
0000
0010
0000
0100
0000
1000
0001
1000
0001
1000
0000
0100
0000
,  // measure 30
1000
0000
0100
0000
0010
0000
0001
0000
0200
0000
0300
2000
0000
3000
0010
0000
,  // measure 31
0000
0010
0000
0000
0001
0000
0100
0000
0010
0000
0000
0100
0000
0000
1000
0000
,  // measure 32
0000
0100
0000
0000
1000
0001
0100
0000
0010
0000
0000
0100
0000
0000
0010
0000
,  // measure 33
0000
0001
0000
0000
0100
0000
0010
0000
0200
0000
0000
0000
0000
0000
0000
0000
,  // measure 34
0000
0000
0000
0000
0300
0000
0000
0000
0020
0000
0000
0000
0000
0000
0130
1000
,  // measure 35
0100
0000
0010
0000
0100
0000
0010
0000
0002
0000
0000
0000
0103
0000
1000
0100
,  // measure 36
1000
0000
0100
0000
0010
0000
0001
0000
0200
0000
0000
0000
0310
0000
0001
0100
,  // measure 37
0001
0000
0100
0000
0010
0000
0100
0000
2000
0000
0000
0000
3001
0000
0100
0010
,  // measure 38
0100
0000
0010
0000
0002
0000
0000
0000
0103
0000
0000
0010
0000
0000
0100
0000
,  // measure 39
0000
0010
0000
0000
0001
1000
0100
0000
0010
0000
0000
0100
0000
0000
1000
0000
,  // measure 40
0000
0100
0000
0000
1000
0000
0100
0000
0010
0000
0000
0001
0000
0000
0100
0000
,  // measure 41
0000
0010
0000
0000
0001
1000
0001
0000
1000
0000
0000
0100
0000
0000
0010
0000
,  // measure 42
0000
0100
0000
0000
1000
0000
0100
0000
0100
0000
0100
1000
0100
0010
0001
0000
,  // measure 43
0100
0000
0000
1000
0000
0000
0100
0000
1000
0000
0100
0000
0010
0000
0001
0000
,  // measure 44
0100
0000
0010
0100
0010
0000
0001
0000
0100
0000
1000
0000
0000
0100
0000
0000
,  // measure 45
1000
0000
0000
0100
0000
0000
0010
0000
0001
0000
0100
0001
0100
0000
0000
0000
,  // measure 46
0010
0000
0100
0000
0010
0000
0001
0000
0100
0000
0000
0010
0000
1000
0100
0000
,  // measure 47
0010
0000
0100
0000
0010
0000
0001
0000
0100
0000
0000
0001
0000
0100
0001
0000
,  // measure 48
0100
0000
0010
1000
0100
0000
0010
0000
0100
0000
0010
0100
0000
1000
0001
0000
,  // measure 49
0100
0000
0010
0000
0100
0000
0010
0000
0001
0100
0000
0000
0010
0100
0000
0000
,  // measure 50
1000
0000
0001
0000
1000
0000
0000
0000
1000
0000
0000
0100
0000
0000
1000
0000
,  // measure 51
0000
0100
0000
0000
0010
1000
0001
0000
0100
0000
0000
0010
0000
0000
0100
0000
,  // measure 52
0000
1000
0000
0000
0100
0000
1000
0000
0200
0000
0300
0200
0000
0300
0010
0000
,  // measure 53
0000
0001
0000
0000
0100
0001
0100
0001
0200
0000
0300
0020
0000
0030
0100
0000
,  // measure 54
0000
1000
0000
0000
0100
0000
1000
0000
0200
0000
0300
0200
0000
0300
0010
0000
,  // measure 55
0000
0001
0000
0000
0100
0001
0100
0001
0200
0000
0300
0020
0000
0030
0100
0000
,  // measure 56
0000
1000
0000
0000
0100
0000
1000
0000
0200
0000
0300
2000
0000
3000
0010
0000
,  // measure 57
0000
0001
0000
0000
0100
0001
0100
0001
0200
0000
0300
0020
0000
0030
0100
0000
,  // measure 58
0000
1000
0000
0000
0100
0000
1000
0000
0100
0000
0000
0010
0100
0000
0010
0000
,  // measure 59
0001
0000
0100
0000
0010
0000
0100
0000
1000
0000
0000
0001
0000
0000
0100
0000
,  // measure 60
0000
0100
0000
0000
0010
0000
0100
0000
1000
0000
0000
0000
0100
0000
1000
0000
,  // measure 61
0100
0000
0010
0000
0001
0000
0100
0000
0001
0000
0000
0100
0000
0000
0001
0000
,  // measure 62
0000
0100
0000
0000
0010
0000
0100
0000
1000
0001
1000
0001
1000
0000
0100
0000
,  // measure 63
1000
0000
0100
0000
0010
0000
0001
0000
0100
0000
0000
0100
0000
0000
0010
0000
,  // measure 64
0000
0010
0000
0000
0001
0000
0100
0000
0010
0000
0000
0100
0000
0000
1000
0000
,  // measure 65
0000
0100
0000
0000
1000
0001
0100
0000
0010
0000
0000
0100
0000
0000
0010
0000
,  // measure 66
0000
0001
0000
0000
0100
0000
0010
0000
0200
0000
0000
0000
0000
0000
0000
0000
,  // measure 67
0000
0300
0000
0000
;
