#VERSION:0.83;
#TITLE:SYNCLiNC;
#SUBTITLE:;
#ARTIST:Reku Mochizuki;
#TITLETRANSLIT:;
#SUBTITLETRANSLIT:;
#ARTISTTRANSLIT:;
#GENRE:Speedcore;
#CREDIT:Wrland;
#MUSIC:SYNCLiNC.ogg;
#BANNER:SYNCLiNC.png;
#BACKGROUND:BG.png;
#PREVIEWVID:preview.mp4;
#CDTITLE:Wrland Season 3 CITYGHT + last one night.png;
#SAMPLESTART:41.519;
#SAMPLELENGTH:15.000;
#SELECTABLE:YES;
#OFFSET:-0.005;
#BPMS:0.000=92.500
,16.000=185.000
,44.000=92.500
,46.000=185.000
,106.000=92.500
,108.000=185.000
,172.000=92.500
,188.000=185.000
,216.000=92.500
,218.000=185.000
;
#STOPS:;
#DISPLAYBPM:92.000:185.000;
#METERTYPE:DDR X;
#JACKET:SYNCLiNC-jacket.png;
#CDIMAGE:SYNCLiNC-cd.png;
#BGCHANGES:0.000=SYNCLiNC.avi=0.000=0=0=0=StretchNoLoop====,
99999.000=-nosongbg-=1.000=0=0=0=StretchNoLoop====
;
#FGCHANGES:;

//--------------- dance-single - Wrland ----------------
#NOTEDATA:;
#STEPSTYPE:dance-single;
#DESCRIPTION:Wrland;
#DIFFICULTY:Beginner;
#METER:4;
#RADARVALUES:0,0,0,0,0;
#NOTES:
0000
0000
0000
0000
,
0000
0000
0000
0000
,
0000
0000
0000
0000
,
0000
0000
0000
0000
,
1000
0000
0100
0000
,
1000
0000
0100
0000
,
0010
0000
0001
0000
,
0100
0000
0001
0000
,
0101
0000
0010
0000
,
1010
0000
0100
0000
,
1000
0001
1000
0000
,
2002
3003
0100
1000
,
0000
0100
0010
0100
,
0000
0100
0010
0001
,
0000
0001
0010
0100
,
0000
0100
1000
0100
,
0000
0100
0010
0001
,
0000
0001
0010
0100
,
0000
1000
0100
1000
,
0000
0000
0100
1000
,
0000
0100
0010
0100
,
0000
0010
0001
0100
,
0000
0010
0100
0010
,
0000
0001
0010
0100
,
0000
1000
0100
1000
,
0000
0100
0010
0001
,
0000
0100
0220
0330
,
1001
0100
0010
0000
,
0100
1000
0100
0000
,
0100
0010
0001
0000
,
0001
0100
0001
0000
,
0100
1000
0100
0000
,
0010
0100
0010
0000
,
0001
0001
0001
0000
,
1000
1000
1000
0000
,
0100
1000
0100
0000
,
0100
0010
0001
0000
,
0100
0001
0100
0000
,
0010
0100
0010
0000
,
1000
0100
1000
0000
,
0100
0010
0001
0000
,
0100
0001
0100
0000
,
2002
0000
3003
0000
,
2200
0000
0000
3300
,
0200
0000
0000
0300
,
0020
0000
0000
0030
,
0002
0000
0000
0003
,
0100
0000
1000
0000
,
0100
0000
1000
0000
,
0100
0000
0010
0000
,
0001
0000
0010
0000
,
0100
0000
0100
0000
,
1000
0000
0100
0000
,
1000
0000
0100
0000
,
1001
0000
0000
0000
1000
0000
0100
1000
,
0000
0000
0000
0000
0100
0000
0010
0100
,
0000
0000
0000
0000
0001
0000
0100
0001
,
0000
0000
0000
0000
0010
0000
0100
0010
,
0000
0000
0000
0000
0100
0000
1000
0100
,
0000
0000
0000
0000
0100
0000
0010
0100
,
0000
0000
0000
0000
0010
0000
0001
0010
,
0000
0000
0200
0000
,
0300
0000
0000
0000
0010
0000
0100
0010
,
0000
0000
0000
0000
0001
0000
0100
0001
,
0000
0000
0000
0000
0010
0000
0100
0010
,
0000
0000
0000
0000
1000
0000
0100
1000
,
0000
0000
0000
0000
0100
0000
0010
0100
,
0000
0000
0000
0000
0001
0000
0100
0001
,
0000
0000
0000
0000
0010
0000
0100
0010
,
0000
0000
2002
0000
,
0000
3003
1000
0100
,
1000
0000
0100
0010
,
0001
0000
0100
0010
,
0100
0000
0001
0100
,
0001
0000
0010
0100
,
0010
0000
1000
1000
,
1000
0000
0100
0100
,
0100
0000
0010
0100
,
0010
0000
0001
0100
,
0001
0000
0100
1000
,
0100
0000
1000
0100
,
1000
0000
0100
0010
,
0001
0000
0000
0000
0100
0000
0001
0100
,
0000
0000
0000
0000
0010
0000
0100
0010
,
0000
0000
0000
0000
1000
0000
0100
1000
,
0000
0000
2002
0000
,
0000
0000
3003
0000
;

//--------------- dance-single - Wrland ----------------
#NOTEDATA:;
#STEPSTYPE:dance-single;
#DESCRIPTION:Wrland;
#DIFFICULTY:Easy;
#METER:6;
#RADARVALUES:0,0,0,0,0;
#NOTES:
0000
0000
0000
0000
,
0000
0000
0000
0000
,
0000
0000
0000
0000
,
0000
0000
0000
0000
,
0100
1000
0100
1000
,
0100
0000
0110
0000
,
0010
0001
0010
0001
,
0010
0000
0011
0000
,
0100
0010
0100
0010
,
0100
0000
0110
0000
,
1000
0000
0001
0000
1000
0001
1000
0000
,
2002
3003
0100
1000
,
0100
1000
0100
0000
,
0110
0000
0010
0001
,
0010
0001
0010
0000
,
0110
0000
0100
0010
,
0001
0000
0100
0001
0100
0000
0000
0000
,
0101
0000
0010
0100
,
1000
0000
0100
1000
0100
0000
0000
0000
,
1100
0000
0100
0010
,
0100
0010
0100
0000
1000
0000
0100
0000
,
1000
0000
0100
0010
,
0001
0000
0100
0001
0100
0000
0100
0000
,
0110
0000
0100
1000
,
0100
0000
0010
0001
0100
0000
0000
0000
,
0110
0000
0010
0100
,
0010
0100
0010
0100
0002
0000
0003
0000
,
0100
1000
0100
1000
,
0100
0000
0010
0100
0010
0000
0000
0000
,
0001
0100
0001
0100
,
1000
0000
0100
1000
0100
0000
0000
0000
,
0100
0010
0001
0100
,
0010
0000
0100
0010
0100
0000
0000
0000
,
1000
0100
0010
0001
,
0100
0000
0001
0100
0001
0000
0000
0000
,
0010
0100
1000
0100
,
1000
0000
0100
1000
0100
0000
0000
0000
,
0100
0010
0001
0100
,
0010
0000
0001
0010
0001
0000
0000
0000
,
0010
0100
1000
0100
,
1000
0000
0100
1000
0100
0000
0000
0000
,
0100
0010
0001
0100
,
0001
0100
0000
0001
0100
0000
0000
0000
,
0020
0030
0200
0300
,
2000
3000
0200
0300
,
0020
0030
0200
0300
,
0020
0030
0002
0003
,
0100
0100
0100
0000
,
0010
0010
0010
0000
,
0100
0100
0100
0000
,
1000
1000
1000
0000
,
0001
1000
0001
1000
,
0100
1000
0100
1000
,
1000
0000
0100
0010
0001
0000
0000
0000
,
1001
0000
0100
1000
,
0100
1000
0100
0010
,
0001
0000
0100
0000
0001
0000
0100
0001
,
0000
0000
0000
0000
0010
0000
0100
0010
,
0000
0000
1000
0100
,
1000
0100
0010
0100
,
0010
0001
0100
0001
,
0010
0000
0000
0000
0100
0000
0000
0000
0010
0000
0000
0100
0000
0000
0010
0000
,
0100
0000
0010
0100
,
0010
0001
0100
1000
,
0100
1000
0100
0010
,
0001
0000
0100
0000
0010
0000
0100
0010
,
0100
0000
0010
0001
,
0010
0100
1000
0100
,
1000
0100
0010
0001
,
0100
0000
0000
0000
0010
0000
0000
0000
0100
0000
0000
0010
0000
0000
0100
0000
,
0010
0000
0100
1000
,
0100
1000
0100
0000
,
0110
0000
0010
0001
,
0010
0001
0010
0000
,
0110
0000
0100
1000
,
0100
1000
0100
0000
,
1100
0000
0100
0010
,
0100
0010
0100
0000
,
0110
0000
0010
0001
,
0100
0001
0100
0000
,
0101
0000
0010
0100
,
0010
0100
0010
0000
,
0110
0000
0010
0001
,
0010
0000
0100
1000
0100
0000
0000
0000
,
0110
0000
0010
0001
,
0100
0000
1000
0100
1000
0000
0000
0000
,
1100
0000
0000
0000
;

//--------------- dance-single - Wrland ----------------
#NOTEDATA:;
#STEPSTYPE:dance-single;
#DESCRIPTION:Wrland;
#DIFFICULTY:Medium;
#METER:8;
#RADARVALUES:0,0,0,0,0;
#NOTES:
0000
0000
0000
0000
,
0000
0000
0000
0000
,
0000
0000
0000
0000
,
0000
0000
0000
0000
,
0100
0010
0100
0010
,
0001
0000
0100
0001
0100
0000
0000
0000
,
0010
0000
0100
0010
0100
0000
0010
0000
,
0001
0000
0100
0001
0100
0000
0000
0000
,
0010
0100
1000
0100
,
0010
0000
0100
1000
0010
0000
0000
0000
,
0100
0000
1000
0100
1000
0000
0000
0000
,
0220
0330
1001
1000
,
0100
0000
1000
0000
0100
0000
1000
0100
,
1000
0000
0100
0010
,
0001
0000
0100
0000
0001
0000
0100
0001
,
0100
0000
0010
0100
,
1000
0000
0100
0000
1000
0000
0100
1000
,
0100
0000
0100
0010
,
0001
0000
0100
0000
0010
0000
0100
0010
,
0100
0000
0010
0001
,
0100
0000
0010
0000
0100
0000
1000
0100
,
1000
0000
0100
0010
,
0001
0000
0100
0000
0001
0000
0100
0001
,
0100
0000
0010
0100
,
1000
0000
0100
0000
1000
0000
0100
1000
,
0100
0000
0010
0100
,
0010
0001
0200
0300
,
0010
0100
0010
0100
,
0100
0000
1000
0100
1000
0000
0000
0000
,
0100
0000
0010
0001
0100
0000
0000
0000
,
0010
0000
0100
0010
0100
0000
0000
0000
,
1000
0100
1000
0100
,
0010
0000
0001
0100
0001
0000
0000
0000
,
0010
0000
0100
1000
0100
0000
0000
0000
,
0100
0000
1000
0100
1000
0000
0000
0000
,
0100
0010
0001
0100
,
0010
0000
0100
1000
0100
0000
0000
0000
,
0100
0000
0010
0100
0010
0000
0000
0000
,
0001
0000
0100
0001
0100
0000
0000
0000
,
0010
0100
1000
0100
,
1000
0000
0100
1000
0100
0000
0000
0000
,
0100
0000
0010
0100
0010
0000
0000
0000
,
0001
0000
0100
0001
0100
0000
0101
0000
,
0020
0032
0203
2300
,
3200
0320
0032
0203
,
0320
0230
0320
0230
,
2300
3200
0320
0230
,
0310
0100
0010
0001
,
0100
0000
0001
0100
0001
0000
0000
0000
,
0010
0100
1000
0100
,
1000
0000
0100
1000
0100
0000
0000
0000
,
0100
0000
1000
0100
1000
0000
0100
0000
,
0010
0000
0001
0100
0001
0000
0001
0000
,
0100
0000
0001
0100
1000
0100
0010
0001
,
0101
0000
1100
0100
,
0010
0000
0001
0000
0100
0000
0010
0100
,
0010
0100
1000
0100
,
1000
0000
0100
0000
0010
0000
0001
0100
,
0001
0000
0010
0100
,
1000
0000
0100
0000
1000
0000
0100
1000
,
0100
0100
0010
0001
,
0100
0000
0010
0000
0100
0000
0010
0100
,
0010
0001
0100
1000
,
0100
0000
1000
0000
0100
0000
0010
0001
,
0100
0000
0001
0000
0100
0000
0010
0100
,
0010
0000
0100
0000
1000
0000
0100
1000
,
0100
0100
0010
0001
,
0100
0000
0010
0000
0100
0000
0010
0100
,
0010
0000
0100
0000
1000
0000
0100
1000
,
0100
0010
0200
0300
,
0010
0100
0010
0001
,
0100
0000
0001
0000
1000
0000
0001
1000
,
0001
0000
0000
0000
1000
0000
0100
1000
,
0100
0000
0100
0000
0010
0000
0001
0100
,
0001
0000
0010
0100
,
1000
0000
0100
0000
1000
0000
0100
1000
,
0100
0000
0000
0000
0100
0000
0010
0100
,
0010
0000
0001
0000
0100
0000
0001
0100
,
0001
0000
0010
0100
,
1000
0000
0100
0000
1000
0000
0100
1000
,
0100
0000
0100
0010
,
0001
0000
0100
0000
0001
0000
0100
0001
,
0100
0000
0000
0000
0010
0000
0100
0010
,
0100
0000
0110
0000
1000
0000
0100
1000
,
0100
0000
1100
0000
0100
0000
0010
0001
,
0100
0000
0100
0000
0010
0000
0100
0010
,
0001
0010
0110
0000
;

//--------------- dance-single - Wrland ----------------
#NOTEDATA:;
#STEPSTYPE:dance-single;
#DESCRIPTION:Wrland;
#DIFFICULTY:Hard;
#METER:13;
#RADARVALUES:0,0,0,0,0;
#NOTES:
0000
0000
0000
0000
,
0000
0000
0000
0000
,
0000
0000
0000
0000
,
0000
0000
0000
0000
,
0100
1000
0100
0010
,
0100
0010
0100
0000
0010
0100
0010
0000
,
0001
0100
0001
0100
,
0010
0100
0010
0000
1000
0100
1000
0000
,
0100
0010
0101
0000
,
0001
0010
0110
0000
,
1000
0100
1000
0000
0100
0010
0100
0000
,
0020
0030
0110
0100
,
1000
0000
0100
0000
0010
0100
0010
0000
,
0001
0100
0001
0100
,
1000
0000
0100
0000
1000
0100
1000
0000
,
0100
0010
0100
0000
0010
0000
0100
0000
,
0010
0001
0100
0001
,
0100
0000
1000
0000
0100
1000
0100
0000
,
0010
0100
0010
0000
0001
0000
0100
0000
,
0010
0100
1000
0100
,
1000
0100
0010
0100
,
0010
0000
0001
0000
0100
0001
0100
0000
,
0010
0100
0010
0000
1000
0000
0100
1000
,
0100
0010
0100
0010
,
0001
0100
0010
0100
,
1000
0000
0100
0000
1000
0100
1000
0000
,
0100
0010
0100
0000
0220
0000
0330
1001
,
0100
0010
0100
1000
,
0100
1000
0100
0010
,
0001
0000
0100
0001
0000
0000
1000
0000
,
0100
0010
0100
0010
,
0001
0000
0100
0001
0100
0000
0010
0000
,
0100
1000
0100
1000
,
0100
0000
1000
0100
0000
0001
0010
0000
,
0100
0000
0000
0010
0000
0000
1000
0000
0001
0000
0000
0000
0100
0000
0000
0000
,
0010
0100
0010
0001
,
0100
0001
0100
0000
0010
0100
0010
0000
,
1000
0100
1000
0100
,
0100
0000
0010
0100
0010
0000
0001
0000
,
0100
1000
0100
1000
,
0100
0000
1000
0100
1000
0000
0100
0000
,
0100
0000
0010
0100
0010
0000
0001
0000
,
0202
0000
0303
0000
0000
0100
0010
0000
,
0110
0100
1000
0100
,
1001
1000
0100
0010
,
0101
0001
0010
0100
,
0110
0100
1000
0100
,
1000
0100
1000
0100
,
0010
0000
0100
0010
0100
0000
0010
0000
,
0001
0100
0001
0100
,
0001
0000
0100
0001
0100
0000
0010
0000
,
0100
0000
0010
0100
0010
0000
0010
0100
,
0010
0000
0001
0100
0001
0000
0100
0000
,
0010
0100
0010
0001
0100
0010
0001
0010
0100
1000
0100
0010
0001
0010
0100
0010
,
0001
0000
0000
0000
0000
0000
0000
0000
0100
0000
0000
0010
0000
0000
0100
0000
,
0000
0000
0010
0000
0100
0000
0010
0000
0001
0000
0000
0010
0000
0000
0100
0000
,
0000
0000
1000
0000
0100
0000
1000
0000
0100
0000
0000
0010
0000
0000
0100
0000
,
0000
0000
0010
0000
0100
0000
0010
0000
0001
0000
0000
0100
0000
0000
0001
0000
,
0000
0000
0100
0000
0001
0000
0100
0000
0001
0000
0000
0010
0000
0000
0100
0000
,
0000
0000
1000
0000
0100
0000
1000
0000
0100
0000
0000
0010
0000
0000
0100
0000
,
0000
0000
0010
0000
0001
0000
0100
0000
0001
0000
0000
0100
0000
0000
0010
0000
,
0000
0000
0100
0000
1000
0000
0100
0000
0010
0000
0000
0100
0000
0000
0010
0000
,
0100
0000
0000
0000
0010
0000
0000
0000
0100
0000
0000
1000
0000
0000
0100
0000
,
0000
0000
1000
0000
0100
0000
1000
0000
0100
0000
0000
0010
0000
0000
0001
0000
,
0000
0100
0001
0100
0001
0000
0100
0010
,
0000
0000
0100
0000
1000
0000
0100
0000
1000
0000
0000
0100
0000
0000
0010
0000
,
0100
0000
0010
0000
0001
0000
0100
0000
0001
0000
0000
0100
0000
0000
0010
0000
,
0000
0000
0100
0000
1000
0000
0100
0000
1000
0000
0000
0100
0000
0000
0010
0000
,
0000
0000
0001
0000
0100
0000
0010
0000
0100
0000
0000
1000
0000
0000
0100
0000
,
0010
0000
0100
0000
0010
0000
0100
0000
0010
0000
0000
0001
0000
0000
1000
0000
,
0001
0000
1000
0000
0100
0000
0010
0100
,
0010
0100
0010
0001
,
0100
0000
0001
0000
0100
0000
0001
0100
,
0000
0010
0100
1000
,
0100
0000
0010
0000
0100
0000
0010
0100
,
0000
0010
0100
1000
,
0100
0000
1000
0000
0100
0000
1000
0100
,
0000
0000
0000
0000
0100
0000
0000
0000
0010
0000
0000
0100
0000
0000
0010
0000
,
0100
0010
0001
0100
,
0010
0100
0010
0000
0100
0000
1000
0000
,
0100
1000
0100
0000
0010
0000
0100
0000
,
0001
0100
0001
0000
0010
0000
0100
1000
,
0000
0100
1000
0000
0100
0000
0010
0000
,
0001
0100
0001
0000
0010
0000
0100
0010
,
0100
0000
1000
0000
0100
0000
0010
0001
,
0100
0000
0000
0000
0001
0000
0000
0000
0100
0000
0000
0010
0000
0000
0100
0000
,
1000
0100
0101
0000
;
