#VERSION:0.83;
#TITLE:Brand New World;
#SUBTITLE:;
#ARTIST:VENUS;
#TITLETRANSLIT:;
#SUBTITLETRANSLIT:;
#ARTISTTRANSLIT:;
#GENRE:BEMANI;
#CREDIT:Wrland;
#MUSIC:Brand New World.ogg;
#BANNER:Brand New World.png;
#BACKGROUND:Brand New World-bg.png;
#LYRICSPATH:Brand New World.lrc;
#CDTITLE:Wrland Season 3 CITYGHT + last one night.png;
#SAMPLESTART:40.318;
#SAMPLELENGTH:12.000;
#SELECTABLE:YES;
#OFFSET:-0.191;
#BPMS:0.000=157.000;
#STOPS:248.000=1.911;
#DISPLAYBPM:157.000;
#JACKET:Brand New World-jacket.png;
#CDIMAGE:Brand New World-cd.png;
#METERTYPE:DDR X;
#BGCHANGES:;
#FGCHANGES:;

//--------------- dance-single - Wrland ----------------
#NOTEDATA:;
#STEPSTYPE:dance-single;
#DESCRIPTION:Wrland;
#DIFFICULTY:Beginner;
#METER:2;
#RADARVALUES:0,0,0,0,0;
#NOTES:
0000
0000
0000
0000
,
0000
0000
0000
0000
,
0000
0000
0000
0000
,
0000
0000
0000
0000
,
0000
0000
0000
0000
,
0000
0000
0000
0000
,
0000
0000
0000
0000
,
0000
0000
0000
0000
,
0000
1000
0000
0000
,
0000
1000
0000
0000
,
0000
0001
0000
0000
,
0000
0001
0000
0000
,
0000
0100
0000
0000
,
0000
0010
0000
0000
,
0000
0100
0000
0000
,
0000
0010
0000
0000
,
0000
0001
0000
0000
,
0000
0010
0000
0000
,
0000
0100
0000
0000
,
0000
1000
0000
0000
,
0000
0100
0000
0000
,
0000
1000
0000
0000
,
0000
0100
0000
0000
,
0000
0010
0000
0000
,
0000
0001
0000
0000
,
0000
1000
0000
0000
,
0000
1001
0000
0000
,
0000
0100
0000
0000
,
0000
0010
0000
0000
,
0000
0100
0000
0000
,
0000
0001
0000
0000
,
0000
1000
0000
0000
,
0000
0100
0000
0000
,
0000
0010
0000
0000
,
0000
0100
0000
0000
,
0000
1000
0000
0000
,
0000
0100
0000
0000
,
0000
1000
0000
0000
,
0000
0100
0000
0000
,
0000
0010
0000
0000
,
0000
0001
0000
0000
,
0000
0100
0000
0000
,
0000
0010
0000
0000
,
0000
0100
0000
0000
,
0000
1000
0000
0000
,
0000
0010
0000
0000
,
0000
0001
0000
0000
,
0000
1000
0000
0000
,
0000
0100
0000
0000
,
0000
0010
0000
0000
,
0000
0002
0000
0000
,
0000
0000
0000
0000
,
0000
0000
0000
0000
,
0000
0000
0003
1000
,
0001
1000
0000
0000
,
0000
0100
0000
0000
,
0000
1000
0000
0000
,
0000
0100
0000
0000
,
0000
0010
0000
0000
,
0000
0100
0000
0000
,
0000
0010
0000
0000
,
0000
0001
0000
0000
,
0000
0000
0000
0000
,
1000
0000
0000
0000
,
0100
0000
0000
0000
,
0010
0000
0000
0000
,
0001
0000
0000
0000
,
0100
0000
0000
0000
,
0010
0000
0000
0000
,
0100
0000
0000
0000
,
0020
0000
0000
0000
,
0030
0000
0000
0000
;

//--------------- dance-single - Wrland ----------------
#NOTEDATA:;
#STEPSTYPE:dance-single;
#DESCRIPTION:Wrland;
#DIFFICULTY:Easy;
#METER:5;
#RADARVALUES:0,0,0,0,0;
#NOTES:
0000
0000
0000
0000
,
0000
0000
0000
0000
,
0000
0000
0000
0000
,
0000
0000
0000
0000
,
0000
0000
0000
0000
,
0000
0000
0000
0000
,
0000
0000
0000
0000
,
0000
0000
0000
0000
,
0000
1000
0000
1000
,
0000
0001
0000
0001
,
0000
0100
0000
0010
,
0000
0100
0000
0010
,
0000
0100
0000
1000
,
0000
0100
0000
0010
,
0000
0001
0000
0010
,
0000
0100
0000
0010
,
0000
0001
0000
0010
,
0000
0100
0000
1000
,
0000
0100
0000
1000
,
0000
0100
0000
0010
,
0000
0001
0000
0010
,
0000
0100
0000
0010
,
0000
0100
0000
1000
,
0000
0100
0000
1000
,
0000
0100
1000
0010
,
0000
0001
1000
0010
,
0000
0100
0000
0100
,
0000
0100
0000
0100
,
0000
0010
0000
0010
,
0000
0010
0000
0010
,
0000
0001
0000
0001
,
0000
0001
0000
0001
,
0000
1000
0000
1000
,
0000
1000
0000
1000
,
0000
0100
0000
1000
,
0000
0100
0000
1000
,
0000
0010
0000
0001
,
0000
0010
0000
0001
,
0000
0100
0000
0010
,
0000
0100
0000
0010
,
0000
0001
0000
0010
,
0000
0100
0000
1000
,
0000
0100
0000
1000
,
0000
0100
0000
1000
,
0000
0100
0000
0010
,
0000
0001
0000
0010
,
0000
0100
0000
0010
,
0000
0001
0000
0100
,
0000
0010
0000
0100
,
0000
1000
0000
0001
,
0000
2000
0000
0000
,
0000
3000
0000
0000
,
0000
0002
0000
0000
,
0000
0003
0000
1000
,
0001
1000
0000
0100
,
0000
1000
0000
0100
,
0000
0010
0000
0100
,
0000
0010
0000
0001
,
0000
0100
0000
0010
,
0000
0100
0000
0010
,
0000
0100
0000
1000
,
0000
0100
0000
0010
,
0000
0000
0100
0000
0000
0010
0000
0000
0100
0000
0000
0010
0000
0000
0001
0000
,
1000
0000
0100
0000
,
1000
0000
0100
0000
,
0010
0000
0001
0000
,
0010
0000
0100
0000
,
0010
0000
0001
0000
,
0100
0000
1000
0000
,
0100
0000
1000
0000
,
0000
0220
0000
0000
0000
0000
0000
0000
0000
0000
0000
0000
0000
0000
0000
0000
,
0330
0000
0000
0000
;

//--------------- dance-single - Wrland ----------------
#NOTEDATA:;
#STEPSTYPE:dance-single;
#DESCRIPTION:Wrland;
#DIFFICULTY:Medium;
#METER:7;
#RADARVALUES:0,0,0,0,0;
#NOTES:
0000
0000
0000
0000
,
0000
0000
0000
0000
,
0000
0000
0000
0000
,
0000
0000
0000
0000
,
0000
0000
0000
0000
,
0000
0000
0000
0000
,
0000
0000
0000
0000
,
0000
0000
0000
0000
,
0000
1000
0001
1000
,
0100
1000
0100
0020
,
0030
0100
0010
0001
,
0100
0010
0100
0020
,
0030
0001
0010
0100
,
0010
0100
1000
0200
,
0300
1000
0100
1000
,
0100
0010
0001
0100
,
0010
0002
0003
0100
,
0010
0100
0010
0002
,
0003
2000
3000
0100
,
1000
0100
1000
0200
,
0300
0020
0030
0100
,
0010
0100
0010
0002
,
0003
0002
0003
0010
,
0100
1000
0100
2000
,
3000
1000
0100
1100
,
0000
0100
0010
0110
,
0000
0000
0010
0000
0001
0010
0000
0100
,
0000
1000
0000
0100
0000
1000
0000
0100
,
1000
0100
0100
0010
,
0001
0000
0100
0000
0001
0100
0002
0000
,
0003
0000
0010
0000
0100
0010
0000
0001
,
0000
0100
0000
1000
0000
0100
0000
1000
,
0100
1000
0100
0010
,
0001
0000
0100
0000
0010
0100
0010
0100
,
0010
0000
0010
0000
0001
1000
0000
0010
,
0000
0100
0000
0010
0000
0001
0000
0100
,
0010
0100
0010
0100
,
1000
0000
0000
0000
0100
0000
0000
0000
1000
0000
0100
0000
0020
0000
0000
0030
,
0100
0000
0010
0000
0001
0100
0000
0010
,
0000
0100
0000
0010
0000
0100
0000
0010
,
0001
0100
0010
0100
,
1000
0000
0100
0001
1000
0010
0000
1000
,
0001
0000
0010
0000
0200
0000
0000
0300
0010
0000
0000
0000
0100
0000
0000
0000
,
1000
0100
1000
0100
,
1000
0100
0010
0001
,
0100
0010
0100
0010
,
0001
0100
1000
0100
,
1000
0100
1000
0100
,
1000
0100
0010
0001
,
0100
0000
0010
0000
0100
0010
0100
0010
,
0002
0010
0000
0100
,
0000
1000
0000
0103
,
0000
2000
0001
0010
,
3100
0000
0010
0001
0100
0010
1000
0100
,
0010
0001
0100
0000
0010
0000
0100
0000
,
1000
0100
0010
0001
,
0100
0010
0001
0100
,
0010
0000
0001
0100
0001
0000
0010
1000
,
0010
0100
1000
0100
,
1000
0100
0010
0001
,
0100
0000
0010
0100
0010
0000
0001
0100
,
0001
0000
0010
1000
0100
0010
0001
0100
,
0010
0000
0100
0000
0000
0010
0000
0000
0100
0000
0000
0010
0000
0000
0001
0000
,
1000
0100
1000
0100
,
1000
0100
0010
0001
,
0100
0010
0001
0100
,
0010
0100
0010
0001
,
0100
0000
0010
0000
0100
1000
0100
0000
,
0010
0000
0001
0000
0100
0010
0001
0000
,
0100
0010
0100
0010
,
1000
0100
0000
0001
0000
0000
1000
0100
0000
0010
0001
0100
0000
1000
0110
0000
;

//--------------- dance-single - Wrland ----------------
#NOTEDATA:;
#STEPSTYPE:dance-single;
#DESCRIPTION:Wrland;
#DIFFICULTY:Hard;
#METER:12;
#RADARVALUES:0,0,0,0,0;
#NOTES:
0000
0000
0000
0000
,
0000
0000
0000
0000
,
0000
0000
0000
0000
,
0000
0000
0000
0000
,
0000
0000
0000
0000
1000
0100
0010
0001
0010
0000
0100
0000
0010
0001
0010
0100
,
0010
0000
0100
0000
1000
0100
0010
0100
0001
0000
0010
0000
0100
0010
0001
0000
,
0100
0010
1000
0100
0010
0001
0010
0100
1000
0000
0100
0000
0010
0001
0100
0010
,
0001
0000
0010
0000
0000
0100
0010
0100
0001
0000
0010
1000
0100
0010
1000
0000
,
0001
0010
0100
0001
0010
0000
0100
0000
0010
0000
0001
0000
2000
0000
3000
0200
,
0000
0300
1000
0000
0200
0000
0000
0300
0010
0000
0002
0000
0000
0000
0003
0000
,
0100
0000
0000
0000
0020
0000
0030
0000
0020
0000
0000
0030
0200
0000
0300
0020
,
0000
0030
0100
0000
0020
0000
0000
0030
0200
0000
0000
0300
0011
0000
0000
0000
,
1100
0000
0100
0001
0010
1000
0100
0010
,
0001
0000
0010
0000
0200
0000
0300
0020
0000
0030
0100
0000
0020
0000
0000
0030
,
0200
0000
0300
0000
2000
0000
3000
0000
0200
0000
0000
0300
2000
0000
3000
0100
,
0000
0010
0001
1000
0100
1000
0110
0000
,
0101
0000
0000
0000
0020
0000
0030
0200
0000
0300
0020
0000
0000
0030
0100
0000
,
0010
0000
0001
0000
0200
0000
0300
0020
0000
0030
1000
0000
0200
0000
0000
0300
,
0020
0000
0000
0030
0200
0000
0300
0020
0000
0030
0002
0000
0000
0003
0100
0000
,
0010
0000
1000
0000
0200
0000
0300
0020
0000
0030
0001
0000
0200
0000
0000
0300
,
0020
0000
0000
0030
0002
0000
0003
0200
0000
0300
0020
0000
0000
0030
0100
0000
,
1000
0000
0100
0000
2000
0000
3000
0200
0000
0300
0010
0000
0002
0000
0000
0003
,
0100
0000
1000
0000
0020
0000
0030
0200
0000
0300
0020
0000
0000
0030
0001
0000
,
0100
0000
0010
0000
2000
0000
3000
0200
0000
0300
1000
0000
0200
0000
0300
0000
,
0110
0000
0000
0000
0001
1000
0001
0000
1000
0001
1000
0000
0200
0000
0300
1000
,
0000
0000
0000
0000
0100
0010
0100
0000
0010
0001
0010
0000
0200
0000
0300
1000
,
0000
0000
0000
0000
0200
0000
0000
0300
1000
0000
0200
0000
0000
0300
0020
0000
,
0030
0000
0002
0000
0000
0003
0200
0000
0000
0300
0020
0000
0000
0030
0100
0000
,
0020
0000
0030
0000
0001
0000
0100
0000
0001
0000
0200
0000
0000
0300
0020
0000
,
0000
0030
0200
0000
0300
0000
1000
0000
0100
0000
1000
0000
0200
0000
0300
0000
,
0220
0000
0330
0000
0002
0000
0000
0003
0100
0000
2000
0000
0000
3000
0200
0000
,
0000
0300
0020
0000
0000
0030
0002
0000
0000
0003
0200
0000
0000
0300
0010
0000
,
0200
0000
0000
0300
0020
0000
0030
0002
0000
0003
0200
0000
0000
0300
2000
0000
,
0000
3000
0200
0000
0000
0300
0010
0000
0100
0000
0010
0000
0001
1000
0100
0000
,
0010
0001
1000
0000
0200
0000
0000
0300
1000
0000
0200
0000
0000
0300
2000
0000
,
0000
3000
0200
0000
0000
0300
0020
0000
0030
0000
0002
0000
0000
0003
0100
0000
,
0020
0000
0000
0030
0200
0000
0300
0020
0000
0030
0002
0000
0000
0003
0100
0000
,
0010
0000
0200
0000
0000
0300
0010
0000
0001
0000
0100
0000
0020
0000
0000
0030
,
0200
0000
0000
0300
2000
0000
0000
3000
0100
0000
2000
0000
0000
3000
0200
0000
,
0000
0300
0020
0000
0000
0030
0002
0000
0000
0003
0200
0000
0000
0300
0010
0000
,
0200
0000
0000
0300
0020
0000
0030
0002
0000
0003
0200
0000
0000
0300
0010
0000
,
0001
0000
0010
0000
1000
0000
0100
0000
0010
0000
0100
0000
0010
1000
0100
0001
,
0010
0100
0001
0000
0100
0000
1000
0000
0100
0000
0010
0000
0100
0000
0000
0010
,
0000
0001
0100
0010
1000
0100
0010
0001
,
0010
0000
0100
0000
0010
0100
0010
0000
0001
0000
0100
0000
0001
0000
1000
0000
,
0100
0000
1000
0000
0100
0000
0100
0010
0000
0100
0010
0000
0000
1000
0000
0001
,
0000
1000
0100
0010
1001
0000
0100
0000
0010
0000
0001
0000
0100
0001
0100
0000
,
0010
0000
0100
0000
1000
0000
0100
0000
0010
0000
0001
0000
0100
0001
0100
0000
,
0010
0000
0100
0000
1000
0000
0100
0000
0010
0000
0100
0000
0001
0010
0100
0010
,
0100
0000
0010
0000
0101
0010
0001
1100
0100
1000
0220
0000
0330
0000
0101
0000
,
0202
0000
0000
0000
,
0000
0000
0000
0000
,
0000
0000
0000
0000
,
0303
0000
0000
0000
0000
0000
1000
0001
0000
0100
0010
0000
0001
0100
0001
0100
,
0010
0100
0010
0100
0010
0001
0100
0010
,
1000
0000
0200
0000
0300
0000
0100
0000
0010
1000
0100
0000
0010
0000
0001
0000
,
0100
0010
0100
0010
0100
0010
0001
1000
,
0100
0020
0030
0200
0300
0100
1000
0100
,
0020
0030
0100
0010
0001
0100
0010
0001
,
0100
0010
1000
0100
1000
0100
0010
0001
,
0010
0000
0100
0000
1000
0100
0010
0000
0001
0000
0010
0000
0100
0000
1000
0000
,
0100
0000
0010
0100
0001
0000
0010
0100
0010
0000
0100
0010
0001
0010
0100
1000
,
0100
0000
1001
0000
0000
1001
0000
0000
1001
0000
0000
1001
0000
0000
1001
0000
,
0010
0100
0010
0001
0010
0000
0100
0000
0010
0001
0010
0100
0010
0000
0100
0000
,
1000
0100
0010
0100
0001
0000
0010
0000
0100
0010
0001
0000
0100
0010
1000
0100
,
0010
0001
0010
0100
1000
0000
0100
0000
0010
0001
0100
0010
0001
0000
0010
0000
,
0000
0100
0010
0100
0010
0000
0001
1000
0000
0100
0010
0000
0001
0000
0010
0000
,
0001
0100
0010
1000
0010
0000
0100
0000
0010
1000
0010
0100
0010
0000
0001
0000
,
1000
0100
0010
0100
0001
0000
0010
0000
0100
0010
0001
0000
0100
0010
1000
0100
,
0010
0001
0010
0100
1000
0000
0100
0000
0010
0001
0100
0010
0001
0000
0010
0000
,
0000
0001
0010
0100
0001
0000
0010
0001
0100
0010
1000
0000
1000
0010
0100
0001
;
