#VERSION:0.83;
#TITLE:애인만들기;
#SUBTITLE:;
#ARTIST:SS501;
#TITLETRANSLIT:Making a Lover;
#SUBTITLETRANSLIT:;
#ARTISTTRANSLIT:;
#GENRE:K-Pop;
#CREDIT:;
#MUSIC:Making a Lover.ogg;
#BANNER:Making a Lover.png;
#BACKGROUND:Making a Lover-bg.png;
#CDTITLE:Boys Over Flowers.png;
#SAMPLESTART:21.026;
#SAMPLELENGTH:12.000;
#SELECTABLE:YES;
#OFFSET:-17.246;
#BPMS:0.000=127.000
,47.000=254.000
,48.000=127.000
,112.000=63.500
,120.000=127.000
,196.000=63.500
,204.000=127.000
,244.000=63.500
;
#STOPS:47.000=0.236;
#DISPLAYBPM:127.000;
#JACKET:Making a Lover-jacket.png;
#CDIMAGE:;
#BGCHANGES:;
#FGCHANGES:;

//--------------- dance-single - ----------------
#NOTEDATA:;
#STEPSTYPE:dance-single;
#DESCRIPTION:;
#DIFFICULTY:Beginner;
#METER:2;
#RADARVALUES:0,0,0,0,0;
#NOTES:
0000
0000
0000
0000
,
0000
0000
0000
0000
,
1000
0000
0000
0000
,
0000
0000
0000
0000
,
0010
0000
0000
0000
,
0000
0000
0000
0000
,
0100
0000
0000
0000
,
0000
0000
0000
0000
,
0001
0000
0000
0000
,
0000
0000
0000
0000
,
1000
0000
0000
0000
,
0000
0000
0000
0000
,
0110
0000
0000
0000
,
0000
0000
0000
0000
,
0001
0000
0000
0000
,
0000
0000
0000
0000
,
0100
0000
0000
0000
,
0000
0000
0000
0000
,
1000
0000
0000
0000
,
0000
0000
0000
0000
,
0100
0000
0000
0000
,
0000
0000
0000
0000
,
0001
0000
0000
0000
,
0000
0000
0000
0000
,
0010
0000
0000
0000
,
0000
0000
0000
0000
,
0100
0000
0000
0000
,
0000
0000
0000
0000
,
0010
0000
0000
0000
,
1000
0000
0000
0000
,
0000
0000
0000
0000
,
0001
0000
0000
0000
,
0000
0000
0000
0000
,
1000
0000
0000
0000
,
0000
0000
0000
0000
,
0100
0000
0000
0000
,
0000
0000
0000
0000
,
0010
0000
0000
0000
,
0000
0000
0000
0000
,
0100
0000
0000
0000
,
0000
0000
0000
0000
,
0001
0000
0000
0000
,
0000
0000
0000
0000
,
1000
0000
0000
0000
,
0000
0000
0000
0000
,
0010
0000
0000
0000
,
0000
0000
0000
0000
,
1000
0000
0000
0000
,
0000
0000
0000
0000
,
1001
0000
0000
0100
,
0000
0000
0010
0000
,
1000
0000
0000
0000
,
1001
0000
0000
0000
,
0000
0000
0000
0000
,
0010
0000
0000
0000
,
0000
0000
0000
0000
,
1000
0000
0000
0000
,
0000
0000
0000
0000
,
0010
0000
0000
0000
,
0000
0000
0000
0000
,
0100
0000
0000
0000
,
0000
1001
0000
0000
;

//--------------- dance-single - ----------------
#NOTEDATA:;
#STEPSTYPE:dance-single;
#DESCRIPTION:;
#DIFFICULTY:Easy;
#METER:4;
#RADARVALUES:0,0,0,0,0;
#NOTES:
0000
0000
0000
0000
,
0000
0000
0000
0000
,
1000
0000
0000
0000
,
0100
0000
0000
0000
,
0010
0000
0000
0000
,
0100
0000
0000
0000
,
0010
0000
0000
0000
,
0001
0000
0000
0000
,
1000
0000
0000
0000
,
0100
0000
0000
0000
,
0001
0000
0000
0000
,
1000
0000
1001
0000
,
0100
0000
0000
0000
,
0010
0000
0000
0000
,
0100
0000
0000
0000
,
0010
0000
0000
0000
,
0001
0000
0000
0000
,
1000
0000
0000
0000
,
0010
0000
0000
0000
,
0100
0000
0000
0000
,
0010
0000
0000
0000
,
0001
0000
0000
0000
,
0100
0000
0000
0000
,
0020
0000
0030
0000
,
0100
0000
0000
0000
,
1001
0000
0100
0000
,
0010
0000
0000
0000
,
1000
0000
0000
0000
,
0001
0000
0100
0000
,
0010
0000
1000
0000
,
0000
0100
0000
0000
0000
0000
0000
0000
,
0010
0000
0000
0000
,
0100
0000
0000
0000
,
0001
0000
0000
0000
,
1000
0000
0000
0000
,
1010
0000
0000
0000
,
0001
0000
0000
0000
,
0010
0000
0000
0000
,
1000
0000
0000
0000
,
0100
0000
0000
0000
,
0010
0000
0000
0000
,
2002
0000
0000
3003
,
0000
0000
0000
0000
,
0220
0000
0000
0330
,
0000
0000
0000
0000
,
1000
0000
0000
0000
0000
0001
0000
0100
,
0000
0000
0000
0000
0000
0010
0000
0100
,
0000
0010
0000
0000
0000
0000
0000
1000
,
0000
0000
0000
0000
0000
0000
0000
2002
,
0000
3003
0000
0100
,
0000
0010
0000
0000
,
2002
0000
3003
0000
,
0100
0000
0000
0000
,
0010
0000
0000
0000
,
1000
0000
0000
0000
,
0001
0000
0000
0000
,
0100
0000
0000
0000
,
0010
0000
0000
0000
,
1000
0000
0000
0000
,
0100
0000
0000
0000
,
0010
0000
0000
0000
,
2002
3003
0000
0000
;

//--------------- dance-single - ----------------
#NOTEDATA:;
#STEPSTYPE:dance-single;
#DESCRIPTION:;
#DIFFICULTY:Medium;
#METER:7;
#RADARVALUES:0,0,0,0,0;
#NOTES:
0000
0000
0000
0000
,
0000
0000
0000
0000
,
1000
0000
0100
0010
,
0100
0001
1001
0000
,
0100
0000
0001
2000
0000
3000
0000
0000
,
0001
0000
1000
0002
0000
0003
0000
0000
,
0100
0010
0100
0000
,
0100
0010
1001
0000
,
0100
0000
0000
0010
0000
0000
0000
0100
,
0000
0010
1000
0100
,
0001
0000
0000
0100
0000
0000
0000
0010
,
0000
0000
2002
3003
,
0100
0000
0010
0100
,
0010
0000
1000
0100
,
0001
0100
0010
0100
,
0010
0000
0000
1000
0000
0000
0000
0000
,
0001
0100
0010
0100
,
0010
1000
0100
0000
,
0010
0100
0010
0001
,
1000
0100
1001
0000
,
0100
0000
0010
0100
,
0010
0100
0000
0000
,
0100
0000
0010
1000
0000
0001
0000
0100
,
0010
0000
0000
0010
0000
0000
0000
0000
,
1001
0100
1000
1000
,
0100
0001
1000
0100
,
0010
0000
0100
0000
0010
0000
0100
2000
,
0000
3000
0000
0000
0010
0000
0100
0000
,
1001
0000
0000
0000
0000
0000
0000
0100
0000
0000
0000
0000
0010
0000
0000
0000
,
0100
0000
0010
0000
0100
0000
0000
0002
0000
0000
0000
0003
2000
0000
0000
3000
,
0000
1001
0000
0000
0100
0000
0010
0000
,
0100
0000
0001
1000
,
0001
0100
0010
0000
,
0100
0000
0000
0010
2000
0000
3000
0000
,
0100
0000
0001
0200
0000
0300
0000
0000
,
0100
0010
0001
1000
,
0001
0100
0110
0000
,
0100
0000
0000
0010
0000
0000
0000
1000
,
0000
0100
0010
0100
,
0010
0000
0000
0001
0000
1000
0100
1000
,
0020
0000
0030
0000
0200
0000
0000
0300
,
0010
0000
0100
0000
1000
0000
0100
0010
,
0000
0100
0000
0010
0100
0000
0001
0000
,
1000
0000
0000
0000
0100
0000
0010
0001
,
0000
1000
0000
0001
0000
0000
0000
0000
,
0100
0000
1001
0000
0000
0100
0010
0100
,
0000
1001
0000
0000
0000
0100
0010
0100
,
0000
1000
0002
0000
0003
0010
1000
0002
,
0000
0000
0003
0000
0000
0100
0010
2002
,
0000
0000
3003
0000
0100
0010
0100
0000
,
0001
1000
0001
0000
0100
0000
0010
0000
,
0100
0010
0100
0010
,
1001
0000
0100
0010
,
1000
0100
0011
0000
,
0100
0000
0000
0010
0000
0000
0000
1000
,
0100
0000
0010
0001
,
0100
0000
0000
0100
0000
0000
0000
0010
,
0100
1000
0100
0000
,
0001
0000
0000
0200
0000
0300
1000
0020
,
0000
0030
0010
0000
0100
0000
0010
1000
,
0001
0000
0100
1000
0000
0000
0000
0000
,
0000
2002
0000
3003
0000
0000
0000
0000
;

//--------------- dance-single - ----------------
#NOTEDATA:;
#STEPSTYPE:dance-single;
#DESCRIPTION:;
#DIFFICULTY:Hard;
#METER:11;
#RADARVALUES:0,0,0,0,0;
#NOTES:
0000
0100
0010
0100
0010
0100
0010
1000
,
0100
0010
0100
0010
0001
1000
0001
0100
,
2002
0000
0000
3003
0200
0000
0000
0300
0010
0000
0100
0000
0010
0000
0001
0000
,
0002
0000
0000
0003
1000
0000
0002
0000
0000
0003
0200
0000
0000
0300
0010
0100
,
0010
0000
0010
0000
0100
0000
2000
0000
0000
3000
0100
0000
0010
0000
0001
0000
,
2000
0000
0000
3000
0100
0000
0020
0000
0000
0030
0100
0000
0010
0000
0001
0000
,
2002
0000
0000
3003
0200
0000
0000
0300
0110
0000
0000
0000
0100
0000
1000
0000
,
0200
0000
0000
0300
0110
0000
0000
0000
2002
0000
0000
3003
0100
0000
0000
0000
,
0010
0000
0100
0000
0010
0000
2000
0000
0000
3000
0100
0000
0010
0000
0001
0000
,
2000
0000
0000
3000
0100
0000
0000
0000
0010
0000
0100
0000
0010
0000
0100
0010
,
0100
0000
1000
0000
0100
0000
0020
0000
0000
0030
0100
0000
0010
0000
0200
0000
,
0000
0000
0300
0000
2002
0000
0000
3003
,
0110
0000
0100
0010
1000
0100
0010
0001
,
0000
0100
0010
0000
0100
0010
1000
0100
,
0000
0100
0010
0010
0000
0001
1000
0100
,
0020
0000
0000
0030
0100
0000
0020
0000
0000
0030
0001
0000
2000
0000
3000
0000
,
0100
0000
0010
0000
0001
0000
2000
0000
0000
3000
0100
0000
0010
0000
0002
0000
,
0000
0003
0100
0000
0010
0000
0100
0000
0020
0000
0000
0000
1030
0000
0000
0000
,
0110
0000
0001
0100
0010
1000
0100
0010
,
0001
0000
0000
0000
0100
0000
0020
0000
0000
0030
0100
0000
0010
0100
0010
0000
,
1001
0000
0100
0010
0100
0010
1000
0100
,
0000
0010
0002
0000
0003
1000
0100
0020
,
0000
0030
0100
0000
0010
0000
2000
0000
0000
3000
0100
0000
0010
0000
0001
0000
,
2002
0000
0000
0000
3003
0100
0010
0100
,
2002
0000
0000
3003
0100
0000
0000
0000
0220
0000
0330
0000
0100
0000
1000
0000
,
0200
0000
0000
0300
0002
0000
0000
0003
0200
0000
0000
0000
0310
0000
0000
0000
,
0100
0010
0001
1000
0100
0010
0001
1000
,
1001
0000
0000
0000
0100
0010
0100
1000
,
0100
0000
0000
0000
0010
0000
0000
0000
0100
0000
0000
0000
0010
0000
0001
0000
1000
0000
0000
0000
0100
0000
0000
0000
0010
0000
0000
0000
0100
0000
0010
0001
,
0100
0100
0010
1000
0000
0100
0010
0100
2002
0000
0000
0000
0000
0000
0000
0000
,
3003
0100
0010
0100
0010
0100
1000
0100
,
0001
0000
1001
0000
0100
0010
0100
0010
,
0002
0000
0000
0003
1000
0000
0002
0000
0000
0003
0100
0000
0000
0000
0010
0100
,
1000
0100
0010
0001
0000
0100
0010
0100
,
1000
0000
0000
0000
0100
0000
0010
0000
0000
0001
0000
0000
1000
0000
0000
0000
,
1001
0000
0100
0000
0010
0000
0100
0010
,
0110
0001
1001
0100
,
0010
0100
0010
0001
0000
0100
0010
0100
,
1000
0000
0000
0000
0100
0000
0000
0000
0010
0000
0100
0000
0010
0000
0100
0010
,
0100
0100
0010
1000
0000
0100
0010
0100
,
0000
0010
0100
0010
0001
0000
1001
0000
,
0100
0000
0010
0100
0010
0001
1000
0100
,
0000
0010
0000
0100
0020
0000
0000
0000
,
0130
0000
0010
0100
1000
0100
0010
0001
,
0000
0100
0000
0010
0000
0000
0000
0000
,
1001
0100
0110
0000
0000
0100
0010
0100
,
0000
0010
1001
0000
0000
0100
0010
0100
,
0000
0010
0100
0000
0000
0100
0010
0100
,
0000
0000
0000
0000
0000
0100
0010
0200
,
0000
0000
0300
0000
0110
0000
0000
0000
2002
3003
0100
0000
0010
1000
0100
1000
,
0010
0000
0000
0000
0001
0000
1000
0000
0000
0000
0001
0000
0000
0000
1000
0010
0001
0000
1000
0000
0110
0000
0010
0000
0000
0000
0100
0000
0010
0000
0100
0000
,
1001
0000
0100
0010
0100
0010
0001
1000
,
2002
0000
0000
3003
0200
0000
0000
0000
0301
0000
0000
0000
0100
0000
0010
0000
,
0220
0000
0000
0330
1001
0000
0000
0000
0220
0000
0000
0330
0100
0000
0000
0000
,
0010
0000
0100
0000
0010
0000
0200
0000
0000
0300
1000
0000
0100
0000
0010
0000
,
0100
0000
0000
0000
0010
0000
0000
0000
0001
0000
1000
0000
0001
0000
1000
0100
,
0010
0000
0100
0000
0010
0000
0002
0000
0000
0003
1000
0000
0100
0000
0010
0000
,
0200
0000
0000
0300
0010
0000
0000
0000
1000
0000
0100
0000
0010
0000
0100
0010
,
0100
0000
0010
0000
1000
0000
0200
0000
0000
0300
0010
0000
0001
0000
0100
0000
,
0020
0000
0000
0000
0130
0000
0000
0000
0010
0000
1000
0000
0001
0000
0100
0010
,
0100
1000
0010
0100
2002
0000
3003
0000
,
0000
0100
0010
0220
0000
0000
0000
0000
0330
0000
0000
0000
0000
0000
0000
0000
;

//--------------- dance-single - ----------------
#NOTEDATA:;
#STEPSTYPE:dance-single;
#DESCRIPTION:;
#DIFFICULTY:Challenge;
#METER:16;
#RADARVALUES:0,0,0,0,0;
#NOTES:
0100
0010
0100
0010
0100
0010
0100
0010
,
0100
0001
1000
0100
0010
0001
1000
0100
,
0020
0000
0000
0030
2002
0000
0000
3003
0100
0000
0010
0000
0100
0000
0010
0000
,
0200
0000
0300
0000
0010
0000
2002
0000
3003
0000
0200
0000
0300
0000
0010
1000
,
0100
0010
0100
0020
0000
1030
0001
0100
,
0002
0000
0103
0020
0100
1000
0130
0000
,
2002
3003
0200
0000
0310
0000
0100
0010
,
2020
3030
0202
0303
2002
3003
M11M
0000
,
0100
0010
0100
0020
0030
0100
0010
1000
,
0002
0000
0000
0000
0103
0000
0000
0000
0001
0000
0100
0000
0010
0000
1000
0100
,
0010
0000
0010
0000
0100
0000
2000
0000
0000
3000
0100
0000
0010
0000
0001
0000
,
2000
0000
0000
0000
3001
0000
0000
0000
2M02
00M0
0M00
00M0
0M00
3003
0000
0000
,
0220
0000
0330
0000
0100
0000
1000
0010
0001
0000
0010
1000
0100
0000
0020
0000
,
0000
0030
1000
0000
0002
0000
0000
0003
0100
0000
0010
0000
0100
0000
0020
0000
,
0030
1000
0100
0002
0003
0100
0010
1000
,
0002
0000
0000
0003
1000
0000
0200
0000
0000
0300
0010
0000
0001
0000
1000
0000
,
0001
0000
0100
0000
0010
0000
0002
0000
0000
0003
0100
0000
0010
0000
0200
0000
,
0000
0300
1000
0000
0100
0000
0010
0000
0001
0000
0100
0000
0220
0000
0330
0000
,
2000
0000
0000
3000
0010
0000
0001
0000
1000
0000
0100
0000
0010
0000
0001
0000
,
1001
0000
0110
0000
1001
0000
0020
0000
0030
0000
0100
0000
0010
0100
0001
1000
,
0220
0000
0330
0000
0002
0003
1000
0000
0100
1000
0010
0000
0002
0003
2000
0000
,
3000
0100
0020
0030
0100
0010
0001
2000
,
3000
0000
0200
0300
0020
0030
0002
0000
0003
0000
0001
0000
0100
0000
0010
0000
,
4004
0000
0000
0000
0000
0000
0000
0000
3003
0000
0100
0000
0010
1000
0100
0000
,
0020
0000
0000
0030
2002
0000
0000
3003
0200
0000
0000
0300
0001
0000
0100
0000
,
0220
0330
2002
3003
0220
0330
2002
3003
,
0100
0000
0010
0000
0100
0000
0010
0100
1000
0000
0010
0001
0100
0000
1000
0000
,
0002
0000
0000
0000
0203
0000
0000
0300
0010
0000
0100
0000
0010
0000
0001
0000
,
2002
0000
0000
0000
0000
0000
3003
0000
0100
0000
0000
0000
0010
0000
0200
0000
0000
0000
0000
0000
0310
0000
0010
0000
2002
0000
3003
0000
0100
0000
0010
1000
,
0100
0000
0100
0000
0010
0000
0100
0000
0000
0000
0010
0000
1000
0000
2002
0000
0000
0000
0000
0000
0000
0000
0000
3003
0220
0000
0000
0000
0000
0000
0000
0000
,
0330
0000
2002
3003
0220
0330
2002
3003
0022
0033
2200
3300
0100
1000
0010
0000
,
2002
0000
0000
3003
0220
0000
0000
0330
0100
0000
1000
0000
0100
0000
0010
0000
,
0002
0000
0000
0003
1001
0000
0200
0000
0000
0000
0310
0000
0000
0000
0100
0010
,
0100
0100
1000
0100
0010
0001
1000
0100
,
2002
0000
0000
3003
0200
0300
0020
0000
0100
0001
1000
0100
1030
0000
0000
0000
,
2002
0000
0000
3003
0200
0000
0000
0300
0020
0000
0000
0030
0100
0000
0010
0000
,
2020
0000
0000
3030
0220
0000
0000
0330
0022
0000
0033
0000
0220
0000
0000
0330
,
0110
0000
1000
0000
0100
0000
0020
0000
0000
0030
0001
0000
0100
0000
0010
0000
,
0002
0000
0000
0003
0100
0000
0000
0000
0010
0000
0100
0000
0010
0000
0100
0010
,
0100
0100
0010
0100
0000
0010
1000
0010
,
0101
0000
0000
0000
1001
0000
0000
0000
1001
0100
0001
0100
0010
0000
0000
0000
,
0110
0000
1000
0010
0100
0010
0100
0010
,
0000
1000
0010
0100
0010
0000
0100
0000
,
1001
0000
0100
0000
0010
0000
0100
0010
0100
0000
0001
0000
0100
1000
0010
0000
,
0100
1001
0010
0100
1000
0010
0100
0000
,
2002
3003
0100
0000
2020
0000
0000
3030
0100
0000
0010
0000
0220
0330
2002
0000
,
0000
3003
0101
0000
0220
0000
0000
0330
0100
0000
0010
0000
1010
0000
0220
0000
,
0000
0330
1001
0000
0202
0000
0000
0303
0000
0000
0010
0000
0100
0000
2M02
00M0
,
0M00
00M0
0M00
00M0
0M00
00M0
3M03
0000
0200
0300
2000
3000
0002
0003
2000
0000
,
0000
0000
0000
0000
3002
0000
0003
0000
2002
3003
0200
0300
0010
0100
0010
0001
,
2000
0000
3000
0000
0100
0000
0020
0000
0030
0000
0100
0000
0010
0000
0100
0010
0100
0000
0100
0000
0010
0000
2000
0000
3000
0000
0100
0000
0010
0000
0001
0000
,
2002
3003
0220
0330
0100
1000
0010
0100
0010
0100
0010
1001
0010
0100
0010
0100
,
2020
0000
0000
3030
2002
0000
0000
3003
0220
0000
0000
0330
0010
0000
0100
0000
,
2002
0000
0000
3003
0220
0000
0000
0330
2002
0000
0000
3003
0220
0000
0000
0330
,
0100
0000
0010
0000
0100
0000
0020
0000
0000
0030
0100
0000
0010
0000
1000
0000
,
0200
0000
0000
0300
0020
0000
0000
0030
0100
1000
0020
0030
0001
0100
1000
0001
,
1000
0000
0100
0000
0010
0000
0200
0000
0000
0300
0010
0000
1000
0000
0100
0000
,
0010
0000
0001
0000
1100
0000
0100
0000
0020
0030
1000
0000
0100
0000
0010
0100
,
0010
0000
0100
0000
0010
0000
0200
0000
0000
0300
0001
0000
2000
3000
0100
0000
,
0100
0000
0010
0000
1000
0000
0000
0000
1010
0000
0000
0000
0100
0000
0100
0010
,
0001
1000
0100
0220
0000
0000
0000
0000
,
0330
1001
0110
2002
0000
0000
0000
0000
0000
0000
0000
0000
0000
0000
0000
0000
,
0000
0000
3003
0000
;

//--------------- dance-double - ----------------
#NOTEDATA:;
#STEPSTYPE:dance-double;
#DESCRIPTION:;
#DIFFICULTY:Easy;
#METER:2;
#RADARVALUES:0,0,0,0,0;
#NOTES:
00000000
00000000
00000000
00000000
,
00000000
00000000
00000000
00000000
,
00100000
00000000
00000000
00000000
,
01000000
00000000
00000000
00000000
,
10000000
00000000
00000000
00000000
,
01000000
00000000
00000000
00000000
,
00100000
00000000
00000000
00000000
,
00010000
00000000
00000000
00000000
,
01000000
00000000
00000000
00000000
,
00100000
00000000
00000000
00000000
,
10000000
00000000
00000000
00000000
,
01000000
00000000
00000000
00000000
,
00010000
00000000
00000000
00000000
,
00100000
00000000
00000000
00000000
,
01000000
00000000
00000000
00000000
,
00100000
00000000
00000000
00000000
,
10000000
00000000
00000000
00000000
,
01000000
00000000
00000000
00000000
,
00100000
00000000
00000000
00000000
,
00010000
00000000
00000000
00000000
,
00001000
00000000
00000000
00000000
,
00000100
00000000
00000000
00000000
,
00000010
00000000
00000000
00000000
,
00000001
00000000
00000000
00000000
,
00000010
00000000
00000000
00000000
,
00001000
00000000
00000000
00000000
,
00000100
00000000
00000000
00000000
,
00000010
00000000
00000000
00000000
,
00001000
00000000
00010000
00000000
,
00100000
00000000
10000000
00000000
,
00000000
01000000
00000000
00100000
,
10010000
00000000
00000000
00000000
,
01000000
00000000
00000000
00000000
,
00100000
00000000
00000000
00000000
,
00010000
00000000
00000000
00000000
,
00001000
00000000
00000000
00000000
,
00000100
00000000
00000000
00000000
,
00000010
00000000
00000000
00000000
,
00000001
00000000
00000000
00000000
,
00000100
00000000
00000000
00000000
,
00001000
00000000
00000000
00000000
,
00011000
00000000
00000000
00000000
,
00010000
00000000
00000000
00000000
,
00010000
00000000
00000000
00000000
,
00100000
00000000
00000000
00000000
,
01000000
00000000
00000000
00000000
00000000
00000000
00000000
10000000
,
00000000
00000000
00000000
00000000
00000000
00000000
00000000
01000000
,
00000000
00000000
00000000
00000000
00000000
00000000
00000000
00100000
,
00000000
00000000
00000000
00000000
00000000
00000000
00000000
20020000
,
00000000
30030000
00000000
00000000
01000000
00000000
00000000
00000000
,
00000000
00000000
00010000
00000000
,
00000000
00000000
00000000
00000000
,
00001010
00000000
00000000
00000000
,
00000100
00000000
00000000
00000000
,
00000001
00000000
00000000
00000000
,
00001000
00000000
00000000
00000000
,
00000010
00000000
00000000
00000000
,
00000100
00000000
00000000
00000000
,
00000001
00000000
00000000
00000000
,
00000100
00000000
00000000
00000000
,
00001000
00000000
00000000
00000000
,
00000000
00022000
00033000
00000000
;

//--------------- dance-double - ----------------
#NOTEDATA:;
#STEPSTYPE:dance-double;
#DESCRIPTION:;
#DIFFICULTY:Medium;
#METER:6;
#RADARVALUES:0,0,0,0,0;
#NOTES:
00000000
00000000
00000000
00000000
,
00000000
00000000
00000000
00000000
,
10000000
00000000
01000000
00000000
,
00100000
00000000
01000000
00000000
,
00100000
00000000
00010000
00000000
,
10000000
00000000
01000000
00000000
,
00100000
00000000
01000000
00000000
,
00100000
10000000
00010000
00000000
,
10000000
00000000
01000000
00000000
,
00100000
00000000
01000000
00000000
,
00010000
00000000
01000000
00000000
,
00100000
00000000
00010000
00000000
,
10010000
00000000
01000000
00000000
,
00100000
00000000
00010000
00000000
,
01000000
00000000
00100000
00000000
,
00010000
00000000
10000000
00000000
,
01000000
00000000
00100000
00000000
,
01000000
00000000
00100000
00000000
,
00010000
00000000
10000000
00000000
,
01000000
00000000
00100000
00000000
,
00011000
00000000
00000100
00000000
,
00000010
00000000
00000001
00000000
,
00001100
00000000
00001000
00000000
,
00000220
00000000
00000330
00000000
,
00000010
00000000
00000001
00000000
,
00001000
00000001
00001000
00000000
,
00000100
00000000
00000010
00000000
,
00000100
00000000
00001000
00000000
,
00022000
00033000
00010000
00000000
01000000
00000000
10000000
00000000
,
01000000
00000000
00000000
00000000
00100000
00000000
00000000
02200000
00000000
00000000
00000000
00000000
00000000
00000000
00000000
00000000
,
03300000
10000000
00010000
01000000
,
01010000
00000000
01000000
00000000
,
00100000
00000000
10000000
00000000
,
01000000
00000000
00100000
00000000
,
01000000
00000000
00100000
00000000
,
00010000
00000000
00001000
00000000
,
00000100
00000001
00001001
00000000
,
00000100
00000000
00000010
00000000
,
00000100
00000000
00001000
00000000
,
00010000
00000000
00010000
00000000
,
00100000
00000000
01000000
10000000
,
10010000
00000000
01000000
00000000
,
00100000
00000000
01000000
00000000
,
00100000
00000000
00010000
00000000
,
10000000
00000000
01000000
00000000
,
00100000
00000000
01000000
00000000
00000000
00000000
00000000
00100000
,
00000000
01000000
00000000
00000000
00000000
00000000
00000000
00100000
,
00000000
00010000
00000000
00000000
00000000
00001000
00000000
00000100
,
00000000
00000000
00000000
00000000
00000000
00000100
00000000
00000022
,
00000000
00000033
00000100
00000000
,
00000002
00000000
00000000
00000003
00000020
00000000
00000000
00000030
,
00002000
00000000
00003000
00000000
,
00010000
00000000
00100000
00000000
,
01000000
10000000
00010000
00000000
,
10000000
00000000
00000000
01000000
00000000
00000000
00000000
00000000
,
00100000
00000000
01000000
00000000
,
01000000
00000000
00100000
00000000
,
10000000
00000000
01000000
00000000
,
00010000
00000000
00000000
00001000
00000000
00000000
00000000
00000000
,
00001000
00000000
00000100
00000000
,
00000010
00000000
00000100
00000000
,
00000000
00000220
00000000
00000000
00000330
00000000
00000000
00000000
;

//--------------- dance-double - ----------------
#NOTEDATA:;
#STEPSTYPE:dance-double;
#DESCRIPTION:;
#DIFFICULTY:Hard;
#METER:9;
#RADARVALUES:0,0,0,0,0;
#NOTES:
00000000
00000000
00000000
00000000
,
00000000
00000000
00000000
00000000
,
10010000
00000000
01000000
00000000
00100000
01000000
00100000
01000000
,
00010000
00000000
10000000
00010000
00000000
01000000
00000000
00100000
,
01000000
00100000
01000000
00200000
00300000
10000000
00100000
01000000
,
00200000
00300000
01000000
00100000
02000000
00000000
03010000
00000000
,
01100000
00000000
00100000
00000000
01000000
00000000
00010000
00001000
,
00011000
00000100
00001010
00000101
,
00000010
00000100
00000010
00002000
00003000
00000001
00000100
00000010
,
00000100
00000000
00000000
00000000
00000010
00000000
00000000
00000000
00000100
00000000
00000010
00000000
00001000
00000000
00000101
00001000
,
00000010
00000000
00001000
00000000
00000010
00000000
00000002
00000000
00000000
00000003
00000100
00000000
00000010
00000000
00002000
00000000
,
00000000
00000000
00000000
00003000
00000010
00000000
00000000
00000000
00000100
00000000
00000000
00000000
00002020
00003030
00000000
00000000
,
00000100
00000000
00000010
00000100
00000010
00001000
00000010
00000100
,
00000000
00000010
00000100
00000000
00000000
00000010
00000110
00000100
,
00000000
00000010
00001000
00000010
00000000
00000100
00000010
00001000
,
00000010
00000000
00000001
00000100
00000000
00000001
00001000
00000000
,
00000001
00000100
00000010
00001000
00000000
00000010
00000100
00000010
,
00000000
00001000
00000100
00001000
00000000
00000000
00000001
00000000
,
00000100
00000000
00000010
00000100
00000010
00001000
00000001
00000100
,
00000010
00000000
00000010
00001000
00000100
00010000
00001000
00000000
,
00110000
00000000
01000000
00100000
10000000
00100000
01000000
00200000
,
00000000
00300000
01000000
00000000
00200000
00000000
00000000
00300000
01000000
00000000
00100000
00000000
01000000
00000000
00100000
00000000
,
00000000
10000000
00100000
01000000
00000000
00100000
01000000
00010000
,
20020000
00000000
00000000
00000000
00000000
00000000
00000000
30030000
,
01100000
00000000
01000000
00000000
00010000
00000000
00100000
00010000
,
00110000
00001000
00000101
00000100
,
00001000
00000100
00000010
00000100
00000010
00001000
00000001
00000100
,
00000010
00000000
00001010
00000000
00000100
00000010
00000100
00000010
,
00001001
00000000
00000000
00000000
00000100
00000000
00000010
00002000
00000000
00000000
00003000
00000000
00000010
00000000
00001000
00000100
,
00000020
00000000
00000030
00000200
00000000
00000000
00000300
00000110
00000000
00000000
00001000
00000000
00000001
00000000
00000100
00000000
,
00000000
00001010
00001000
00000100
00001000
00000100
00000100
00000010
,
00002002
00000000
00000000
00003003
00000100
00000000
00000000
00000000
00000010
00000000
00001000
00000000
00000010
00000000
00000100
00000000
,
00000001
00000000
00000001
00001000
00000000
00000001
00000000
00001000
,
00000010
00000100
00000010
00001000
00000000
00000010
00000100
00000001
,
00001000
00000000
00000010
00000100
00000001
00001000
00000010
00000000
,
00001100
00000000
00000100
00000000
00010000
00000000
00001000
00100000
,
00010000
10010000
01100000
10010000
,
10000000
00100000
01000000
00100000
00000000
01000000
00100000
01000000
,
00100000
00000000
00000000
00000000
10000000
00000000
00000000
00000000
00100000
00000000
01000000
00000000
00100000
00000000
01000000
10000000
,
00010000
00000000
01000000
00000000
01000000
00000000
00200000
00000000
00000000
00300000
10000000
00000000
00100000
00000000
01000000
00000000
,
00010000
10010000
01000000
00100000
,
01100000
00000000
01000000
00100000
00100000
00010000
00001000
00000100
,
00000000
00000010
00000001
00001000
00000010
00000001
00000100
00000000
,
00000010
00000000
00001001
00000001
00000100
00000010
00000100
00000010
,
00000000
00001000
00000000
00000010
00000100
00000010
00001000
00000000
,
00001000
00000100
00001001
00000000
00000000
00000010
00000100
00000001
,
00000000
00001000
00000001
00000000
00000000
00000100
00000010
00001000
,
00000000
00000010
00000100
00000000
00000000
00000001
00000100
00002002
,
00000000
00000000
00000000
00000000
00003003
00000100
00000010
00002200
,
00000000
00000000
00000000
00003300
00022000
00000000
00000000
00033000
20020000
30030000
00100000
00000000
01000000
01000000
00100000
10000000
,
01000000
00000000
00100000
00100000
00000000
01000000
00000000
01000000
00100000
01000000
00100000
01000000
00000000
00010000
00010000
00001000
,
00000100
00000010
00000001
00000001
00000100
00000010
00001000
00000000
,
00001001
00000000
00000100
00000000
00000010
00000000
00000100
00000100
,
00001000
00000010
00001001
00000010
,
00000100
00000010
00000100
00000001
00000000
00001000
00000100
00000010
,
00000001
00000000
00000000
00000000
00001001
00000000
00000000
00000000
00000100
00000000
00000010
00000000
00000100
00000000
00000010
00000100
,
00000020
00000130
00001000
00000200
00000300
00000100
00000010
00000100
,
00000001
00000000
00000000
00000000
00001001
00000000
00000000
00000000
00000100
00000000
00000000
00000000
00000001
00000000
00000100
00001000
,
00000010
00000000
00000100
00000000
00000010
00000000
00002000
00000000
00000000
00003000
00000100
00000000
00001000
00000000
00010000
00000000
,
02000000
00000000
00000000
03000000
00100000
00000000
00000000
00000000
10100000
00000000
00000000
00000000
01000000
00000000
00100000
01000000
,
00100000
01000000
00100000
20020000
00000000
00000000
30030000
00000000
,
00000000
01100000
00110000
00022000
00000000
00000000
00000000
00000000
00000000
00000000
00000000
00000000
00000000
00000000
00000000
00000000
,
00000000
00033000
00000000
00000000
;
