#TITLE:알레그로 퓨리오소;
#SUBTITLE:;
#ARTIST:DM Ashura;
#TITLETRANSLIT:Allegro Furioso;
#SUBTITLETRANSLIT:;
#ARTISTTRANSLIT:;
#GENRE:Classical;
#CREDIT:;
#MUSIC:Allegro Furioso.ogg;
#BANNER:Allegro Furioso.png;
#BACKGROUND:Allegro Furioso-bg.png;
#CDTITLE:Wrland Season 2.png;
#SAMPLESTART:11.978;
#SAMPLELENGTH:12.000;
#SELECTABLE:YES;
#OFFSET:-1.069;
#BPMS:0.000=176.000
,28.000=44.000
,29.000=176.000
,157.000=88.000
,173.000=44.000
,174.000=88.000
,178.000=176.000
,234.000=88.000
,242.000=176.000
,274.000=44.000
;
#STOPS:;
#DISPLAYBPM:44.000:176.000;
#JACKET:Allegro Furioso-jacket.png;
#BGCHANGES:;
#FGCHANGES:;

//--------------- dance-single - ----------------
#NOTES:
     dance-single:
     :
     Beginner:
     2:
     0,0,0,0,0:
0000
0000
0000
0000
,
0000
0000
0000
0000
,
0000
0000
0000
0000
,
0000
0000
0000
0000
,
0000
0000
0000
0000
,
0000
0000
0000
0000
,
0000
0000
0000
0000
,
0000
1000
0000
0000
,
0000
1000
0000
0000
,
0000
0001
0000
0000
,
0000
0001
0000
0000
,
0000
0100
0000
0000
,
0000
0100
0000
0000
,
0000
0010
0000
0000
,
0000
0010
0000
0000
,
0000
0100
0000
0000
,
0000
1000
0000
0000
,
0000
0100
0000
0000
,
0000
0010
0000
0000
,
0000
0001
0000
0000
,
0000
0100
0000
0000
,
0000
0010
0000
0000
,
0000
0100
0000
0000
,
0000
1000
0000
0000
,
0000
1000
0000
0000
,
0000
0001
0000
0000
,
0000
0001
0000
0000
,
0000
0100
0000
0000
,
0000
0010
0000
0000
,
0000
0100
0000
0000
,
0000
0100
0000
0000
,
0000
1000
0000
0000
,
0000
1000
0000
0000
,
0000
0100
0000
0000
,
0000
0100
0000
0000
,
0000
0010
0000
0000
,
0000
0100
0000
0000
,
0000
0010
0000
0000
,
0000
0100
0000
0000
,
0000
0020
0000
0000
,
0030
0000
0000
0000
,
0000
0200
0000
0000
,
0000
0000
0000
0000
,
0300
0000
0000
0000
,
0000
0000
0010
0000
,
0000
0000
1000
0000
,
0000
0000
0100
0000
,
0000
0000
0010
0000
,
0000
0000
0001
0000
,
0000
0000
0100
0000
,
0000
0000
0010
0000
,
0000
0000
0100
0000
,
0000
0000
0010
0000
,
0000
0000
0100
0000
,
0000
0000
0010
0000
,
0000
0000
0001
0000
,
0000
0000
1000
0000
,
0000
0000
0100
0000
,
0000
0000
0020
0000
,
0000
0000
0000
0000
,
0030
0000
0100
0000
,
0000
0000
0010
0000
,
0000
0000
0100
0000
,
0000
0000
0010
0000
,
0000
0000
0101
0000
,
0000
0000
1010
0000
,
0000
0000
0101
0000
,
0000
0000
1010
0000
,
0000
0000
2002
0000
,
0000
0000
0000
0000
,
3003
0000
0000
0000
;

//--------------- dance-single - ----------------
#NOTES:
     dance-single:
     :
     Easy:
     3:
     0,0,0,0,0:
0000
0000
0000
0000
,
0000
0000
0000
0000
,
0000
0000
0000
0000
,
0000
0000
0000
0000
,
0000
0000
0000
0000
,
0000
0000
0000
0000
,
0000
0000
0000
0000
,
0000
1000
0000
1000
,
0000
1000
0001
1000
,
0000
1000
0000
1000
,
0000
1000
0100
1000
,
0000
1000
0100
0010
,
1001
0100
0010
0100
,
0110
0100
0010
0001
,
0100
0010
1000
0100
,
0000
0100
0000
0100
,
0000
0010
0000
0010
,
0000
0100
0000
1000
,
0000
0100
1000
0100
,
0000
0010
0000
0100
,
0000
0011
0110
1100
,
0110
0100
0000
0010
,
0000
0100
0010
0100
,
0010
0001
0000
1001
,
0000
0001
0000
1000
,
0000
0100
0000
1100
,
0000
0100
0000
0010
,
0000
0001
0000
0101
,
0000
0010
0000
1000
,
0000
0100
0000
1001
,
0000
1000
0000
0001
,
0000
1001
0000
0100
,
0000
0010
0000
0100
,
0000
0010
0000
0100
,
0000
0010
0000
0001
,
0000
0100
0000
0010
,
0000
0100
0000
0010
,
0000
0100
0000
1000
,
0000
1001
0000
0100
,
0010
0200
0000
0000
,
0300
0020
0000
0000
,
0030
0200
0000
0000
,
0300
0020
0000
0000
,
0030
0000
2002
0000
,
0000
3003
0110
0100
,
0100
0010
0100
0010
,
0100
0000
1000
0001
,
1000
1001
0100
0010
,
0100
0110
0100
0010
,
0001
0100
1000
0100
,
0010
0000
1000
0000
,
1000
0000
0001
0000
,
0001
0000
0100
0000
,
0100
0000
0010
0000
,
0010
0000
0100
0000
,
1000
0000
0100
0000
,
0010
0000
0100
0000
,
0010
0000
0100
0000
,
0010
0000
0220
0000
,
0330
0000
2002
0000
,
3003
0000
1000
0000
,
1000
0000
0100
0000
,
0100
0000
0010
0000
,
0100
0000
0010
0100
,
0010
0100
1001
0000
,
0100
0010
1010
0000
,
0100
0010
0101
0010
,
0110
0100
1100
0100
,
0110
0010
2002
0000
,
0000
0000
0000
3003
;

//--------------- dance-single - ----------------
#NOTES:
     dance-single:
     :
     Medium:
     6:
     0,0,0,0,0:
0000
0000
0000
0000
,
0000
0000
0000
0000
,
0000
0000
0000
0000
,
0000
0000
0000
0000
,
0100
0010
0100
0010
,
0100
0010
0100
0010
,
0100
0010
0100
0010
0100
0010
0100
0010
0100
0010
0100
0010
,
0220
0000
0000
0330
0100
0000
0000
0000
1000
0000
0000
0000
0100
0000
0000
0000
,
0001
0100
0010
0220
,
0000
0330
1000
0000
0100
0000
1000
0000
,
0100
0010
0100
0220
,
0330
0100
0010
0100
,
0101
0010
0100
0010
,
1010
0100
0010
0100
,
0010
0001
0100
0010
,
0000
0100
0010
0100
,
1000
0100
0000
0100
,
0000
0100
0010
0100
,
0010
0000
0002
0000
0000
0003
2000
0000
,
0000
3000
0100
0000
1000
0000
0100
0000
,
0010
0100
0010
0001
,
0100
0010
0100
0010
,
0100
0000
2000
0000
0000
3000
0200
0000
,
0000
0300
0020
0000
0030
0000
0220
0000
,
0330
0200
0300
0220
,
0330
0020
0030
0022
,
0033
0002
0003
0022
,
0033
0020
0030
0220
,
0330
0200
0300
2200
,
3300
2000
3000
2200
,
3300
1000
0100
0010
,
0001
1000
0100
0010
,
0100
1000
0100
0010
,
0001
0100
0010
0100
,
0010
1000
0100
1000
,
0100
1000
0100
0010
,
0101
0010
0100
0010
,
1010
0100
0010
0100
,
0101
0010
0100
0010
,
0110
0200
0000
0000
,
0300
2000
0000
0000
,
3000
0002
0000
0000
,
0003
2000
0000
0000
,
3000
0000
0100
0010
,
0100
0010
0200
0300
0110
0000
0100
0000
,
0010
0100
1000
0100
,
0002
0000
0000
0003
0100
0000
0010
0000
,
0200
0300
0110
0000
1000
0000
0100
0000
,
2000
3000
1100
0000
0100
0000
0001
0000
,
0100
0010
0100
0010
,
0200
0000
0000
0300
0020
0000
0000
0030
,
0100
0000
0010
0000
0200
0000
0000
0300
,
0020
0000
0000
0030
0002
0000
0000
0003
,
1000
0000
0001
0000
2000
0000
0000
3000
,
0200
0000
0000
0300
1000
0000
0100
0000
,
0100
0010
0100
0010
,
0001
0000
0100
0000
0020
0000
0000
0030
,
2000
0000
0000
3000
0200
0000
0000
0300
,
0020
0000
0030
0000
0220
0000
0000
0330
,
2002
0000
0000
3003
2002
0000
0000
3003
,
2002
0000
0000
3003
0100
0000
1000
0000
,
0100
0010
0001
0010
,
0100
0010
0001
0100
,
0010
1000
0100
0010
,
0100
0010
0110
0000
,
1001
0000
1001
0000
,
1001
0000
1001
0000
,
1001
0000
1001
0000
,
1001
1001
2002
0000
,
3003
0000
0000
0000
0000
1001
2002
0000
0000
0000
0000
0000
3003
0000
0000
0000
;

//--------------- dance-single - ----------------
#NOTES:
     dance-single:
     :
     Hard:
     11:
     0,0,0,0,0:
0000
0000
0000
0000
,
0000
0000
0000
0000
,
0000
0000
0000
0000
,
0000
0000
0000
0000
,
1000
0000
0010
0001
0000
0000
0100
0000
0001
0010
0000
0000
,
0100
0000
1000
0010
0000
0000
0100
0000
0000
0010
0000
0000
,
0001
0010
0100
0010
0001
0100
1000
0010
0100
1000
0010
0100
,
2MM2
0000
0000
0MM0
0000
0000
0MM0
0000
0000
0MM0
0000
0000
0MM0
0000
0000
0MM0
0000
0000
0MM0
0000
0000
0MM0
0000
0000
0MM0
0000
0000
0MM0
0000
0000
0MM0
0000
3003
0MM0
0000
0000
0000
0000
0000
0000
0000
0000
0000
0000
0000
0000
0000
0000
0200
0000
0000
0000
0000
0000
0000
0000
0000
0000
0000
0000
0000
0000
0000
0000
0000
0000
0000
0000
0000
0000
0000
0000
0000
0000
0000
0000
0000
0000
0000
0000
0300
0000
0000
0000
0000
0000
0000
0000
0000
0000
0000
0000
0000
0000
0000
0000
0020
0000
0000
0000
0000
0000
0000
0000
0000
0000
0000
0000
0000
0000
0000
0000
0000
0000
0000
0000
0000
0000
0000
0000
0000
0000
0000
0000
0000
0000
0000
0000
0030
0000
0000
0000
0000
0000
0000
0000
0000
0000
0000
0000
0000
0000
0000
0000
0200
0000
0000
0000
0000
0000
0000
0000
0000
0000
0000
0000
0000
0000
0000
0000
0000
0000
0000
0000
0000
0000
0000
0000
0000
0000
0000
0000
0000
0000
0000
0000
0300
0000
0000
0000
0000
0000
0000
0000
0000
0000
0000
0000
0000
0000
0000
0000
,
0020
0000
0030
0100
0010
0001
1000
0000
0100
0020
0000
0000
,
0000
0030
0000
0202
0000
0303
0002
0000
0003
0200
0000
0300
,
0020
0000
0030
1000
0010
0001
0100
0010
1000
0200
0000
0300
,
0010
0001
0010
0010
0100
0010
0100
0010
0100
0002
0000
0003
,
2002
0000
3003
0100
0010
0100
0010
0100
0010
0200
0000
0300
,
2020
0000
3030
0100
0010
0001
0010
0001
0100
0010
1000
0100
,
0010
0001
0010
0001
0100
0010
0001
0100
1000
0200
0000
0001
,
0000
0301
0000
0202
0000
0000
0303
1000
0100
0001
0010
0001
,
0100
0010
0100
0020
0000
0000
0030
0100
0010
0200
0000
0000
,
0000
0300
0000
2000
0000
0000
3000
0001
1000
0001
1000
0001
,
1000
0001
1000
0002
0000
0000
0003
0010
0100
0020
0000
0000
,
0030
0000
0000
0200
0000
0000
0300
0010
0001
0100
0010
0100
,
1000
0010
0100
0011
0000
0000
1001
0000
0000
0110
0000
0000
,
1001
0000
0000
0220
0000
0000
0330
0001
0100
0020
0000
0000
,
0030
0010
0100
0020
0000
0000
0030
0000
0000
0110
0000
0110
,
0000
0110
0000
1000
0100
0010
0100
0010
0001
0101
0010
0001
,
0010
0100
0010
1000
0001
0010
0100
1000
0010
0101
0010
0001
,
0220
0000
0330
0010
0100
0010
0001
0010
0100
0110
0001
0100
,
0010
0100
0010
1000
0001
0010
0100
0001
0010
2020
0000
3030
,
0202
0000
0303
0100
0010
0100
1000
0010
0001
0101
0010
0100
,
0010
0001
0010
0200
0000
0300
0020
0000
0030
0110
1000
0100
,
0022
0000
0033
1000
0100
0010
0010
0001
0010
0011
0100
0010
,
0001
0100
0010
2000
0000
0001
0000
0001
0000
0001
0000
0001
,
0000
3001
0000
0100
0010
0001
0010
0001
0100
0010
1000
0100
,
0010
0001
0010
0100
1000
0100
0010
0001
0010
0100
0010
0001
,
0010
0100
0010
1000
0100
0010
0001
0010
0100
0001
1000
0100
,
0010
0100
0010
1000
0100
0010
0001
0100
0010
0001
0010
0100
,
0010
0001
0100
1010
0000
0001
0100
0000
0000
0100
0000
1000
,
0100
0000
0000
0010
0000
0001
0100
0000
0000
0100
0000
0010
,
0001
0000
0000
0010
0100
0010
0001
0010
0100
0010
0100
0010
,
0100
1000
0100
0010
0001
0010
0100
0010
0100
0010
0001
0100
,
1000
0010
0001
0200
0000
0300
0020
0000
0030
0200
0000
0300
,
0020
0000
0030
0002
0000
0003
2000
0000
3000
0002
0000
0003
,
2000
0000
3000
0020
0000
0030
0200
0000
0300
0020
0000
0030
,
0200
0000
0300
0002
0000
0003
0200
0000
0300
4004
0000
0000
,
0000
0000
0000
0000
0000
0000
0000
0000
0000
0000
3003
0000
2002
0000
3003
0200
0000
0300
0020
0000
0030
0200
0000
0300
,
0020
0000
0030
0001
0000
1000
0002
0000
0000
0003
0000
0000
0200
0000
0000
0300
0000
0000
0020
0000
0000
0030
0000
0000
,
0200
0000
0000
0300
0000
0000
0020
0000
0000
0030
0000
0000
0001
0000
0010
0000
0001
0000
0100
0000
0010
0000
0001
0000
,
2000
0000
0000
3000
0000
0000
0010
0000
0100
0000
0010
0000
0100
0000
0010
0000
0100
0000
0010
0000
0100
0000
0010
0000
,
0200
0000
0000
0300
0000
0000
0202
0000
0000
0303
0000
0000
0010
0000
0100
0000
0010
0000
0100
0000
0010
0000
0100
0000
,
0020
0000
0000
0030
0000
0000
2020
0000
0000
3030
0000
0000
0100
0000
0010
0000
0001
0000
0100
0000
0010
0000
0100
0000
,
0010
0100
0010
0100
1000
0100
0010
0001
0100
0010
0100
0010
,
0200
0000
0000
0000
0001
0000
0000
0000
0001
0000
0300
0000
0002
0000
0000
0000
0000
0000
0000
0000
0000
0003
0000
0000
,
1000
0000
0100
0000
0010
0000
0001
0000
0100
0000
0010
0000
0200
0000
0000
0300
0000
0000
0000
0000
0100
0000
0010
0000
,
0200
0000
0000
0300
0020
0000
0000
0030
,
0100
0010
0001
0100
1000
0100
0020
0000
0000
0030
0100
0010
,
0200
0000
0000
0300
0020
0000
0000
0030
,
0100
0000
0010
0000
0001
0000
0010
0000
0100
0000
0010
0000
0002
0000
0000
0000
0000
0000
0000
0000
0000
0003
0000
0000
,
1000
0100
1000
0100
1000
0100
1000
0100
0010
0001
0010
0100
,
1000
0000
0100
0000
0010
0000
0001
0000
0010
0000
0100
0000
0022
0000
0000
0000
0000
0000
0000
0000
0000
0033
0000
0000
,
0220
0000
0000
0330
2000
3000
0100
1000
,
0200
0300
0100
0010
0200
0300
0020
0030
,
0200
0300
0020
0030
0440
0000
0000
0000
,
0330
0000
0000
0010
0100
0010
0001
0000
0000
0010
0000
0000
,
0100
1000
0404
0303
,
0100
0000
0010
0000
4040
0000
0000
3030
,
4004
3003
0110
0000
0101
0000
1100
0000
,
0110
0000
0000
0000
0000
0000
1001
0000
0100
0000
0010
0000
0220
0000
0000
0330
0000
0000
0100
0000
0000
0000
0000
0000
,
0010
0000
0000
0000
0000
0000
1000
0000
0100
0000
0001
0000
0022
0000
0000
0033
0000
0000
0100
0000
0010
0000
0001
0000
,
2200
0000
0000
3300
0000
0000
0010
0000
0100
0000
0010
0000
0220
0000
0000
0330
0000
0000
0001
0000
1000
0000
0001
0000
,
2200
0000
0000
3300
0000
0000
0100
0000
0010
0000
0100
0000
0440
0000
0000
0000
0000
0000
0000
0000
0000
0000
0000
0000
,
0000
0000
0000
0000
0000
0000
0000
0000
0000
0000
0330
0000
0100
0010
0100
0010
0100
0010
4004
0000
0000
0000
0000
0000
0000
0000
0000
0000
0000
0000
0000
0000
0000
0000
0000
0000
0000
0000
0000
0000
0000
0000
0000
0000
0000
0000
0000
0000
,
0000
3003
0000
0000
;
