#TITLE:Zoot Suit Riot;
#SUBTITLE:;
#ARTIST:Cherry Poppin Daddies;
#TITLETRANSLIT:;
#SUBTITLETRANSLIT:;
#ARTISTTRANSLIT:;
#CREDIT:;
#BANNER:;
#BACKGROUND:;
#LYRICSPATH:;
#CDTITLE:;
#MUSIC:ChPD-Zoot_suit_riot.mp3;
#OFFSET:1.160;
#SAMPLESTART:104.100;
#SAMPLELENGTH:15.480;
#SELECTABLE:YES;
#BPMS:0.000=184.000,32.000=92.000,34.000=184.000,688.000=92.000,689.000=184.000,691.000=92.000;
#STOPS:;
#BGCHANGES:;

//---------------dance-single - ----------------
#NOTES:
     dance-single:
     :
     Hard:
     10:
     0.582,0.731,0.203,0.351,0.569: // measure 1
0000
0000
0000
0000
,  // measure 2
0000
0000
0000
0000
,  // measure 3
0000
0000
0000
0000
,  // measure 4
0000
0000
0000
0000
,  // measure 5
0001
0000
1000
0010
0000
0100
0000
0000
0001
0010
0000
0100
,  // measure 6
0000
0000
1000
0010
0000
0100
0000
0000
0001
0010
0000
0010
,  // measure 7
0100
0000
0100
1000
0000
0000
0010
0000
0000
0100
0000
0000
,  // measure 8
0200
0000
0000
0000
,  // measure 9
0010
0000
0301
0010
,  // measure 10
0100
0000
0000
1000
0000
0000
1000
0000
0000
0010
0000
0100
,  // measure 11
0010
0000
1000
0000
0000
0000
1000
0000
0000
0010
0000
0001
,  // measure 12
1000
0000
0000
0100
0000
0010
0001
0000
0001
0010
0000
0010
,  // measure 13
0100
0000
0100
1000
0000
1000
0010
0000
0010
0100
0000
0002
,  // measure 14
0000
0000
0000
1000
0000
0000
1000
0000
0000
1003
0000
0010
,  // measure 15
0100
0000
0001
0000
0000
0001
0010
0000
0100
0000
0000
1000
,  // measure 16
0010
0000
0000
0100
0000
0000
0001
0000
1000
0000
0000
1001
,  // measure 17
0000
0000
0010
0100
0000
0000
1000
0000
0000
0010
0000
0000
,  // measure 18
0100
0000
0000
0001
0000
0000
0001
0000
0000
0010
0000
0100
,  // measure 19
0010
0000
0001
0000
0000
0000
0001
0000
0000
0010
0000
1000
,  // measure 20
0001
0000
0000
0100
0000
0010
1000
0000
1000
0010
0000
0010
,  // measure 21
0100
0000
0100
0001
0000
0001
0010
0000
0010
0100
0000
2000
,  // measure 22
0000
0000
0000
0001
0000
0000
0001
0000
0000
3001
0000
0010
,  // measure 23
0100
0000
1000
0000
0000
1000
0010
0000
0100
0000
0000
0001
,  // measure 24
0010
0000
0000
0100
0000
0000
1000
0000
0001
0000
0000
1001
,  // measure 25
0000
0000
0010
0100
0000
0000
0001
0000
0000
0010
0000
0000
,  // measure 26
0100
1000
0010
0100
,  // measure 27
0001
1000
0010
0100
,  // measure 28
0001
0000
0000
1000
0000
0000
0010
0000
0100
0000
0000
0101
,  // measure 29
0000
0100
0001
0010
,  // measure 30
0100
0000
0000
1000
0000
0000
0100
0000
0010
0000
0000
1010
,  // measure 31
0000
0001
0100
0010
,  // measure 32
0100
0000
1000
0000
0000
0000
0010
0000
0001
0000
0000
0000
,  // measure 33
2002
3003
0001
0100
,  // measure 34
1000
0100
0001
1000
,  // measure 35
0010
0001
1000
0100
,  // measure 36
0001
0000
0000
0001
0000
0001
0010
0000
0010
0100
0000
0100
,  // measure 37
0010
0001
0010
0100
0000
0100
1000
0000
0000
0010
0000
0000
,  // measure 38
0100
0010
1000
1000
,  // measure 39
0010
0010
0100
0100
,  // measure 40
0001
0001
1000
1000
,  // measure 41
0010
0100
0010
0100
0000
0000
1001
0000
0000
2001
0000
0000
,  // measure 42
0001
0000
0000
0001
0000
0000
0000
0000
3002
0000
0000
0000
0100
0000
0000
0100
,  // measure 43
0003
0000
0000
0010
0000
1000
0100
0000
0100
0010
0000
0010
,  // measure 44
0001
0000
0001
0010
0000
0020
0000
0000
0000
0100
0000
0000
,  // measure 45
0130
1001
0110
0120
,  // measure 46
0100
0000
0000
0100
0000
0000
0000
0000
0230
0000
0000
0000
0001
0000
0000
0301
,  // measure 47
0000
0000
0001
0010
0000
0010
0001
0000
0001
0100
0000
0100
,  // measure 48
0010
0000
0010
1000
0000
1000
0020
0000
0000
0100
0000
0000
,  // measure 49
0001
0130
1001
1002
,  // measure 50
1000
0000
0000
1000
0000
0000
0000
0000
2003
0000
0000
0000
0010
0000
0000
0010
,  // measure 51
3000
0000
0000
0100
0000
0001
0010
0000
0010
0100
0000
0100
,  // measure 52
1000
0000
1000
0100
0000
0200
0000
0000
0000
0010
0000
0000
,  // measure 53
0310
1001
0110
0210
,  // measure 54
0010
0000
0000
0010
0000
0000
0000
0000
0320
0000
0000
0000
1000
0000
0000
1030
,  // measure 55
0000
0000
1000
0100
0000
0100
1000
0000
1000
0010
0000
0010
,  // measure 56
0100
0000
0100
0001
0000
0001
0100
0000
0000
0010
1000
0001
,  // measure 57
0000
0000
1000
0001
0000
0000
1000
0000
0000
1000
0000
0000
,  // measure 58
0001
0001
0100
0100
,  // measure 59
0010
0000
0000
0010
0000
0000
0010
0000
0010
1000
0000
0000
,  // measure 60
1000
0000
0000
1000
0000
1000
0100
0000
0000
0010
0000
0001
,  // measure 61
1000
0000
0010
0001
0000
0001
0010
0000
0000
1000
0000
0000
,  // measure 62
1000
0100
0100
0001
,  // measure 63
0001
1000
1000
0010
,  // measure 64
0010
0000
0000
1000
0000
0000
0001
0000
0010
0000
0000
1001
,  // measure 65
0000
0000
1000
1000
,  // measure 66
0010
0010
0001
0001
,  // measure 67
0100
0100
1000
0010
,  // measure 68
0100
0001
1000
0100
,  // measure 69
0010
0001
1001
0001
,  // measure 70
0010
0110
0010
0100
,  // measure 71
1000
1001
0110
1001
,  // measure 72
1001
0000
0000
0110
0000
0000
1000
0000
0001
0000
0000
0110
,  // measure 73
0000
0000
0010
0100
0000
0000
0001
0000
0001
0010
0000
0000
,  // measure 74
1000
0000
1000
0010
0000
0000
0001
0000
0000
1000
0000
0000
,  // measure 75
1000
0000
1000
0100
0000
0000
0001
0000
0001
0100
0000
0000
,  // measure 76
0100
0000
0100
0010
0000
0010
0100
0000
0100
0010
0000
0010
,  // measure 77
0100
1000
0100
0010
0000
0010
0100
0000
0000
1000
0000
0000
,  // measure 78
0001
0001
1000
1000
,  // measure 79
0010
0110
0100
0001
,  // measure 80
1001
0110
1001
1000
,  // measure 81
0001
0010
0100
1000
0000
0000
1001
0000
0000
1002
0000
0000
,  // measure 82
1000
0000
0000
1000
0000
0000
0000
0000
2003
0000
0000
0000
0010
0000
0000
0010
,  // measure 83
3000
0000
0000
0100
0000
0001
0010
0000
0010
0100
0000
0100
,  // measure 84
1000
0000
1000
0100
0000
0200
0000
0000
0000
0010
0000
0000
,  // measure 85
0310
1001
0110
0210
,  // measure 86
0010
0000
0000
0010
0000
0000
0000
0000
0320
0000
0000
0000
1000
0000
0000
1030
,  // measure 87
0000
0000
1000
0100
0000
0100
1000
0000
1000
0010
0000
0010
,  // measure 88
0100
0000
0100
0001
0000
0001
0100
0000
0000
0100
0000
0000
,  // measure 89
0010
0000
0000
1000
0100
0010
0002
0000
0000
0013
0100
1000
,  // measure 90
0020
0000
0000
0130
0010
1000
0200
0000
0000
0310
0001
0100
,  // measure 91
2000
3100
0001
0010
,  // measure 92
0100
1000
0010
0100
,  // measure 93
0001
0000
0000
0001
0100
0010
2000
0000
0000
3010
0100
0001
,  // measure 94
0020
0000
0000
0130
0010
0001
0200
0000
0000
0310
1000
0100
,  // measure 95
0002
0103
1000
0010
,  // measure 96
0100
0001
0010
0100
,  // measure 97
1000
0000
0000
0001
0010
0100
2000
0000
0000
3100
0010
0001
,  // measure 98
0200
0000
0000
0310
0100
0001
0020
0000
0000
0130
1000
0010
,  // measure 99
0002
0013
1000
0100
,  // measure 100
0010
0001
0100
0010
,  // measure 101
1000
0000
0000
1000
0010
0100
0002
0000
0000
0103
0010
1000
,  // measure 102
0200
0000
0000
0310
0100
1000
0020
0000
0000
0130
0001
0010
,  // measure 103
2000
3010
0001
0100
,  // measure 104
0010
1000
0100
0010
,  // measure 105
0001
0100
1002
0000
,  // measure 106
1000
0000
0010
0000
,  // measure 107
1003
0000
0110
0000
,  // measure 108
2001
0000
0010
0000
,  // measure 109
3001
0000
1000
0000
0001
0000
0000
0010
,  // measure 110
0000
0000
0100
2000
0000
0000
3020
0000
0000
0000
0000
0000
,  // measure 111
0230
0000
0000
0301
0000
0000
0010
0000
1000
0000
0000
0020
,  // measure 112
0000
0000
0000
0032
0000
0000
1000
0000
0000
0000
1000
0000
,  // measure 113
2003
0000
0000
0000
0000
0020
3000
0000
0000
0130
0000
0010
,  // measure 114
0100
0000
0020
0000
0000
0000
1030
0000
0000
0001
0000
1000
,  // measure 115
0001
0000
2000
0000
0000
0000
0001
0000
0001
0000
0000
0002
,  // measure 116
0000
0000
3003
0000
,  // measure 117
0000
0000
0000
0010
0000
0000
0010
0000
0010
0000
0010
0000
,  // measure 118
0000
0020
0000
0000
0000
0000
0000
0000
0000
0000
0000
0000
,  // measure 119
0030
0000
0000
1000
0000
0000
0001
0000
1000
0000
0000
0010
,  // measure 120
0000
0000
0100
0010
0000
0000
1000
0000
0000
0001
0000
0200
,  // measure 121
0000
0000
0000
0000
0000
0000
0301
0000
0010
0000
0100
0000
,  // measure 122
1000
0000
0002
0000
0000
0000
1003
0000
0100
0000
0010
0000
,  // measure 123
0001
0000
2000
0000
0000
0000
0002
0000
0000
0000
0000
0000
,  // measure 124
0000
0000
0000
3003
0000
0000
1000
0000
0001
0000
0000
1001
,  // measure 125
0000
0000
1000
0010
,  // measure 126
0001
0010
1000
0001
,  // measure 127
0100
1000
0001
0010
,  // measure 128
1000
0000
0000
1000
0000
1000
0100
0000
0100
0010
0000
0010
,  // measure 129
0100
1000
0100
0010
0000
0010
0001
0000
0000
0100
0000
0000
,  // measure 130
0010
0100
0001
0001
,  // measure 131
0100
0100
0010
0010
,  // measure 132
1000
1000
0001
0001
,  // measure 133
0100
0010
0100
0010
0000
0000
1001
0000
0000
1002
0000
0000
,  // measure 134
1000
0000
0000
1000
0000
0000
0000
0000
2003
0000
0000
0000
0010
0000
0000
0010
,  // measure 135
3000
0000
0000
0100
0000
0001
0010
0000
0010
0100
0000
0100
,  // measure 136
1000
0000
1000
0100
0000
0200
0000
0000
0000
0010
0000
0000
,  // measure 137
0310
1001
0110
0210
,  // measure 138
0010
0000
0000
0010
0000
0000
0000
0000
0320
0000
0000
0000
1000
0000
0000
1030
,  // measure 139
0000
0000
1000
0100
0000
0100
1000
0000
1000
0010
0000
0010
,  // measure 140
0100
0000
0100
0001
0000
0001
0200
0000
0000
0010
0000
0000
,  // measure 141
1000
0310
1001
2001
,  // measure 142
0001
0000
0000
0001
0000
0000
0000
0000
3002
0000
0000
0000
0100
0000
0000
0100
,  // measure 143
0003
0000
0000
0010
0000
1000
0100
0000
0100
0010
0000
0010
,  // measure 144
0001
0000
0001
0010
0000
0020
0000
0000
0000
0100
0000
0000
,  // measure 145
0130
1001
0110
0120
,  // measure 146
0100
0000
0000
0100
0000
0000
0000
0000
0230
0000
0000
0000
0001
0000
0000
0301
,  // measure 147
0000
0000
0001
0010
0000
0010
0001
0000
0001
0100
0000
0100
,  // measure 148
0010
0000
0010
1000
0000
1000
0010
0000
0000
0100
0001
1000
,  // measure 149
0000
0000
0000
0001
0010
0100
2000
0000
0000
3100
0010
0001
,  // measure 150
0200
0000
0000
0310
0100
0001
0020
0000
0000
0130
1000
0010
,  // measure 151
0002
0013
1000
0100
,  // measure 152
0010
0001
0100
0010
,  // measure 153
1000
0000
0000
1000
0010
0100
0002
0000
0000
0103
0010
1000
,  // measure 154
0200
0000
0000
0310
0100
1000
0020
0000
0000
0130
0001
0010
,  // measure 155
2000
3010
0001
0100
,  // measure 156
0010
1000
0100
0010
,  // measure 157
0001
0000
0000
1000
0100
0010
0002
0000
0000
0013
0100
1000
,  // measure 158
0020
0000
0000
0130
0010
1000
0200
0000
0000
0310
0001
0100
,  // measure 159
2000
3100
0001
0010
,  // measure 160
0100
1000
0010
0100
,  // measure 161
0001
0000
0000
0001
0100
0010
2000
0000
0000
3010
0100
0001
,  // measure 162
0020
0000
0000
0130
0010
0001
0200
0000
0000
0310
1000
0100
,  // measure 163
0002
0103
1000
0010
,  // measure 164
0100
0001
0010
0100
,  // measure 165
1000
0010
0100
0001
,  // measure 166
0010
0100
1000
0010
,  // measure 167
0100
0001
1000
0001
,  // measure 168
0100
0010
1000
0001
,  // measure 169
1000
0000
0001
0100
0000
0010
0000
0000
1000
0100
0000
0010
,  // measure 170
0000
0000
0001
0100
0000
0010
0000
0000
1000
0100
0000
0100
,  // measure 171
0010
0000
0010
0001
0000
0000
2002
0000
0000
0000
0000
0000
,  // measure 172
0000
0000
0000
0000
,  // measure 173
0000
0000
0000
3003
;
