#TITLE:TRIP MACHINE ETERNAL;
#SUBTITLE:;
#ARTIST:STM 200;
#TITLETRANSLIT:;
#SUBTITLETRANSLIT:;
#ARTISTTRANSLIT:;
#CREDIT:;
#BANNER:tripmachine_eternal.png;
#BACKGROUND:tripmachine_eternal-bg.png;
#LYRICSPATH:;
#CDTITLE:cdtitle.png;
#MUSIC:tripmachine_eternal.ogg;
#OFFSET:0.290;
#SAMPLESTART:33.500;
#SAMPLELENGTH:12.000;
#SELECTABLE:YES;
#BPMS:0.000=200.000;
#STOPS:;
#BGCHANGES:1.000=tripmachine_eternal.avi=1.000=0=0=0,
303.520=tripmachine_eternal-bg.png=1.000=0=0=1,
99999=-nosongbg-=1.000=0=0=0 // don't automatically add -songbackground-
;

//---------------dance-solo - Copied from Copied f----------------
#NOTES:
     dance-solo:
     Copied from Copied f:
     Hard:
     9:
     0.700,0.691,0.442,0.140,0.000:
000000
000000
000000
000000
,
000000
000000
000000
000000
,
000000
000000
000000
000000
,
000000
000000
000000
000000
,
000001
000000
000000
010000
000000
000000
100000
000000
,
000001
100000
000010
010000
000010
001000
000010
000010
,
000020
001000
000030
001000
000100
000000
100000
000000
,
000001
000000
100000
000000
001100
000000
000000
010001
,
000000
000010
100000
000000
000000
000100
010000
000001
,
000100
100010
001000
010000
,
001100
100001
010010
100001
,
001100
000000
000000
100010
000000
000001
010000
000000
,
000000
100000
001000
000100
000001
000000
010001
000000
,
000010
100000
002200
000000
,
000000
003300
000010
010000
,
010000
000001
001000
000000
000010
001000
000100
010000
,
000001
000000
100001
000000
001100
000000
001000
100000
,
000001
000010
001000
000100
000001
000100
100000
000000
,
100000
000000
000010
000000
010000
000100
100000
000000
,
000001
001000
000100
010000
000001
000000
100001
000000
,
001100
000000
001000
100000
001000
000001
001000
100000
,
001000
000100
100000
010010
000000
100001
000000
100000
,
000010
000100
000000
000001
000010
000001
010000
001000
,
000000
001100
000000
101000
000000
001000
100000
000001
,
000000
010000
000100
010000
000010
100000
000000
010000
,
000000
000101
000000
001100
000000
100000
000000
000001
,
001000
000100
100000
000010
000000
001010
000000
100001
,
000000
100000
000001
000000
000010
010000
000000
100000
,
000001
000100
000000
000020
000000
100030
000100
001000
,
000100
100000
000001
001000
000001
010000
000010
100000
,
000000
120000
000000
030100
000000
100000
000100
010000
,
000001
001000
000001
010000
000010
100000
000001
000100
,
000000
000021
000000
001030
000000
001000
010000
000001
,
100000
000010
000100
001000
010000
000001
100000
000100
,
000000
120000
000000
031000
000000
001000
000100
010000
,
100000
010000
000100
001000
000100
100000
000001
000100
,
000000
000021
000000
000130
000000
000001
001000
000000
,
000100
100000
001000
000000
000100
000001
001000
000010
,
000000
100000
000000
000100
001000
000000
000001
001000
,
000100
000000
010000
000100
100000
001000
000000
010000
,
000000
010000
010000
000000
010000
010000
010000
000000
,
010000
010000
010000
010000
000000
000001
000000
000001
,
000001
000000
000001
000001
000001
000000
000001
000001
,
000001
000001
000000
002200
000000
000000
000000
000000
,
000000
003300
000000
100000
000000
000000
000001
000000
,
000000
010010
000000
100001
000000
000100
100000
001000
,
000000
001000
000100
000001
000010
000001
010000
001000
,
000000
011000
000000
100001
000000
010000
100000
001000
,
000000
001000
000100
000001
000100
001000
100000
010000
,
000000
110000
000000
011000
000000
001000
000100
010000
,
000010
010000
001000
000100
000001
100000
000010
010000
,
000000
010100
000000
000110
000000
000000
000010
000000
,
000010
000000
001000
000000
001000
000001
000000
010001
,
000000
100010
000000
000100
000000
010000
001000
000000
,
000001
000100
000010
000100
000000
000010
000100
010000
,
000000
100000
000000
000100
010000
001000
000010
000001
,
000000
100000
000100
010000
000100
001000
000000
000001
,
000100
100000
000000
010000
000000
001000
000000
010000
,
100000
000000
000001
001000
000010
001000
000000
000010
,
010000
001000
000000
000001
000000
100000
010000
000000
,
000010
000001
000000
000010
010000
000000
100000
000001
,
000010
010000
000000
010000
000001
100000
000100
000000
,
100000
001000
000000
100000
000100
000000
100000
000010
,
001000
000000
100001
000000
001000
000010
100000
000000
,
000001
010000
000000
000010
010000
000000
000100
010000
,
001000
100000
000001
000001
001000
000001
000001
100000
,
000010
001000
100000
001000
000100
100000
100000
000010
,
010000
010000
000001
000001
000100
000010
000010
010000
,
001000
100000
001000
001000
001000
001000
001000
001000
,
001000
001000
020000
000000
100000
000000
031000
000100
,
000001
000010
000000
000001
000000
100000
000000
000010
,
020000
000000
000100
000000
130000
000100
001000
100000
,
000000
000001
000000
010000
000000
000010
200000
000000
,
000001
000000
301000
000100
000010
010000
000000
010000
,
000000
000001
000000
100000
000010
000000
000010
000100
,
001000
001100
000000
100001
000000
000000
000000
000000
;

//---------------dance-solo - Copied from Copied f----------------
#NOTES:
     dance-solo:
     Copied from Copied f:
     Medium:
     7:
     0.549,0.569,0.291,0.151,0.000:
000000
000000
000000
000000
,
000000
000000
000000
000000
,
000000
000000
000000
000000
,
000000
000000
000000
000000
,
010000
000000
000000
000010
000000
000000
100000
000000
,
000000
000001
000000
001000
000000
001000
000000
001000
,
000000
001000
001000
000000
000001
000000
100000
000000
,
000010
000000
010000
000000
200002
000000
300003
010010
,
000000
000100
001000
000000
000000
000001
000000
100001
,
000000
000020
020000
000000
030030
100001
000000
000000
,
000101
010000
100100
000010
,
200002
000000
300003
010010
000000
000100
001000
000000
,
000000
100000
000000
100001
000000
020000
000020
000000
,
030030
000100
000000
000001
000000
000000
000000
000000
,
000000
000000
000001
100000
,
100000
000010
001000
100000
,
000001
000100
100000
000010
,
000100
001000
100000
010000
,
000100
000001
000100
010000
,
100000
001000
000100
000010
,
000001
000000
000100
001000
000000
000100
000000
000001
,
000000
010000
010010
100001
000000
000010
000000
000000
,
001000
000000
000001
000000
010000
000000
000001
000001
,
000000
010000
000000
000010
000000
000000
000001
000000
,
100000
000000
000100
000000
100000
001000
000000
001000
,
000000
100001
000000
000000
001000
000000
000100
000000
,
001000
000000
000100
010000
000000
010000
000000
100001
,
000000
000010
010000
000000
100000
000001
000000
000010
,
010000
000100
000000
001000
000000
000001
000000
000100
,
000000
000001
000000
100000
000000
000100
000000
100000
,
000000
100001
000000
000010
000000
010000
000000
100000
,
000000
001000
000000
000001
000000
000100
000000
010000
,
000000
100001
000000
000010
000000
001000
000001
100000
,
000000
000010
010000
000010
000000
000100
001000
100000
,
000000
100001
000000
000010
000000
100000
000100
001000
,
000000
000010
001000
000100
000000
000100
010000
000001
,
000000
100001
000000
000010
000000
010000
000010
000000
,
100000
000001
100000
000000
000010
010000
000100
001000
,
000000
100000
000000
001000
000001
000000
001000
100000
,
000001
000000
000100
001000
100000
000010
000000
000100
,
000000
100000
000001
000000
000010
010000
000010
000000
,
100000
000100
001000
000001
000000
000001
000000
010000
,
000010
000000
000100
001000
000010
000000
000010
001000
,
000100
000001
000000
200000
000000
000000
000000
000000
,
000000
000000
000000
300000
,
000000
000010
000000
010000
000000
010000
100000
010000
,
000000
010000
001000
010000
000000
010000
000001
010000
,
000000
010010
000000
000010
000000
000100
001000
000001
,
001000
000000
001000
100000
001000
010000
000000
010000
,
000000
011000
000000
100001
000000
100000
000010
100000
,
000000
100000
000100
100000
000000
100000
010000
100000
,
000000
100001
000000
010010
000000
000000
000001
000000
,
100000
000000
000001
000000
000010
010000
000000
000100
,
000000
100001
000000
010000
000000
000010
000000
000010
,
000001
000010
000000
000010
001000
000010
000000
000010
,
100000
000010
000000
010010
000000
010000
000000
001000
,
000100
100000
000100
000000
000100
000001
000100
000010
,
000000
100000
000000
100010
000000
100001
000000
000001
,
010000
000001
000000
000001
000100
000001
000000
000001
,
000010
000001
000000
100001
000000
000010
010000
000000
,
000001
100000
000000
010000
000010
000000
000001
100000
,
000010
020000
000000
030000
000100
000000
000100
000000
,
010000
000010
000001
100000
,
100000
010000
010000
001000
,
010000
000100
000100
000010
,
000010
000000
000001
000000
000000
000001
000000
000000
,
000001
000000
010000
000000
000000
010000
000000
000000
,
010000
000000
000010
000000
001000
000010
100000
000100
,
010000
000010
001000
000000
001000
000001
001000
000001
,
001000
000001
200000
000000
000000
000000
000000
000001
,
300000
001000
000000
000010
000000
100000
000000
000000
,
000020
000000
100000
000000
000000
010000
000000
000030
,
000000
000010
000000
010000
000000
000001
200000
000000
,
000000
000000
000000
000010
300000
001000
000000
000100
,
000000
010000
000000
000000
000020
000000
000000
100000
,
000030
001000
000000
001000
000000
000000
000000
000000
;

//---------------dance-solo - Copied from Copied f----------------
#NOTES:
     dance-solo:
     Copied from Copied f:
     Easy:
     6:
     0.453,0.529,0.464,0.119,0.000:
000000
000000
000000
000000
,
000000
000000
000000
000000
,
000000
000000
000000
000000
,
000000
000000
000000
000000
,
200000
000000
000000
000002
000000
000000
300000
010000
,
000000
000000
000000
000000
000000
000000
200000
000003
,
300000
000010
000010
000000
100000
000000
000001
000000
,
100000
000010
010010
000000
,
000001
000000
100000
000100
000000
000000
000000
000100
,
000000
100000
000010
000000
000000
000000
010000
000000
,
000001
001000
000000
000000
000000
001000
000000
000010
,
100000
000000
000000
000000
000010
000000
010000
000100
,
000000
000000
000000
000001
000000
000010
100000
000000
,
000000
000000
000100
200000
000002
000000
000000
000000
,
000000
300003
000100
001000
,
000000
100001
000000
010010
,
000100
001000
100001
000000
,
010000
000010
000100
000010
,
100001
000100
000000
000010
,
000000
000010
100000
000010
,
000100
000000
100001
000000
,
010010
000000
000000
000010
000000
000010
000000
000000
,
100000
000001
001000
001000
,
000000
010000
000000
010000
000000
000000
100000
000000
,
000001
000000
010010
000000
010010
000000
000000
000001
,
000000
000010
000000
000000
100001
000000
100001
000000
,
100001
000000
001100
000000
000000
001000
000000
000001
,
000000
100000
000000
100001
000000
010010
000000
100001
,
000000
001100
000000
100001
000000
000010
000000
000010
,
000000
000010
000000
000010
000000
000010
000000
000010
,
000000
100001
000000
100001
000000
010000
000000
010000
,
000000
010000
000000
010000
000000
010000
000000
010000
,
000000
001100
000000
001100
000000
000010
000000
000010
,
000000
000010
000000
000010
000000
000010
000000
000010
,
000000
100001
000000
100001
000000
000100
000000
000100
,
000000
000100
000000
000100
000000
000100
000000
000100
,
000000
010010
000000
010010
000000
000000
001000
000000
,
000000
000001
000000
000000
100010
000000
000000
100001
,
000000
010010
000000
000000
010000
000000
000000
000010
,
000000
000000
001000
000000
000000
001100
000000
100001
,
000000
000000
000010
000000
000000
010000
000000
000000
,
000001
000000
000000
100001
000000
010010
000000
000000
,
000010
000000
000000
010000
000000
000000
000001
000000
,
000000
010010
000000
002200
000000
000000
000000
000000
,
000000
000000
000000
003300
,
000000
100001
000000
000010
000000
000000
010000
000000
,
000100
000000
010000
000001
000000
100000
000000
000010
,
000000
100000
000000
000100
000000
000000
000100
000000
,
100000
000000
010000
000000
000001
001000
000000
001000
,
000000
000100
000000
000100
000000
000000
010000
000000
,
000001
000000
001000
000010
000000
100000
000000
010000
,
000000
001000
000000
001000
000000
000000
010000
000000
,
000001
000000
001000
000000
100000
000010
000000
000100
,
000000
001000
000000
001000
000000
000000
100001
000000
,
001000
000000
010000
000000
000010
001000
000000
001000
,
000000
000001
000000
010000
000000
000000
010000
000000
,
000010
000000
010000
000000
001000
100000
000000
000001
,
000000
010000
000000
010010
000000
000000
000001
000000
,
100000
000000
000001
000100
000000
000100
000000
000100
,
000000
001000
000000
001000
000000
100001
000000
000000
,
001100
000000
000000
100001
000000
000000
000001
000100
,
001000
010000
000000
100000
000001
000000
100000
000000
,
000001
010000
000010
010000
,
000100
001000
000001
000100
,
000001
100000
000100
100000
,
000010
000000
100000
000000
000000
001000
000000
000000
,
010000
000000
000001
000000
000000
100000
000000
000000
,
000100
000010
010000
001100
,
000001
000000
100000
000000
000100
000000
100000
100000
,
100000
000000
000002
000000
000000
000000
000000
100000
,
000003
000000
000000
000100
000000
001000
000000
200000
,
000000
000000
000000
000000
000000
000010
000000
300000
,
000000
010000
000000
000001
000000
000000
000002
000000
,
000000
000000
000000
010000
000003
000000
000000
000010
,
000000
000000
200000
000000
,
000000
301000
000000
100001
000000
000000
000000
000000
;

//---------------dance-single - ----------------
#NOTES:
     dance-single:
     :
     Hard:
     9:
     0.718,0.693,0.432,0.162,0.000: // measure 1
0000
0000
0000
0000
,  // measure 2
0000
0000
0000
0000
,  // measure 3
0000
0000
0000
0000
,  // measure 4
0000
0000
0000
0000
,  // measure 5
1001
0000
1000
0001
0000
0010
0100
0000
,  // measure 6
1000
1000
0000
0001
0001
0000
1000
0010
,  // measure 7
1000
0010
0100
0001
0100
0001
0010
0001
,  // measure 8
0010
0100
1000
0100
1000
0000
0010
0100
,  // measure 9
0000
0001
1000
0100
0000
1100
0000
0011
,  // measure 10
0000
1000
0010
0100
0001
0010
0000
2100
,  // measure 11
0000
3001
0000
0001
1000
0100
0000
0000
,  // measure 12
1000
0010
0100
0000
0001
0010
0000
0100
,  // measure 13
1000
0010
0100
0001
1000
0001
1000
0010
,  // measure 14
0100
0001
0000
2002
0000
0000
0000
0000
,  // measure 15
0000
3003
1001
0110
,  // measure 16
0001
1000
0010
0000
0100
0010
1000
0000
,  // measure 17
0001
1000
0100
0000
0011
0000
1000
0010
,  // measure 18
0100
0000
0001
0010
0001
0010
0100
1000
,  // measure 19
0100
0000
0110
0000
0001
0010
0100
1000
,  // measure 20
0100
0010
0001
0100
0010
0100
0002
0000
,  // measure 21
1003
0000
0010
0100
0001
0000
0010
0100
,  // measure 22
1000
0010
0100
0000
0101
0000
1100
0000
,  // measure 23
1000
0010
0100
0000
0001
0010
1000
0000
,  // measure 24
0010
0001
0100
0000
1100
0000
1000
0100
,  // measure 25
0001
0000
0010
0100
0001
0100
1000
0010
,  // measure 26
0100
0000
1010
0000
0010
1000
0010
0100
,  // measure 27
0010
1000
0000
0100
0010
0000
0002
0000
,  // measure 28
1003
0000
2000
0010
0000
3002
0100
0000
,  // measure 29
2000
3003
1001
0000
0110
0000
0001
1000
,  // measure 30
0010
0100
0010
1000
0001
0000
1000
0010
,  // measure 31
0100
0000
0110
0000
1001
0000
0001
0010
,  // measure 32
0100
0010
0001
0100
0010
0000
1000
0010
,  // measure 33
0100
0000
1001
0000
0110
0000
0100
0010
,  // measure 34
1000
0001
1000
0010
0100
0000
0001
0010
,  // measure 35
0100
0000
1100
0000
0011
0000
1000
0100
,  // measure 36
0010
0001
0100
0010
0001
0010
0100
1000
,  // measure 37
0010
0000
1001
0000
0110
0000
1000
1000
,  // measure 38
0000
0001
0001
0001
0000
0010
0010
0100
,  // measure 39
0100
0000
1001
0000
0001
0010
0000
0100
,  // measure 40
1000
0010
0000
0001
0100
0010
1000
0000
,  // measure 41
0110
0000
1000
0001
0000
0001
1000
0001
,  // measure 42
0000
1000
0001
1000
0001
0000
1001
0000
,  // measure 43
0010
0100
0000
0001
1000
0001
0000
0001
,  // measure 44
0010
0100
1000
0000
2002
0000
0000
0000
,  // measure 45
0000
3003
2000
3002
,  // measure 46
2003
0000
0002
3003
1001
0000
0001
0010
,  // measure 47
0100
0000
1000
0010
0100
0000
0001
1000
,  // measure 48
0100
0000
1100
0000
0011
0000
1000
0010
,  // measure 49
0100
0000
0001
0100
0010
0000
1010
0000
,  // measure 50
0101
0000
0011
0000
1100
0000
0001
0010
,  // measure 51
0100
1000
0010
0100
0001
0000
1000
0001
,  // measure 52
0100
0000
0001
1000
0001
0000
1000
0010
,  // measure 53
0100
0001
0010
0100
1000
0010
0100
0001
,  // measure 54
1000
0000
0010
0000
0100
0000
0001
0010
,  // measure 55
0100
0000
1000
0010
0100
0000
0001
1000
,  // measure 56
0100
0000
1000
0001
0100
0001
0000
1000
,  // measure 57
0000
0001
0010
0100
1000
0000
0010
0000
,  // measure 58
0110
0000
1001
0000
0001
0000
0001
0010
,  // measure 59
0100
0001
0100
0010
0000
0001
1000
0000
,  // measure 60
1001
0000
0110
0000
1001
0000
0001
1000
,  // measure 61
0000
1000
0001
0000
0001
1000
0000
1000
,  // measure 62
0001
0000
0010
0000
0100
0000
1000
0001
,  // measure 63
1000
0000
0100
0010
0000
0010
0001
0000
,  // measure 64
0001
0100
0010
0000
0100
0000
0001
1000
,  // measure 65
0100
0000
0100
1000
0000
1000
0010
0000
,  // measure 66
0010
0100
0001
0010
0001
1000
0001
0100
,  // measure 67
0001
1000
0010
1000
0100
1000
0001
0100
,  // measure 68
0001
0010
0001
0100
0010
0100
1000
0100
,  // measure 69
0010
0100
0010
0100
0001
0010
0100
0010
,  // measure 70
0001
0010
0100
1000
0002
0000
0100
0000
,  // measure 71
1003
0000
0010
0100
0001
0000
1000
0000
,  // measure 72
0001
0000
0010
0100
0000
0100
1000
0001
,  // measure 73
0000
0100
0000
0010
0000
1000
0000
0001
,  // measure 74
1000
0000
0010
0100
0000
0001
0010
0100
,  // measure 75
1000
0000
0010
0000
0100
0000
0001
1000
,  // measure 76
0000
1000
0001
1000
0000
1001
0000
0000
;

//---------------dance-single - Copied from----------------
#NOTES:
     dance-single:
     Copied from:
     Challenge:
     10:
     0.801,0.737,0.496,0.237,0.000: // measure 1
0000
0000
0000
0000
,  // measure 2
0000
0000
0000
0000
,  // measure 3
0000
0000
0000
0000
,  // measure 4
0000
0000
0000
0000
,  // measure 5
1000
0000
0010
0000
0100
0000
0001
0010
,  // measure 6
0000
1000
0001
0100
0000
0001
1000
0010
,  // measure 7
0100
0010
1000
0001
0000
0100
0010
1000
,  // measure 8
0010
0100
0001
0000
0101
0000
1010
1000
,  // measure 9
0100
0010
0001
0100
0000
0101
0000
0010
,  // measure 10
1000
0000
1000
0010
0100
0001
0010
0100
,  // measure 11
1000
0000
0001
1000
0001
0000
1000
0010
,  // measure 12
0100
0001
0010
0001
0100
0010
1000
0000
,  // measure 13
1001
0000
0001
0010
0000
1100
0000
0010
,  // measure 14
1010
0000
0001
2000
0002
0000
0000
0000
,  // measure 15
3003
0000
1001
0011
,  // measure 16
0001
0010
0100
0010
1000
0010
0100
0001
,  // measure 17
1000
0000
0011
0000
0101
0000
0010
0100
,  // measure 18
0010
0001
0010
0100
0010
1000
0010
0000
,  // measure 19
0110
0000
1010
0000
1000
0100
0010
0001
,  // measure 20
0010
0100
1000
0010
0100
0000
0101
0000
,  // measure 21
1010
0000
1000
0001
1000
0000
0001
0010
,  // measure 22
0001
0000
1001
0000
1000
0010
0100
0001
,  // measure 23
0100
0010
1000
0000
0001
0100
0010
1000
,  // measure 24
0001
0000
2000
0001
3001
0000
0010
1000
,  // measure 25
0001
0000
0010
0100
1000
0000
0010
0100
,  // measure 26
0001
0000
1000
0010
0100
0001
0010
0100
,  // measure 27
1000
0010
0010
0010
0010
0000
2000
0001
,  // measure 28
3001
0000
0020
0100
0130
0000
0001
0010
,  // measure 29
0100
1000
1010
0000
0011
0001
0010
0100
,  // measure 30
1000
0010
0001
0010
1000
0001
0010
0010
,  // measure 31
0100
1000
1000
0010
0100
0001
0010
0100
,  // measure 32
1000
0010
0001
0010
1000
0100
0010
0001
,  // measure 33
0100
0010
1100
0000
1010
1000
0010
0100
,  // measure 34
0001
0010
1000
0010
0001
0100
0010
1000
,  // measure 35
0010
0100
0100
0001
0010
1000
1000
0010
,  // measure 36
0001
0100
0010
1000
0001
0010
0100
1000
,  // measure 37
0010
0000
0011
0001
1001
0000
1000
0001
,  // measure 38
0000
0001
0010
0100
0000
1000
0010
0100
,  // measure 39
0001
1000
1001
0000
0001
1000
0000
1000
,  // measure 40
0100
0010
0000
0001
0010
0100
1000
0001
,  // measure 41
1001
0000
1000
0010
0000
0200
0001
0301
,  // measure 42
0000
0020
1000
1000
1030
0000
1000
0010
,  // measure 43
0100
0001
0010
0100
1000
0000
0010
1000
,  // measure 44
0001
0110
1002
0010
,  // measure 45
0103
0000
0010
0100
2000
0000
0010
0000
,  // measure 46
0100
0000
3001
0000
1001
0000
0001
0010
,  // measure 47
0100
0000
1000
0001
0100
0000
0001
0010
,  // measure 48
0100
1000
0011
0000
1100
0000
0010
0100
,  // measure 49
0001
0010
0100
0001
1000
0010
0001
1000
,  // measure 50
0010
0000
0200
0001
0301
0000
0010
0100
,  // measure 51
0000
1000
0001
0000
0010
0100
1000
0010
,  // measure 52
0001
0000
1010
1000
1001
0000
1000
0001
,  // measure 53
1000
1001
0110
0011
,  // measure 54
1100
0000
0011
0001
1002
0000
1003
0010
,  // measure 55
0100
0000
0001
1000
0100
0000
0001
0100
,  // measure 56
1000
0010
0001
0000
1100
0000
0102
0000
,  // measure 57
1003
0010
0100
0001
0010
1000
0010
0001
,  // measure 58
2000
0000
3002
0000
2003
0000
3010
0100
,  // measure 59
0001
1000
0001
0010
0010
0100
1000
1000
,  // measure 60
1000
0010
0100
0000
0001
0000
0010
0100
,  // measure 61
0000
1000
0010
0000
0001
1000
0000
1000
,  // measure 62
1001
0000
0001
1000
0001
0000
0010
0100
,  // measure 63
1000
0000
0010
0100
0000
0001
1000
0000
,  // measure 64
0020
0100
0130
0000
1100
0000
0011
0001
,  // measure 65
0010
0000
1000
0010
0000
0100
0010
0001
,  // measure 66
1000
0001
0010
1000
0100
0010
0001
0001
,  // measure 67
0100
0010
1000
0001
0001
0001
0100
0010
,  // measure 68
1000
0001
0100
0010
0001
0010
0001
0010
,  // measure 69
1000
0010
1000
0100
0001
0100
1000
0010
,  // measure 70
0001
1000
0100
0001
0012
0000
1003
0010
,  // measure 71
0100
0001
0010
0000
0001
1000
0000
0010
,  // measure 72
0100
0001
0010
0100
1000
0000
0010
0100
,  // measure 73
0002
0000
2003
0000
3020
0000
0130
0001
,  // measure 74
0010
0100
1000
0010
1010
0000
1100
0000
,  // measure 75
1001
0000
0010
0000
0001
0010
0100
1000
,  // measure 76
0010
0100
0001
0010
0000
2002
0000
3003
;

//---------------dance-double - Copied from----------------
#NOTES:
     dance-double:
     Copied from:
     Hard:
     1:
     0.506,0.457,0.367,0.151,0.000:
00000000
00000000
00000000
00000000
,
00000000
00000000
00000000
00000000
,
00000000
00000000
00000000
00000000
,
00000000
00000000
00000000
00000000
,
11000000
00000000
10000000
01000000
00000000
00001000
00100000
00000000
,
00001000
00001000
00000000
00010000
00010000
00000000
00000001
00000010
,
00000100
00001000
00000100
00010000
00100000
00010000
10000000
00010000
,
00100000
00001000
00000010
00001000
00000001
00000000
00100000
01000000
,
00000000
00010000
10000000
01000000
00000000
11000000
00000000
00110000
,
00000000
10000000
00100000
01000000
00010000
00100000
00000000
21000000
,
00000000
30010000
00000000
00010000
10000000
01000000
00000000
00000000
,
10000000
00100000
01000000
00000000
00010000
00100000
00000000
01000000
,
10000000
00100000
01000000
00010000
10000000
00010000
10000000
00100000
,
01000000
00010000
00000000
20020000
00000000
00000000
00000000
00000000
,
00000000
30030000
10010000
01100000
,
00010000
10000000
00100000
00000000
01000000
00100000
10000000
00000000
,
00010000
10000000
01000000
00000000
00110000
00000000
10000000
00100000
,
01000000
00000000
00010000
00100000
00010000
00100000
01000000
10000000
,
01000000
00000000
01100000
00000000
00010000
00100000
01000000
10000000
,
01000000
00100000
00010000
01000000
00100000
01000000
00020000
00000000
,
10030000
00000000
00100000
01000000
00010000
00000000
00100000
01000000
,
10000000
00100000
01000000
00000000
01010000
00000000
11000000
00000000
,
10000000
00100000
01000000
00000000
00010000
00100000
10000000
00000000
,
00100000
00010000
01000000
00000000
11000000
00000000
10000000
01000000
,
00010000
00000000
00100000
01000000
00010000
01000000
10000000
00100000
,
01000000
00000000
10100000
00000000
00100000
10000000
00100000
01000000
,
00100000
10000000
00000000
01000000
00100000
00000000
00020000
00000000
,
10030000
00000000
20000000
00100000
00000000
30020000
01000000
00000000
,
20000000
30030000
10010000
00000000
01100000
00000000
00010000
10000000
,
00100000
01000000
00100000
10000000
00010000
00000000
10000000
00100000
,
01000000
00000000
01100000
00000000
10010000
00000000
00010000
00100000
,
01000000
00100000
00010000
01000000
00100000
00000000
10000000
00100000
,
01000000
00000000
10010000
00000000
01100000
00000000
01000000
00100000
,
10000000
00010000
10000000
00100000
01000000
00000000
00010000
00100000
,
01000000
00000000
11000000
00000000
00110000
00000000
10000000
01000000
,
00100000
00010000
01000000
00100000
00010000
00100000
01000000
10000000
,
00100000
00000000
10010000
00000000
01100000
00000000
10000000
10000000
,
00000000
00010000
00010000
00010000
00000000
00100000
00100000
01000000
,
01000000
00000000
10010000
00000000
00010000
00100000
00000000
01000000
,
10000000
00100000
00000000
00010000
01000000
00100000
10000000
00000000
,
01100000
00000000
10000000
00010000
00000000
00010000
10000000
00010000
,
00000000
10000000
00010000
10000000
00010000
00000000
10010000
00000000
,
00100000
01000000
00000000
00010000
10000000
00010000
00000000
00010000
,
00100000
01000000
10000000
00000000
20020000
00000000
00000000
00000000
,
00000000
30030000
20000000
30020000
,
20030000
00000000
00020000
30030000
10010000
00000000
00010000
00100000
,
01000000
00000000
10000000
00100000
01000000
00000000
00010000
10000000
,
01000000
00000000
11000000
00000000
00110000
00000000
10000000
00100000
,
01000000
00000000
00010000
01000000
00100000
00000000
10100000
00000000
,
01010000
00000000
00110000
00000000
11000000
00000000
00010000
00100000
,
01000000
10000000
00100000
01000000
00010000
00000000
10000000
00010000
,
01000000
00000000
00010000
10000000
00010000
00000000
10000000
00100000
,
01000000
00010000
00100000
01000000
10000000
00100000
01000000
00010000
,
10000000
00000000
00000000
00000000
;

//---------------dance-double - Copied from Copied f----------------
#NOTES:
     dance-double:
     Copied from Copied f:
     Challenge:
     10:
     0.801,0.737,0.496,0.237,0.000:
00000000
00000000
00000000
00000000
,
00000000
00000000
00000000
00000000
,
00000000
00000000
00000000
00000000
,
00000000
00000000
00000000
00000000
,
10000000
00000000
00100000
00000000
01000000
00000000
00010000
00100000
,
00000000
10000000
00010000
01000000
00000000
00010000
10000000
00100000
,
01000000
00100000
10000000
00010000
00000000
01000000
00100000
10000000
,
00100000
01000000
00010000
00000000
01010000
00000000
10100000
10000000
,
01000000
00100000
00010000
01000000
00000000
01010000
00000000
00100000
,
10000000
00000000
10000000
00100000
01000000
00010000
00100000
01000000
,
10000000
00000000
00010000
10000000
00010000
00000000
10000000
00100000
,
01000000
00010000
00100000
00010000
01000000
00100000
10000000
00000000
,
10010000
00000000
00010000
00100000
00000000
11000000
00000000
00100000
,
10100000
00000000
00010000
20000000
00020000
00000000
00000000
00000000
,
30030000
00000000
10010000
00110000
,
00010000
00100000
01000000
00100000
10000000
00100000
01000000
00010000
,
10000000
00000000
00110000
00000000
01010000
00000000
00100000
01000000
,
00100000
00010000
00100000
01000000
00100000
10000000
00100000
00000000
,
01100000
00000000
10100000
00000000
10000000
01000000
00100000
00010000
,
00100000
01000000
10000000
00100000
01000000
00000000
01010000
00000000
,
10100000
00000000
10000000
00010000
10000000
00000000
00010000
00100000
,
00010000
00000000
10010000
00000000
10000000
00100000
01000000
00010000
,
01000000
00100000
10000000
00000000
00010000
01000000
00100000
10000000
,
00010000
00000000
20000000
00010000
30010000
00000000
00100000
10000000
,
00010000
00000000
00100000
01000000
10000000
00000000
00100000
01000000
,
00010000
00000000
10000000
00100000
01000000
00010000
00100000
01000000
,
10000000
00100000
00100000
00100000
00100000
00000000
20000000
00010000
,
30010000
00000000
00200000
01000000
01300000
00000000
00010000
00100000
,
01000000
10000000
10100000
00000000
00110000
00010000
00100000
01000000
,
10000000
00100000
00010000
00100000
10000000
00010000
00100000
00100000
,
01000000
10000000
10000000
00100000
01000000
00010000
00100000
01000000
,
10000000
00100000
00010000
00100000
10000000
01000000
00100000
00010000
,
01000000
00100000
11000000
00000000
10100000
10000000
00100000
01000000
,
00010000
00100000
10000000
00100000
00010000
01000000
00100000
10000000
,
00100000
01000000
01000000
00010000
00100000
10000000
10000000
00100000
,
00010000
01000000
00100000
10000000
00010000
00100000
01000000
10000000
,
00100000
00000000
00110000
00010000
10010000
00000000
10000000
00010000
,
00000000
00010000
00100000
01000000
00000000
10000000
00100000
01000000
,
00010000
10000000
10010000
00000000
00010000
10000000
00000000
10000000
,
01000000
00100000
00000000
00010000
00100000
01000000
10000000
00010000
,
10010000
00000000
10000000
00100000
00000000
02000000
00010000
03010000
,
00000000
00200000
10000000
10000000
10300000
00000000
10000000
00100000
,
01000000
00010000
00100000
01000000
10000000
00000000
00100000
10000000
,
00010000
01100000
10020000
00100000
,
01030000
00000000
00100000
01000000
20000000
00000000
00100000
00000000
,
01000000
00000000
30010000
00000000
10010000
00000000
00010000
00100000
,
01000000
00000000
10000000
00010000
01000000
00000000
00010000
00100000
,
01000000
10000000
00110000
00000000
11000000
00000000
00100000
01000000
,
00010000
00100000
01000000
00010000
10000000
00100000
00010000
10000000
,
00100000
00000000
02000000
00010000
03010000
00000000
00100000
01000000
,
00000000
10000000
00010000
00000000
00100000
01000000
10000000
00100000
,
00010000
00000000
10100000
10000000
10010000
00000000
10000000
00010000
,
10000000
10010000
01100000
00110000
,
11000000
00000000
00110000
00010000
10020000
00000000
10030000
00100000
,
01000000
00000000
00010000
10000000
01000000
00000000
00010000
01000000
,
10000000
00100000
00010000
00000000
11000000
00000000
01020000
00000000
,
10030000
00100000
01000000
00010000
00100000
10000000
00100000
00010000
,
20000000
00000000
30020000
00000000
20030000
00000000
30100000
01000000
,
00010000
10000000
00010000
00100000
00100000
01000000
10000000
10000000
,
10000000
00100000
01000000
00000000
00010000
00000000
00100000
01000000
,
00000000
10000000
00100000
00000000
00010000
10000000
00000000
10000000
,
10010000
00000000
00010000
10000000
00010000
00000000
00100000
01000000
,
10000000
00000000
00100000
01000000
00000000
00010000
10000000
00000000
,
00200000
01000000
01300000
00000000
11000000
00000000
00110000
00010000
,
00100000
00000000
10000000
00100000
00000000
01000000
00100000
00010000
,
10000000
00010000
00100000
10000000
01000000
00100000
00010000
00010000
,
01000000
00100000
10000000
00010000
00010000
00010000
01000000
00100000
,
10000000
00010000
01000000
00100000
00010000
00100000
00010000
00100000
,
10000000
00100000
10000000
01000000
00010000
01000000
10000000
00100000
,
00010000
10000000
01000000
00010000
00120000
00000000
10030000
00100000
,
01000000
00010000
00100000
00000000
00010000
10000000
00000000
00100000
,
01000000
00010000
00100000
01000000
10000000
00000000
00100000
01000000
,
00020000
00000000
20030000
00000000
30200000
00000000
01300000
00010000
,
00100000
01000000
10000000
00100000
10100000
00000000
11000000
00000000
,
10010000
00000000
00100000
00000000
00010000
00100000
01000000
10000000
,
00100000
01000000
00010000
00100000
00000000
20020000
00000000
30030000
;
