#TITLE:The Truth of MAXX;
#SUBTITLE:;
#ARTIST:Sigma;
#TITLETRANSLIT:;
#SUBTITLETRANSLIT:;
#ARTISTTRANSLIT:;
#CREDIT:;
#BANNER:The Truth of MAXX.png;
#BACKGROUND:truth%20of%20max-bg[1].png;
#LYRICSPATH:;
#CDTITLE:;
#MUSIC:The Truth of MAXX.mp3;
#OFFSET:0.000;
#SAMPLESTART:55.200;
#SAMPLELENGTH:12.000;
#SELECTABLE:YES;
#BPMS:0.000=100.000,8.000=399.999,128.000=100.000,144.000=200.000,172.000=399.998,236.000=200.000,252.000=399.997,324.000=99.999,326.000=199.999,330.000=399.997,502.000=199.999,504.000=99.999;
#STOPS:;
#BGCHANGES:;

//---------------dance-single - ----------------
#NOTES:
     dance-single:
     :
     Hard:
     18:
     0.946,1.000,0.151,0.028,0.052: // measure 1
0000
0000
0000
0000
,  // measure 2
0000
0000
0000
0000
,  // measure 3
0001
0100
0010
1000
,  // measure 4
0100
0010
0001
0100
,  // measure 5
0010
1000
0100
0010
,  // measure 6
0001
1000
0100
0001
,  // measure 7
0010
0100
1000
0001
,  // measure 8
1000
0100
0001
1000
,  // measure 9
0100
0001
0100
1000
,  // measure 10
0100
0001
0010
0100
,  // measure 11
0001
0100
1000
0010
,  // measure 12
0100
0001
0010
0100
,  // measure 13
0010
0001
1000
0010
,  // measure 14
1000
0001
0010
0001
,  // measure 15
1000
0001
1000
0000
0001
1000
0001
0000
,  // measure 16
0010
0100
1000
0010
,  // measure 17
1000
0001
1000
0001
1000
0001
1000
0000
,  // measure 18
0010
1000
0100
1000
,  // measure 19
0010
0100
0010
0100
0010
0100
0010
0000
,  // measure 20
1000
0100
0010
0001
,  // measure 21
0001
1000
0001
0000
0001
1000
0001
0000
,  // measure 22
0100
0010
1000
0001
,  // measure 23
1000
0100
1000
0100
1000
0100
1000
0000
,  // measure 24
0010
0100
0001
1000
,  // measure 25
0001
0100
0001
0100
0000
0000
0100
0001
,  // measure 26
1000
0000
1000
0001
1000
0001
1000
0000
,  // measure 27
0010
0100
0010
0100
0010
0000
1000
0001
,  // measure 28
1000
0001
1000
0100
0010
0001
0100
0010
,  // measure 29
1000
0100
0010
0001
1000
0001
0000
0010
,  // measure 30
0100
1000
0000
0010
0100
0001
1000
0010
,  // measure 31
0100
0001
0010
0000
0100
1000
0010
0000
,  // measure 32
0001
0010
0100
1000
,  // measure 33
1001
0000
0010
0000
0100
0000
0001
0000
1000
0100
0000
0010
0001
0000
0100
0000
,  // measure 34
0010
0000
1000
0000
0001
0000
1000
0000
0001
0010
0100
1000
0001
0000
0100
0000
,  // measure 35
1000
0000
0100
0000
0001
0000
1000
0000
0001
0010
0000
0100
1000
0000
0010
0000
,  // measure 36
1001
0001
0010
0100
1001
1000
0010
0100
,  // measure 37
0110
0000
1100
0000
0011
0000
0001
0010
,  // measure 38
0100
1000
0001
0000
1001
0000
1000
0100
,  // measure 39
0010
0100
1000
0001
1000
0010
1000
0100
,  // measure 40
0010
0000
0101
0000
1100
0000
0020
0001
,  // measure 41
1000
0000
0130
0000
0010
0100
0010
0000
,  // measure 42
0001
0010
0100
1000
0010
0000
0110
0000
,  // measure 43
1001
0000
0000
0000
0000
1000
0000
0000
0000
0000
0001
0000
0000
0000
0000
0000
,  // measure 44
1000
0100
1000
0010
,  // measure 45
1000
0001
0010
0001
,  // measure 46
0100
0001
1000
0001
,  // measure 47
1000
0010
0100
0010
,  // measure 48
0001
0000
0010
0000
0100
0000
1000
0001
,  // measure 49
1000
0001
1000
0001
1000
0000
0001
1000
,  // measure 50
0001
0000
0100
0010
0100
0010
0100
0010
,  // measure 51
0100
0000
1000
0000
0001
0000
0100
0001
,  // measure 52
0100
0001
0100
0001
0100
0000
0001
0000
,  // measure 53
1000
0000
1000
0100
1000
0000
0001
0100
,  // measure 54
0001
0000
1000
0001
1000
0001
0000
0010
,  // measure 55
0100
0001
0000
0010
0100
1000
0000
0000
,  // measure 56
0010
0100
0010
0100
0010
0100
0010
0000
,  // measure 57
1000
0001
1000
0001
1000
0001
1000
0000
,  // measure 58
1000
0010
0100
0001
,  // measure 59
0001
0010
0100
1000
0010
0100
0001
0000
,  // measure 60
0001
1000
0010
0000
1100
0000
0010
0000
,  // measure 61
0101
0000
0001
0010
0100
1000
0010
0000
,  // measure 62
1000
0001
1000
0000
0001
1000
0001
0000
0010
0000
0100
0000
1000
0000
0001
0000
,  // measure 63
0001
1000
0001
0000
1000
0001
1000
0000
1000
0000
0100
0000
0010
0000
0001
0000
,  // measure 64
1000
0010
0100
0001
,  // measure 65
0100
0010
0100
0001
,  // measure 66
0010
0100
1000
0010
,  // measure 67
0100
1000
0100
0001
,  // measure 68
1001
1000
0010
0100
,  // measure 69
0001
0010
0100
1000
,  // measure 70
0001
1000
0001
1000
0001
0000
0010
0100
,  // measure 71
1000
0000
0010
0100
0001
0010
0100
1000
,  // measure 72
0010
1000
0100
0010
,  // measure 73
0001
0100
0010
1000
,  // measure 74
0100
0010
0100
0010
0100
0010
0100
0000
,  // measure 75
0010
0100
0001
1000
,  // measure 76
0010
0001
0010
0100
,  // measure 77
0010
1000
0001
0100
,  // measure 78
0001
1000
0001
1000
0001
1000
0001
0000
,  // measure 79
0010
0001
0100
0001
,  // measure 80
0010
0100
1000
0010
,  // measure 81
0100
0001
0010
0100
,  // measure 82
0110
0000
1000
0001
0100
1000
0001
0000
,  // measure 83
0010
0001
1000
0000
0001
0000
0010
0000
,  // measure 84
0100
1000
0010
0100
,  // measure 85
0001
0000
0010
0000
0001
1000
0001
1000
,  // measure 86
0001
1000
0001
0000
0010
0000
0100
0000
,  // measure 87
1000
0000
0001
0000
0100
0010
0100
0010
,  // measure 88
0100
0010
0100
0000
0001
0000
0010
0000
,  // measure 89
0100
0000
1000
0000
0001
1000
0001
1000
,  // measure 90
0001
0000
1000
0010
1000
0000
0001
0010
,  // measure 91
0001
0010
0001
0010
0000
0001
1000
0001
,  // measure 92
1000
0001
0000
1000
0001
1000
0000
0000
,  // measure 93
1000
0100
0010
0001
0100
0000
0001
0100
,  // measure 94
0001
0000
0100
0000
0001
0100
0010
1000
,  // measure 95
0000
1000
0100
0010
0001
0100
0010
1000
,  // measure 96
0001
0000
0010
0100
0010
0100
0000
1000
,  // measure 97
0000
0010
0000
0100
0000
0001
0010
0001
,  // measure 98
0000
0100
0000
1000
0001
1000
0000
0010
,  // measure 99
0000
0100
0010
0100
0000
1000
0000
0001
,  // measure 100
1000
0001
0000
1000
0001
1000
0001
1000
,  // measure 101
0001
0000
1000
0000
0010
0100
0010
0000
,  // measure 102
1000
0000
0001
1000
0001
0000
0010
0000
,  // measure 103
0100
1000
0100
0000
0010
0000
0001
1000
,  // measure 104
0001
0010
0100
1000
,  // measure 105
0001
0000
0100
0000
0001
1000
0001
0000
,  // measure 106
0010
0000
0100
0001
0100
0000
0010
0000
,  // measure 107
1000
0001
1000
0000
0010
0000
0100
0000
,  // measure 108
0001
0010
0100
1000
,  // measure 109
0010
0100
0001
1000
,  // measure 110
0001
0010
0100
0001
,  // measure 111
0100
0000
0010
0000
1000
0100
1000
0100
,  // measure 112
0010
0001
0010
0001
0100
0001
0100
0001
,  // measure 113
1000
0010
1000
0010
1000
0000
1000
0000
,  // measure 114
0100
0010
0001
1000
,  // measure 115
0100
0000
0010
0000
0001
0010
0001
0010
,  // measure 116
0100
1000
0100
1000
0010
1000
0010
1000
,  // measure 117
0001
0100
0001
0100
0001
0000
0001
0000
,  // measure 118
0100
0010
1000
0001
,  // measure 119
0100
0000
0010
0000
1000
0100
1000
0100
,  // measure 120
0010
0001
0010
0001
0100
0001
0100
0001
,  // measure 121
1000
0010
1000
0010
1000
0100
1000
0100
,  // measure 122
0010
0001
0010
0001
0100
0001
0100
0001
,  // measure 123
1000
0010
1000
0010
1000
0100
0010
0001
,  // measure 124
0100
0010
1000
0100
0010
0001
0100
0000
,  // measure 125
0010
0100
2002
0000
,  // measure 126
0000
0000
0000
0000
,  // measure 127
0000
3003
0000
0000
0000
0000
0000
0000
;

//---------------dance-single - Copied from----------------
#NOTES:
     dance-single:
     Copied from:
     Challenge:
     20:
     0.980,1.000,0.322,0.066,0.052:
0000
0000
0000
0000
,
0000
0000
0000
0000
,
1000
0010
0100
0001
,
0010
0100
1000
0010
,
0100
0001
0010
0100
,
1000
0001
0010
1000
,
1100
0010
0001
1000
,
1001
0010
1000
0001
,
0011
1000
0010
0001
,
0010
1000
0100
0010
,
1000
0010
0001
0100
,
0010
1000
0100
0010
,
0100
1000
0001
0100
,
0001
1000
0100
1000
,
0001
1000
0001
0000
1000
0001
1000
0000
,
0100
0010
0001
0100
,
0001
1000
0001
1000
0001
1000
0001
0000
,
0100
0001
0010
0001
,
0100
0010
0100
0010
0100
0010
0100
0000
,
0001
0010
0100
1000
,
1000
0001
1000
0000
1000
0001
1000
0000
,
0010
0100
0001
1000
,
0001
0010
0001
0010
0001
0010
0001
0000
,
0100
0010
1000
0001
,
1000
0010
1000
0010
0000
0000
0010
1000
,
0001
0000
0001
1000
0001
1000
0001
0000
,
0100
0010
0100
0010
0100
0000
0001
1000
,
0001
1000
0001
0010
0100
1000
0010
0100
,
0001
0010
0100
1000
0001
1000
0000
0100
,
0010
0001
0000
0100
0010
1000
0001
0100
,
0010
1000
0100
0000
0010
0001
0100
0000
,
1000
0100
0010
0001
,
1001
0000
0200
0000
0010
0000
1300
0000
0001
0010
0000
0100
1000
0000
0010
0000
,
0200
0000
0001
0000
1000
0000
0301
0000
1000
0100
0010
0001
1000
0000
0010
0000
,
0001
0000
0010
0000
1000
0000
0001
0000
1000
0100
0000
0010
0001
0000
0100
0000
,
1001
1000
0100
0001
1001
0001
1000
0010
,
0110
0000
0011
0000
1100
0000
1000
0100
,
0010
0001
1000
0000
1001
0000
0001
0010
,
1000
0010
0001
0100
1000
0100
0001
0010
,
0110
0000
1010
0000
0011
0000
0200
1000
,
0001
0000
0310
0000
0100
0010
0100
0000
,
1000
0100
0010
0001
0100
0000
0110
0000
,
1001
0000
0000
0000
0000
0011
0000
0000
0000
0000
1010
0000
0000
0000
0000
0000
,
0001
0010
0001
0100
,
0001
1000
0100
1000
,
0010
1000
0001
1000
,
0001
0100
0010
0100
,
1000
0000
0100
0000
0010
0000
0001
1000
,
0001
1000
0001
1000
0001
0000
1000
0001
,
1000
0000
0010
0100
0010
0100
0010
0100
,
0010
0000
0001
0000
1000
0000
0010
1000
,
0010
1000
0010
1000
0010
0000
1000
0000
,
0001
0000
0001
0010
0001
0000
1000
0010
,
1000
0000
0001
1000
0001
1000
0000
0100
,
0010
1000
0000
0100
0010
0001
0000
0000
,
0100
0010
0100
0010
0100
0010
0100
0000
,
0001
1000
0001
1000
0001
1000
0001
0000
,
0001
0100
0010
1000
,
1000
0100
0010
0001
0100
0010
1000
0000
,
1000
0001
0100
0000
0011
0000
0100
0000
,
1010
0000
1000
0100
0010
0001
0100
0000
,
0001
1000
0001
0000
1000
0001
1000
0000
0100
0000
0010
0000
0001
0000
1000
0000
,
1000
0001
1000
0000
0001
1000
0001
0000
0001
0000
0010
0000
0100
0000
1000
0000
,
0001
0100
0010
1000
,
1010
0100
0010
0001
,
0101
0010
0001
0100
,
0010
0001
0010
1000
,
1001
0001
0100
0010
,
1000
0100
0010
0001
,
1000
0001
1000
0001
1000
0000
0100
0010
,
0001
0000
0100
0010
1000
0100
0010
0001
,
0100
0001
0010
0100
,
1000
0010
0100
0001
,
0010
0100
0010
0100
0010
0100
0010
0000
,
0100
0010
1000
0001
,
1100
1000
0100
0010
,
0110
0001
1000
0010
,
1000
0001
1000
0001
1000
0001
1000
0000
,
1100
1000
0010
1000
,
0101
0010
0001
0100
,
0110
1001
1100
0011
,
0110
0000
0001
1000
0020
0001
1030
0000
,
0200
1000
0301
0000
1000
0000
0100
0000
,
0010
0001
0100
0010
,
1000
0000
0100
0000
1000
0001
1000
0001
,
1000
0001
1000
0000
0100
0000
0010
0000
,
0001
0000
1000
0000
0010
0100
0010
0100
,
0010
0100
0010
0000
1000
0000
0100
0000
,
0010
0000
0001
0000
1000
0001
1000
0001
,
1000
0000
0001
0100
0001
0000
1000
0100
,
1000
0100
1000
0100
0000
1000
0001
1000
,
0001
1000
0000
0001
1000
0001
0000
0000
,
0001
0010
0100
1000
0010
0000
1000
0010
,
1000
0000
0010
0000
1000
0010
0100
0001
,
0000
0001
0010
0100
1000
0010
0100
0001
,
1000
0000
0100
0010
0100
0010
0000
0001
,
0000
0100
0000
0010
0000
1000
0100
1000
,
0000
0010
0000
0001
1000
0001
0000
0100
,
0000
0010
0100
0010
0000
0001
0000
1000
,
0001
1000
0000
0001
1000
0001
1000
0001
,
1000
0000
0001
0000
0100
0010
0100
0000
,
0001
0000
1000
0001
1000
0000
0100
0000
,
0010
0001
0010
0000
0100
0000
1000
0001
,
1000
0100
0010
0001
,
1000
0000
0010
0100
1000
0001
1000
0000
,
0100
1000
0010
1000
0010
0000
0100
0010
,
0001
1000
0001
0000
0100
0000
0010
0000
,
1000
0100
0010
0001
,
0100
0010
1000
0001
,
1001
0100
0010
1000
,
1010
0000
0100
0000
1000
0001
1000
0001
,
0100
0010
0100
0010
1000
0010
0001
0010
,
1000
0100
0001
0100
1000
0000
0001
0000
,
0010
1000
0010
0001
,
0010
0000
1000
0000
0100
0001
0100
0001
,
0010
1000
0010
0001
0100
1000
0001
1000
,
0100
0001
0100
0010
0100
0000
1000
0000
,
0010
0100
0001
1000
,
0010
0000
0100
0000
0001
0100
0001
0100
,
1000
0100
1000
0100
0001
0100
1000
0100
,
0001
1000
0001
1000
0001
0100
0001
0100
,
1000
0010
1000
0010
0100
0010
0100
0010
,
0001
1000
0001
1000
0001
0010
1000
0010
,
0100
1000
0001
0100
1000
0010
1000
0000
,
0100
0010
2002
0000
,
0000
0000
0000
0000
,
0000
0000
3003
0000
;

//---------------dance-single - ----------------
#NOTES:
     dance-single:
     :
     Beginner:
     5:
     0.219,0.353,0.076,0.000,0.000:
0000
0000
0000
0000
,
0000
0000
0000
0000
,
0010
0000
0000
0000
,
0010
0000
0000
0000
,
1000
0000
0000
0000
,
1000
0000
0000
0000
,
0001
0000
0000
0000
,
0001
0000
0000
0000
,
0100
0000
0000
0000
,
0100
0000
0000
0000
,
0100
0000
0010
0000
,
0100
0000
0000
0000
,
0001
0000
0000
0000
,
0001
0000
0000
0000
,
1000
0000
0000
0000
,
1000
0000
0000
0000
,
0001
0000
1000
0000
,
0001
0000
0000
0000
,
0010
0000
0000
0000
,
0110
0000
0000
0000
,
1000
0000
0000
0000
,
1001
0000
0000
0000
,
0001
0000
0000
0000
,
0100
0000
0000
0000
,
0010
0000
0000
0000
,
0100
0000
0000
0000
,
0010
0000
0000
0000
,
1000
0000
0000
0000
,
0001
0000
0000
0000
,
1001
0000
0000
0000
,
0010
0000
0000
0000
,
0100
0000
0000
0000
,
1001
0000
0010
0000
,
0100
0000
0001
0000
,
1000
0000
0001
0000
,
0010
0000
0100
0000
,
0010
0000
0100
0000
,
0010
0000
1000
0000
,
0001
0000
1000
0000
,
0001
0000
1000
0000
,
1000
0000
0001
0000
,
0001
0000
0010
0000
,
0010
0000
0100
0000
,
0010
0000
0000
0000
,
0010
0000
0000
0000
,
0010
0000
0000
0000
,
1000
0000
0000
0000
,
1000
0000
0000
0000
,
1000
0000
0000
0000
,
0001
0000
0000
0000
,
0001
0000
0000
0000
,
0001
0000
0000
0000
,
1000
0000
0000
0000
,
0001
0000
0000
0000
,
1000
0000
0000
0000
,
0001
0000
0000
0000
,
1000
0000
0000
0000
,
0010
0000
0000
0000
,
0100
0000
0000
0000
,
0110
0000
0001
0000
,
1000
0000
0001
0010
,
0100
0000
1000
0000
,
0001
0000
1000
0010
,
0100
0000
0000
0000
,
0100
0000
0000
0000
,
0010
0000
0000
0000
,
0010
0000
0000
0000
,
1000
0000
0001
0000
,
1000
0000
0000
0000
,
0100
0000
0000
0000
,
0100
0000
0000
0000
,
0010
0000
0000
0000
,
0010
0000
0000
0000
,
0001
0000
1000
0000
,
0001
0000
0000
0000
,
0010
0000
0000
0000
,
0100
0000
0000
0000
,
1000
0000
0000
0000
,
1000
0000
0000
0000
,
0001
0000
0000
0000
,
0001
0000
0000
0000
,
1001
0000
0000
0000
,
0000
0000
0010
0000
,
0000
0000
0010
0000
,
0000
0000
1000
0000
,
0000
0000
1000
0000
,
0000
0000
0001
0000
,
0000
0000
0001
0000
,
0000
0000
0010
0000
,
0100
0000
0010
0000
,
0000
0000
1000
0000
,
0000
0000
0001
0000
,
0000
0000
1000
0000
,
0000
0000
0010
0000
,
0000
0000
0010
0000
,
0000
0000
1000
0000
,
0000
0000
0001
0000
,
0000
0000
1000
0000
,
0000
0000
1001
0000
,
0000
0000
0001
0000
,
0000
0000
0001
0000
,
0000
0000
0100
0000
,
0000
0000
0100
0000
,
0000
0000
0010
0000
,
0000
0000
0010
0000
,
0000
0000
1000
0000
,
0000
0000
1000
0000
,
0000
0000
0001
0000
,
1000
0000
0001
0000
,
0000
0000
0100
0000
,
0000
0000
0100
0000
,
0000
0000
0010
0000
,
0000
0000
0010
0000
,
0000
0000
1000
0000
,
0001
0000
1000
0000
,
1000
0000
0010
0000
,
0010
0000
0010
0000
,
0000
0000
0000
0000
,
0000
0000
1000
0000
,
1000
0000
1000
0000
,
0001
0000
0001
0000
,
0001
0000
1000
0000
,
1000
0000
1000
0000
,
0001
0000
0001
0000
,
0001
0000
1001
0000
;

//---------------dance-single - Copied from----------------
#NOTES:
     dance-single:
     Copied from:
     Easy:
     10:
     0.380,0.593,0.095,0.038,0.000:
0000
0000
0000
0000
,
0000
0000
0000
0000
,
0100
0000
1000
0000
,
0100
0000
0010
0000
,
0001
0000
1000
0000
,
0001
0000
1000
0000
,
1000
0000
0001
0000
,
0001
0000
0000
0000
,
0010
0000
0100
0000
,
0010
0000
0100
0000
,
0010
0000
0100
0000
,
0010
0000
0001
0000
,
1000
0000
0001
0000
,
1000
0000
0000
0000
,
0001
0000
1000
0000
,
0001
0000
1000
0000
,
1000
0001
1000
0000
,
1000
0000
0001
0000
,
0100
0000
0001
0000
,
0110
0000
1000
0000
,
0001
0000
1000
0000
,
1001
0000
0001
0000
,
1000
0000
0100
0000
,
0010
0000
0001
0000
,
0100
0000
0001
0000
,
0010
0000
0100
0000
,
1000
0000
0001
0000
,
1000
0000
0000
0000
,
0010
0000
0000
0000
,
1001
0000
0000
0000
,
0100
0000
1000
0000
,
0010
0000
0000
0000
,
1001
0010
0100
1000
,
0010
0001
1000
0100
,
0010
0001
1000
0010
,
0100
0001
0010
0100
,
1000
0100
0010
0001
,
0100
0010
1000
0001
,
0010
0100
0001
1000
,
0001
0100
0010
1000
,
0001
0010
1000
0010
,
0001
0100
1000
0100
,
0010
0001
0000
0000
,
1001
0000
0000
0000
,
0100
0000
0010
0000
,
0100
0000
0000
0000
,
0001
0000
1000
0000
,
0001
0000
0000
0000
,
0001
0000
0010
0000
,
1000
0000
0000
0000
,
1000
0000
0001
0000
,
1000
0000
0000
0000
,
0001
0000
0100
0000
,
1000
0000
0000
0000
,
0001
0000
1000
0000
,
0100
0000
0000
0000
,
0001
0000
1000
0000
,
0100
0000
0000
0000
,
0010
0000
0001
0000
,
0110
0001
1000
0100
,
0010
0001
1000
0100
,
0010
0001
1000
0010
,
0100
0001
0010
0100
,
1001
0000
1000
0000
,
0010
0000
0100
0000
,
0001
0000
1000
0000
,
0100
0000
1000
0000
,
0001
0000
1000
0000
,
0001
0000
0100
0000
,
0010
0000
0100
0000
,
0010
0000
0001
0000
,
0100
0000
0010
0000
,
0100
0000
0001
0000
,
1000
0001
1000
0000
,
0010
0000
1000
0000
,
0100
0000
0010
0000
,
0001
0000
1000
0000
,
0001
0000
0010
0000
,
0001
0000
0100
0000
,
1000
0000
0000
0000
,
1000
0000
0010
0000
,
2002
0000
0000
0000
,
3003
0000
0100
1000
,
0100
0000
0010
0001
,
0010
0000
0001
1000
,
0001
0000
1000
0001
,
1000
0000
1000
0100
,
0010
0001
1000
0000
,
0000
0000
0100
1000
,
0010
0001
0100
0000
,
0000
0000
0001
1000
,
0010
0100
0010
0000
,
1000
0000
0001
0000
,
1000
0000
0100
0000
,
0000
0000
0100
0000
,
1000
0000
0001
0000
,
0000
0000
1000
0000
,
0001
0000
0100
0000
,
0000
0000
1001
0000
,
0000
0000
1000
0000
,
0001
0000
1000
0000
,
0000
0000
0010
0000
,
1000
0000
0010
0000
,
0000
0000
0100
0000
,
0001
0000
0100
0000
,
0000
0000
0001
0000
,
1000
0000
0001
0000
,
0000
0000
1000
0000
,
0001
0000
1000
0000
,
0000
0000
0010
0000
,
1000
0000
0010
0000
,
0000
0000
0100
0000
,
0001
0000
0100
0000
,
0000
0000
0001
1000
,
0001
0100
0001
0010
,
0001
1000
0100
1000
,
0010
1000
0100
0000
,
0000
0000
0000
0000
,
0000
0000
0001
0010
,
0001
0100
0001
0000
,
1000
0010
1000
0100
,
1000
0000
0001
1000
,
0010
0100
0001
0000
,
1000
0001
1000
0010
,
1000
0000
2002
0000
,
0000
3003
0000
0000
;

//---------------dance-single - Copied from----------------
#NOTES:
     dance-single:
     Copied from:
     Medium:
     16:
     0.895,1.000,0.151,0.019,0.024:
0000
0000
0000
0000
,
0000
0000
0000
0000
,
0100
1000
0001
0010
,
0100
0000
0000
0000
,
0001
0010
1000
0001
,
0100
0000
0000
0000
,
0001
1000
0010
0100
,
0010
0000
0000
0000
,
1000
0100
1000
0010
,
1000
0100
0001
1000
,
0100
1000
0010
0001
,
1000
0000
0000
0000
,
0001
0100
0010
0001
,
0010
0100
0001
1000
,
1000
0001
1000
0000
0001
1000
0001
0000
,
0001
1000
0001
1000
,
1000
0001
1000
0001
1000
0000
1001
0000
,
0001
1000
0001
1000
,
0001
1000
0001
1000
0001
0000
1001
0000
,
0000
0000
0110
0000
,
0001
1000
0001
0000
1000
0001
1000
0000
,
1000
0001
1000
0001
,
0001
1000
0001
1000
0001
1000
0000
0000
,
1001
1000
0100
0010
,
0100
1000
0100
1000
0100
0000
0000
0110
,
0000
0000
0010
0100
0010
0100
0010
0000
,
0001
1000
0000
0001
1000
0000
0010
0100
,
0010
0100
0010
0000
0000
0000
1000
0001
,
1000
0001
1000
0000
0000
0110
0000
0001
,
0010
0001
0000
0001
0010
0001
0010
0001
,
0010
0001
0010
0000
1000
0010
1000
0000
,
0010
1000
0001
0000
,
0110
1000
0100
0010
0001
0000
0001
0100
,
0010
1000
0100
0010
0100
1000
0100
1000
,
0010
1000
0100
0010
0100
0000
0010
0001
,
0100
0010
1000
0100
0010
0001
0010
0100
,
1001
0000
1000
0000
0001
0000
0100
0001
,
1000
0000
0100
0000
0110
0000
0010
1000
,
0001
0000
0010
0100
0010
0000
0010
1000
,
0001
0000
0110
0000
1001
0000
0001
0100
,
0010
0000
1000
0000
0001
1000
0001
0000
,
0100
0001
1000
0010
0100
0000
1001
0000
,
0110
0000
0000
0000
0000
0010
0000
0000
0000
0000
0100
0000
0000
0000
0000
0000
,
0001
1000
0001
0100
,
0001
1000
0001
1000
,
0010
1000
0001
1000
,
0001
0100
0010
1000
,
0001
0000
0100
0000
0010
0000
0001
1000
,
0001
0000
1000
0001
1000
0000
0001
1000
,
0001
0000
0100
0010
0100
0000
0010
0100
,
0010
0000
0001
0000
1000
0000
0010
1000
,
0010
1000
0010
1000
0010
0000
1000
0000
,
0001
0000
0001
0010
0001
0000
0010
0001
,
0010
0000
0001
1000
0001
1000
0000
0100
,
0010
0100
0000
0100
0010
0100
0000
0000
,
0100
0010
0100
0010
0100
0010
0100
0000
,
0001
1000
0001
1000
0001
1000
0001
0000
,
0001
0100
0010
1000
,
1000
0100
0010
0001
0100
0010
1000
0000
,
1000
0001
0010
0000
1000
0000
0001
0000
,
1001
0000
0100
0001
1000
0010
0100
0000
,
0010
0100
0010
0000
0100
0010
0100
0000
0001
0000
1000
0000
0010
0000
0100
0000
,
0100
0010
0100
0000
0010
0100
0010
0000
0010
0000
1000
0000
0001
0000
0100
0000
,
0001
0100
0010
1000
,
0010
0100
0010
1000
,
0100
0010
0001
0100
,
0010
0001
0010
1000
,
0001
1000
0100
0010
,
0001
0100
0010
1000
,
1000
0001
1000
0001
1000
0000
0100
0010
,
0100
0000
0100
0010
1000
0100
0010
0001
,
0100
0001
0010
0100
,
1000
0010
0100
0001
,
0010
0100
0010
0100
0010
0100
0010
0000
,
0100
0010
1000
0001
,
0100
1000
0100
0010
,
0100
0001
1000
0010
,
1000
0001
1000
0001
1000
0001
1000
0000
,
0100
1000
0010
1000
,
0100
0010
0001
0100
,
0010
1000
0100
0010
,
0110
0000
0010
0100
1000
0010
0100
0000
,
0001
0100
0010
0000
0100
0000
0001
0000
,
0100
0010
0001
1000
,
0100
0000
1000
0000
0100
0010
0100
0010
,
0100
0010
0100
0000
0001
0000
1000
0000
,
0010
0000
0100
0000
1000
0001
1000
0001
,
1000
0001
1000
0000
0100
0000
0001
0000
,
1000
0000
0010
0000
0100
0010
0100
0010
,
0100
0000
0010
0001
0010
0000
0100
0001
,
0100
0001
0100
0001
0000
0100
0010
0100
,
0010
0100
0000
0010
0100
0010
0000
0000
,
0010
1000
0010
1000
0010
0000
0100
1000
,
0100
0000
1000
0000
0100
1000
0100
1000
,
0000
0010
0001
0010
0001
0010
0001
0010
,
0100
0000
0001
1000
0001
1000
0000
0010
,
0000
1000
0000
0100
0000
0100
1000
0100
,
0000
1000
0000
0010
0100
0010
0000
0001
,
0000
1000
0001
1000
0000
0010
0000
0100
,
0010
0100
0000
0010
0100
0010
0100
0010
,
0100
0000
0010
0000
0001
1000
0001
0000
,
0010
0000
0100
0010
0100
0000
0001
0000
,
1000
0010
1000
0000
0001
0000
0100
0010
,
0100
0001
1000
0010
,
0100
0000
1000
0000
0100
0010
0100
0000
,
0001
0000
1000
0100
1000
0000
0001
0000
,
0010
0100
0010
0000
0001
0000
1000
0000
,
0100
1000
0010
1000
,
0001
1000
0100
0010
,
0100
1000
0010
0100
,
0001
0000
0010
0000
0010
0001
0010
0001
,
0010
0001
0010
0100
1000
0100
1000
0100
,
1000
0100
1000
0100
1000
0000
0010
0000
,
1000
0001
0100
0010
,
1000
0000
0001
0000
1000
0010
1000
0010
,
1000
0010
1000
0010
1000
0010
0100
0001
,
0100
0001
0100
0001
0100
0000
0100
0000
,
1000
0001
0010
0100
,
1000
0000
0001
0000
0010
1000
0010
1000
,
0010
1000
0010
1000
0010
1000
0010
1000
,
0100
0001
0100
0001
0100
0001
0100
0001
,
0010
0001
0010
0001
0010
0001
0010
0100
,
1000
0100
1000
0100
1000
0100
1000
0100
,
1000
0010
1000
0100
1000
0010
1000
0000
,
0001
1000
2002
0000
,
0000
0000
0000
0000
,
0000
3003
0000
0000
0000
0000
0000
0000
;
