#TITLE:TSUGARU;
#SUBTITLE:;
#ARTIST:RevenG VS DE-SIRE;
#TITLETRANSLIT:;
#SUBTITLETRANSLIT:;
#ARTISTTRANSLIT:;
#CREDIT:;
#BANNER:TSUGARU.png;
#BACKGROUND:TSUGARU-bg.png;
#LYRICSPATH:;
#CDTITLE:./CDTITLES/DDRMAX2 -Dance Dance Revolution 7thMIX-.PNG;
#MUSIC:TSUGARU.mp3;
#OFFSET:-0.050;
#SAMPLESTART:70.920;
#SAMPLELENGTH:15.000;
#SELECTABLE:YES;
#DISPLAYBPM:165.000;
#BPMS:0.000=164.990,16.000=165.000,229.000=157.890,233.000=130.430,237.000=123.290,238.000=130.430,239.000=109.760,240.000=94.940;
#STOPS:16.000=1.093
;
#BGCHANGES:;

//---------------dance-single - ----------------
#NOTES:
     dance-single:
     :
     Easy:
     3:
     0.235,0.262,0.260,0.227,0.000:
0000
0000
0000
0000
,
0000
0000
0000
0000
,
0000
0000
0000
0000
,
0000
0000
0000
0000
,
0000
0000
0010
0000
,
0010
0000
0100
0000
,
0100
0000
0010
0000
,
0010
0100
0000
0100
,
0000
0000
0001
0000
,
0001
0000
1000
0000
,
1000
0000
0001
0000
,
0001
1000
0000
1000
,
0000
0000
0010
0000
,
0100
0000
0010
0000
,
0100
0000
0010
0000
,
0100
0010
0000
0100
,
0000
0000
0010
0000
,
1000
0000
0001
0000
,
0100
0000
0010
0000
,
1000
0001
0000
0100
,
0000
0020
0000
0000
,
0000
0000
0000
0000
,
0000
0000
0000
0000
,
0030
1000
0000
1000
,
0000
0001
0000
0001
,
0000
1000
0000
1000
,
0000
0001
0000
0001
,
1001
0010
0000
0010
,
0000
0100
0000
0100
,
0000
0010
0000
0010
,
0000
0100
0000
0100
,
0110
1000
0000
0001
,
0000
0010
0000
0100
,
0000
1000
0000
0010
,
0000
0100
0000
0001
,
1001
0010
0000
1001
,
0000
0100
0000
1001
,
0000
0010
0000
1001
,
0000
0100
0000
1001
,
0000
0020
0000
0000
,
0030
2000
0000
0000
,
3000
0002
0000
0000
,
0003
0200
0000
0000
,
0300
0020
0030
2000
,
3000
0002
0003
0200
,
0300
0020
0030
2000
,
3000
0002
0003
0200
,
0300
2002
0000
0000
,
3003
0110
0000
1001
,
0000
0010
0100
1001
,
0000
1001
0000
0110
,
0000
1000
0001
0110
,
0000
0011
0000
1001
,
0000
0010
0001
1001
,
0000
1010
0000
1001
,
0000
0010
1000
1001
,
0000
1010
0000
0101
,
0000
2002
0000
0000
,
3003
0020
0000
0000
,
0030
0200
0000
0000
,
0300
2002
3003
0000
;

//---------------dance-single - ----------------
#NOTES:
     dance-single:
     :
     Medium:
     6:
     1.000,1.000,1.000,0.411,1.000: // measure 1
0000
0000
0000
0000
,  // measure 2
0000
0000
0000
0000
,  // measure 3
0000
0000
0000
0000
,  // measure 4
0000
0000
0000
0000
,  // measure 5
0000
0000
0000
0000
0001
0000
0001
0010
0010
0000
0001
0010
0010
0000
1100
0000
,  // measure 6
1010
0000
1100
0000
1001
0000
0110
0000
0100
0100
1001
0100
0100
1001
1001
0000
,  // measure 7
0011
0000
1010
0000
0011
0000
0001
0100
1000
0000
1001
0000
0110
0000
1001
0000
,  // measure 8
1000
0010
0001
0000
1000
0010
0001
0000
0001
0100
1000
0010
0001
0100
1000
0010
,  // measure 9
0001
1010
0100
0001
1010
0100
1000
0001
0011
0000
1000
0100
0100
0100
1100
0000
,  // measure 10
0011
0000
1010
0000
1100
0000
0011
0000
0102
0010
0013
2100
0010
3010
0001
0000
,  // measure 11
0011
0000
1001
0000
1010
0000
1000
0100
0010
0000
2000
0100
3010
0000
0102
0100
,  // measure 12
0013
0000
2001
0010
3100
0000
0011
0000
0011
0000
1100
0000
1100
0000
1010
0000
,  // measure 13
1010
0000
0101
0101
0101
0001
0010
0000
1000
1000
0102
0103
1100
0000
0101
1000
,  // measure 14
0011
0000
0011
0000
1010
0100
1010
0000
1100
0001
0011
0100
1010
2000
0001
0010
,  // measure 15
3100
0002
0010
0103
1100
0010
0110
0001
1100
0000
1000
0100
0010
0000
0001
0100
,  // measure 16
1000
0000
1000
0010
0001
0000
1000
0010
0001
0000
0001
0100
1000
0000
0001
0100
,  // measure 17
1000
0010
0001
0100
1000
0001
0010
0100
0001
0010
0100
0001
0010
0000
1000
0011
,  // measure 18
0000
1000
0001
1010
0011
0000
1001
0000
0110
0000
1100
0000
1010
0000
0001
0100
,  // measure 19
1000
0000
0101
0000
0001
0010
1000
0000
0101
0000
0001
0101
0000
0011
0001
0000
,  // measure 20
0100
1010
0000
0100
1010
0000
1010
0100
0011
0100
1010
0100
0011
0010
0101
0010
,  // measure 21
1100
0010
0101
0010
2002
0000
0000
0000
0000
0000
0000
0000
0000
0000
0000
0000
,  // measure 22
0000
0000
0000
0000
,  // measure 23
0000
0000
0000
0000
,  // measure 24
3003
0000
0000
0000
0000
0000
0000
0000
0000
0000
0000
0000
0000
0000
0000
0000
1000
0100
0010
0001
0000
0000
0000
0000
0000
0000
0000
0000
0000
0000
0000
0000
0001
0010
0100
1000
0000
0000
0000
0000
0000
0000
0000
0000
0000
0000
0000
0000
1000
0100
0010
0001
0000
0000
0000
0000
0000
0000
0000
0000
0000
0000
0000
0000
,  // measure 25
0001
0010
0100
1000
0000
0000
0000
0000
0000
0000
0000
0000
0000
0000
0000
0000
0001
0100
0010
1000
0000
0000
0000
0000
0000
0000
0000
0000
0000
0000
0000
0000
1000
0010
0100
0001
0000
0000
0000
0000
0000
0000
0000
0000
0000
0000
0000
0000
1000
0100
0001
1000
0000
0000
0000
0000
0000
0000
0000
0000
0000
0000
0000
0000
,  // measure 26
0001
0100
1000
0001
0000
0000
0000
0000
0000
0000
0000
0000
0000
0000
0000
0000
1000
0100
0010
0001
0000
0000
0000
0000
0000
0000
0000
0000
0000
0000
0000
0000
0001
0010
0100
1000
0000
0000
0000
0000
0000
0000
0000
0000
0000
0000
0000
0000
1000
0100
0010
0001
0000
0000
0000
0000
0000
0000
0000
0000
0000
0000
0000
0000
,  // measure 27
0001
0010
0100
1000
0000
0000
0000
0000
0000
0000
0000
0000
0000
0000
0000
0000
1000
0100
0010
0001
0000
0000
0000
0000
0000
0000
0000
0000
0000
0000
0000
0000
0001
0100
0010
1000
0000
0000
0000
0000
0000
0000
0000
0000
0000
0000
0000
0000
1000
0100
0001
0010
0000
0000
0000
0000
0000
0000
0000
0000
0000
0000
0000
0000
,  // measure 28
0001
0100
1000
0010
0000
0000
0000
0000
0000
0000
0000
0000
0000
0000
0000
0000
2001
0010
0000
0000
0000
0000
0000
0000
0000
0000
0000
0000
0000
0000
0000
0000
3010
0001
0100
0010
0000
0000
0000
0000
0000
0000
0000
0000
0000
0000
0000
0000
2001
0010
0000
0000
0000
0000
0000
0000
0000
0000
0000
0000
0000
0000
0000
0000
,  // measure 29
3010
0001
0100
0010
0000
0000
0000
0000
0000
0000
0000
0000
0000
0000
0000
0000
0100
0001
1000
0010
0000
0000
0000
0000
0000
0000
0000
0000
0000
0000
0000
0000
0010
1000
0001
0100
0000
0000
0000
0000
0000
0000
0000
0000
0000
0000
0000
0000
0100
0001
1000
0010
0000
0000
0000
0000
0000
0000
0000
0000
0000
0000
0000
0000
,  // measure 30
0010
1000
0001
0100
0000
0000
0000
0000
0000
0000
0000
0000
0000
0000
0000
0000
0010
0001
1000
0100
0000
0000
0000
0000
0000
0000
0000
0000
0000
0000
0000
0000
0100
1000
0001
0010
0000
0000
0000
0000
0000
0000
0000
0000
0000
0000
0000
0000
0100
0001
0010
0100
0000
0000
0000
0000
0000
0000
0000
0000
0000
0000
0000
0000
,  // measure 31
0010
0001
0100
0010
0000
0000
0000
0000
0000
0000
0000
0000
0000
0000
0000
0000
0100
0001
1000
0010
0000
0000
0000
0000
0000
0000
0000
0000
0000
0000
0000
0000
0010
1000
0001
0100
0000
0000
0000
0000
0000
0000
0000
0000
0000
0000
0000
0000
0100
0001
1000
0010
0000
0000
0000
0000
0000
0000
0000
0000
0000
0000
0000
0000
,  // measure 32
0010
1000
0001
0100
0000
0000
0000
0000
0000
0000
0000
0000
0000
0000
0000
0000
0100
0001
1000
0010
0000
0000
0000
0000
0000
0000
0000
0000
0000
0000
0000
0000
0010
0001
1000
0100
0000
0000
0000
0000
0000
0000
0000
0000
0000
0000
0000
0000
0100
0001
0010
1000
0000
0000
0000
0000
0000
0000
0000
0000
0000
0000
0000
0000
,  // measure 33
0010
0001
0100
1000
0000
0000
0000
0000
0000
0000
0000
0000
0000
0000
0000
0000
0210
1000
0000
0000
0000
0000
0000
0000
0000
0000
0000
0000
0000
0000
0000
0000
1300
0010
0001
1000
0000
0000
0000
0000
0000
0000
0000
0000
0000
0000
0000
0000
0210
1000
0000
0000
0000
0000
0000
0000
0000
0000
0000
0000
0000
0000
0000
0000
,  // measure 34
1300
0010
0001
1000
0000
0000
0000
0000
0000
0000
0000
0000
0000
0000
0000
0000
2010
0001
0010
0100
3001
0000
0000
0000
0000
0000
0000
0000
0000
0000
0000
0000
0102
1000
0100
0010
1003
0000
0000
0000
0000
0000
0000
0000
0000
0000
0000
0000
0021
0100
0001
1000
0130
0000
0000
0000
0000
0000
0000
0000
0000
0000
0000
0000
,  // measure 35
0210
0010
1000
0010
1300
0000
0000
0000
0000
0000
0000
0000
0000
0000
0000
0000
0120
0100
0100
0100
1030
0000
0000
0000
0000
0000
0000
0000
0000
0000
0000
0000
2100
0100
0100
0001
3100
0000
0000
0000
0000
0000
0000
0000
0000
0000
0000
0000
1200
0010
1000
0001
0310
0000
0000
0000
0000
0000
0000
0000
0000
0000
0000
0000
,  // measure 36
0021
0000
0000
0100
0000
0000
0001
0000
0000
1000
0000
0000
0130
0000
0000
0000
0000
0000
0000
0000
0000
0000
0000
0000
0000
0000
0000
0000
0000
0000
0000
0000
0000
0000
0000
0000
0000
0000
0000
0000
0000
0000
0000
0000
0000
0000
0000
0000
1001
0000
0000
0000
0000
0000
0000
0000
0000
0000
0000
0000
0000
0000
0000
0000
0100
0000
0000
0000
0000
0000
0000
0000
0000
0000
0000
0000
0000
0000
0000
0000
1010
0000
0000
0000
0000
0000
0000
0000
0000
0000
0000
0000
0000
0000
0000
0000
0100
0000
0000
0000
0000
0000
0000
0000
0000
0000
0000
0000
0000
0000
0000
0000
0011
0000
0000
0000
0000
0000
0000
0000
0000
0000
0000
0000
0000
0000
0000
0000
1000
0000
0000
0000
0000
0000
0000
0000
0000
0000
0000
0000
0000
0000
0000
0000
1001
0000
0000
0000
0000
0000
0000
0000
0000
0000
0000
0000
0000
0000
0000
0000
0000
0000
0000
0000
0000
0000
0000
0000
0000
0000
0000
0000
0000
0000
0000
0000
0000
0000
0000
0000
0000
0000
0000
0000
0000
0000
0000
0000
0000
0000
0000
0000
,  // measure 37
1001
0000
0000
0011
0100
1010
1000
1001
0010
0101
0000
0000
,  // measure 38
1000
0000
0000
0100
0000
0000
0010
0000
0000
0001
0000
0000
0000
0000
0000
0000
0000
0000
0000
0000
0000
0000
0000
0000
0000
0000
0000
0000
0000
0000
0000
0000
0000
0000
0000
0000
0000
0000
0000
0000
0000
0000
0000
0000
0000
0000
0000
0000
0011
0000
0000
0000
0000
0000
0000
0000
0000
0000
0000
0000
0000
0000
0000
0000
1100
0000
0000
0000
0000
0000
0000
0000
0000
0000
0000
0000
0000
0000
0000
0000
0011
0000
0000
0000
0000
0000
0000
0000
0000
0000
0000
0000
0000
0000
0000
0000
0101
0000
0000
0000
0000
0000
0000
0000
0000
0000
0000
0000
0000
0000
0000
0000
1010
0000
0000
0000
0000
0000
0000
0000
0000
0000
0000
0000
0000
0000
0000
0000
0101
0000
0000
0000
0000
0000
0000
0000
0000
0000
0000
0000
0000
0000
0000
0000
1001
0000
0000
0000
0000
0000
0000
0000
0000
0000
0000
0000
0000
0000
0000
0000
1001
0000
0000
0000
0000
0000
0000
0000
0000
0000
0000
0000
0000
0000
0000
0000
1001
0000
0000
0000
0000
0000
0000
0000
0000
0000
0000
0000
0000
0000
0000
0000
,  // measure 39
0110
1001
0011
1100
1010
0101
1001
0011
0110
1001
0000
0000
,  // measure 40
1001
0000
0000
0000
0011
0000
0001
0100
0010
0000
0011
0000
1000
0000
1010
0000
,  // measure 41
0100
0000
1010
0000
0001
0000
0110
0000
1000
0010
0100
0000
0001
0010
0100
0000
,  // measure 42
1000
0100
0010
0000
1010
0000
0100
0010
0001
0000
1000
0100
0001
0000
0001
0100
,  // measure 43
1000
0000
1000
0100
0001
0010
0100
1000
0100
0010
0001
0100
0010
0001
1000
0001
,  // measure 44
0010
0100
1000
0001
1000
0100
0010
0001
0100
0010
1000
0001
0100
0010
1000
0001
,  // measure 45
1000
0001
1000
0001
1000
0000
0010
0000
0100
0000
0001
0000
0010
0000
0100
0000
1000
0000
0010
0000
0100
0000
0001
0000
0010
0000
0100
0000
0001
0000
0010
0000
,  // measure 46
0100
0000
0000
0000
0001
0000
0000
0000
0100
0000
0000
0000
1000
0000
0000
0000
0100
0000
0000
0000
0001
0000
0000
0000
1000
0000
0001
0000
1000
0000
0001
0000
1000
0001
1000
0001
1000
0001
1000
0001
1000
0000
0001
0000
1000
0000
0001
0000
1000
0000
0000
0000
0100
0000
0000
0000
0010
0000
0000
0000
0001
0000
0000
0000
,  // measure 47
1000
0000
0000
0000
0100
0000
0000
0000
0010
0000
0000
0000
1000
0000
0000
0000
0100
0000
0000
0000
0010
0000
0000
0000
1000
0000
0000
0000
0001
0000
0000
0000
0010
0000
0000
0000
0100
0000
0000
0000
1000
0000
0000
0000
0001
0000
0000
0000
1000
0001
1000
0001
1000
0001
1000
0001
1000
0001
1000
0001
1000
0001
1000
0001
,  // measure 48
1000
0001
1000
0001
1000
0001
1000
0001
1000
0000
0011
0000
0000
0000
0000
0000
0000
0000
0000
0000
1010
0000
0000
0000
0000
0000
0000
0000
0000
0000
0000
0000
,  // measure 49
0001
0000
0000
0000
0000
0000
0000
0000
0000
0000
0000
0000
0000
0000
0000
0000
0100
0001
1000
0010
0000
0000
0000
0000
0000
0000
0000
0000
0000
0000
0000
0000
0010
0001
1000
0100
0000
0000
0000
0000
0000
0000
0000
0000
0000
0000
0000
0000
0100
0001
0010
1000
0000
0000
0000
0000
0000
0000
0000
0000
0000
0000
0000
0000
,  // measure 50
0010
0001
0100
1000
0000
0000
0000
0000
0000
0000
0000
0000
0000
0000
0000
0000
0210
1000
0000
0000
0000
0000
0000
0000
0000
0000
0000
0000
0000
0000
0000
0000
1300
0010
0001
1000
0000
0000
0000
0000
0000
0000
0000
0000
0000
0000
0000
0000
0210
1000
0000
0000
0000
0000
0000
0000
0000
0000
0000
0000
0000
0000
0000
0000
,  // measure 51
1300
0010
0001
1000
0000
0000
0000
0000
0000
0000
0000
0000
0000
0000
0000
0000
2010
0001
0010
0100
3001
0000
0000
0000
0000
0000
0000
0000
0000
0000
0000
0000
0102
1000
0100
0010
1003
0000
0000
0000
0000
0000
0000
0000
0000
0000
0000
0000
0021
0100
0001
1000
0130
0000
0000
0000
0000
0000
0000
0000
0000
0000
0000
0000
,  // measure 52
0210
0010
1000
0010
1300
0000
0000
0000
0000
0000
0000
0000
0000
0000
0000
0000
1010
0000
0000
0000
0000
0000
0000
0000
0011
0000
0000
0000
0000
0000
0000
0000
1010
0000
0000
0000
0000
0000
0000
0000
0011
0000
0000
0000
0000
0000
0000
0000
1010
0000
0000
0000
0000
0000
0000
0000
0011
0000
0000
0000
0000
0000
0000
0000
,  // measure 53
1010
0000
0000
0000
0000
0000
0000
0000
0011
0000
0000
0000
0000
0000
0000
0000
0001
0010
0100
1000
0000
0000
0000
0000
0000
0000
0000
0000
0000
0000
0000
0000
1000
0010
0100
0001
0000
0000
0000
0000
0000
0000
0000
0000
0000
0000
0000
0000
0001
0010
1000
0100
0000
0000
0000
0000
0000
0000
0000
0000
0000
0000
0000
0000
,  // measure 54
1000
0010
0001
0100
0000
0000
0000
0000
0000
0000
0000
0000
0000
0000
0000
0000
1002
0100
0000
0000
0000
0000
0000
0000
0000
0000
0000
0000
0000
0000
0000
0000
0103
1000
0010
0100
0000
0000
0000
0000
0000
0000
0000
0000
0000
0000
0000
0000
1002
0100
0000
0000
0000
0000
0000
0000
0000
0000
0000
0000
0000
0000
0000
0000
,  // measure 55
0103
1000
0010
0100
0000
0000
0000
0000
0000
0000
0000
0000
0000
0000
0000
0000
1200
0010
1000
0001
0310
0000
0000
0000
0000
0000
0000
0000
0000
0000
0000
0000
0021
0100
0001
1000
0130
0000
0000
0000
0000
0000
0000
0000
0000
0000
0000
0000
2010
0001
0010
0100
3001
0000
0000
0000
0000
0000
0000
0000
0000
0000
0000
0000
,  // measure 56
1002
1000
0100
1000
0103
0000
0000
0000
0000
0000
0000
0000
0000
0000
0000
0000
0001
0010
0100
1000
0000
0000
0000
0000
0000
0000
0000
0000
0000
0000
0000
0000
0001
0010
0100
1000
0000
0000
0000
0000
0000
0000
0000
0000
0000
0000
0000
0000
0001
0010
0100
1000
0000
0000
0000
0000
0000
0000
0000
0000
0000
0000
0000
0000
,  // measure 57
0000
0000
0000
0000
0000
0000
0000
0000
0001
0010
0100
1000
0000
0000
0000
0000
0000
0000
0000
0000
0000
0000
0000
0000
0001
0010
0100
1000
0000
0000
0000
0000
0000
0000
0000
0000
0000
0000
0000
0000
0001
0010
0100
1000
0000
0000
0000
0000
0001
0010
0100
1000
0000
0000
0000
0000
0000
0000
0000
0000
0000
0000
0000
0000
,  // measure 58
0001
0010
0100
1000
0000
0000
0000
0000
0000
0000
0000
0000
0000
0000
0000
0000
0001
0010
0100
1002
0000
0000
0000
0000
0000
0000
0000
0000
0000
0000
0000
0000
0000
0000
0000
0000
0000
0000
0000
0000
0000
0000
0000
0000
0000
0000
0000
0000
0000
0000
0000
0000
0000
0000
0000
0000
0000
0000
0000
0000
0000
0000
0000
0000
,  // measure 59
0000
0000
0000
0000
0000
0000
0000
0000
1003
0100
0010
0001
1000
0100
0010
0001
2000
0000
0000
0000
0000
0000
0000
0000
0000
0000
0000
0000
0000
0000
0000
0000
0000
0000
0000
0000
0000
0000
0000
0000
0000
0000
0000
0000
0000
0000
0000
0000
0000
0000
0000
0000
0000
0000
0000
0000
0000
0000
0000
0000
0000
0000
0000
0000
,  // measure 60
0000
0000
0000
0000
0000
0000
0000
0000
0010
0100
0001
0010
0100
0001
0010
0100
3002
0000
0000
0000
0000
0000
0000
0000
0000
0000
0000
0000
0000
0000
0000
0000
1003
0100
0100
0100
1000
1000
1000
0100
1000
0000
0000
0000
0000
0000
0000
0000
1000
0100
0010
0001
0000
0000
0000
0000
0000
0000
0000
0000
0000
0000
0000
0000
,  // measure 61
0001
0010
0100
1000
0000
0000
0001
0000
0100
0000
0010
0000
0100
0000
1000
0000
0001
0000
0020
0000
0000
0000
0000
0000
0000
0000
0000
0000
0000
0000
0000
0000
0000
0000
0000
0000
0000
0000
0000
0000
0030
0000
0000
0000
0000
0000
0000
0000
0000
0000
0000
0000
0000
0000
0000
0000
0000
0000
0000
0000
0000
0000
0000
0000
;

//---------------dance-single - ----------------
#NOTES:
     dance-single:
     :
     Hard:
     9:
     0.623,0.654,0.281,0.119,0.443:
0000
0000
0000
0000
,
0000
0000
0000
0000
,
0000
0000
0000
0000
,
0000
0000
0000
0000
,
0000
0000
0000
0100
0001
0001
0100
0001
,
0001
0000
0000
1000
0001
0001
1000
0001
,
0001
0000
0000
0010
0001
0001
0010
0001
,
0100
0001
0010
0100
0100
1000
0001
0001
,
0100
0001
0000
0010
1000
1000
0010
1000
,
1000
0000
0000
0001
1000
1000
0001
1000
,
1000
0000
0000
0100
1000
1000
0100
1000
,
0010
1000
0100
0010
0010
0001
1000
1000
,
0010
1000
0000
0100
0010
0010
0100
0010
,
0010
0000
0000
1000
0010
0010
1000
0010
,
0010
0000
0000
0001
0010
0010
0001
0010
,
1000
0010
1000
0001
0001
0010
0100
0100
,
1000
0001
0000
0010
0100
0100
0010
0100
,
0100
0000
0000
0001
0100
0100
0001
0100
,
0100
0000
0000
1000
0100
0100
1000
0100
,
0001
0100
1000
0001
0001
0010
0100
0100
,
1000
0001
2002
0000
0000
0000
0000
0000
,
0000
0000
0000
0000
,
0000
0000
0000
0000
,
3003
0000
0000
0000
0010
0000
0000
0010
1000
0000
0000
1000
0001
0000
0000
0001
,
0100
0000
0000
0100
0010
0000
0000
0010
1000
0000
0000
1000
0001
0000
0000
0001
,
0100
0000
0000
0100
0010
0000
0000
0010
1000
0000
0000
1000
0001
0000
0000
0001
,
0100
0000
0000
0100
0010
0000
0000
0010
1000
0000
0000
1000
0001
0000
0000
0001
,
0100
0000
0000
0100
0010
0000
0000
0010
1000
0000
0000
1000
0100
0000
0000
0100
,
0010
0000
0000
0010
0001
0000
0000
0001
0100
0000
0000
0100
0010
0000
0000
0010
,
1000
0000
0000
1000
0010
0000
0000
0010
1000
0000
0000
1000
0100
0000
0000
0100
,
0010
0000
0000
0010
0001
0000
0000
0001
0100
0000
0000
0100
0010
0000
0000
0010
,
1000
0000
0000
0000
0000
0000
1000
0000
0010
0000
0000
0000
0000
0000
0000
0010
0100
0000
0000
0000
0000
0000
0100
0000
0001
0000
0000
0000
0000
0000
0000
0001
,
1000
0000
0000
0000
0000
0000
1000
0000
0010
0000
0000
0000
0000
0000
0000
0010
0100
0000
0000
0000
0000
0000
0100
0000
0001
0000
0000
0000
0000
0000
0000
0001
,
1000
0000
0000
0000
0000
0000
1000
0000
0010
0000
0000
0000
0000
0000
0000
0010
0100
0000
0000
0000
0000
0000
0100
0000
0001
0000
0000
0000
0000
0000
0000
0001
,
1000
0000
0000
0000
0000
0000
1000
0000
0010
0000
0000
0000
0000
0000
0000
0010
0100
0000
0000
0000
0000
0000
0100
0000
0001
0000
0000
0000
0000
0000
0000
0001
,
1000
0000
0000
0000
0000
0000
1000
0000
0001
0000
0000
1000
0000
0000
0001
0000
1000
0000
0000
0000
0000
0000
0000
0000
1001
0000
0000
0000
0000
0000
0000
0000
,
0001
0000
0000
0000
0000
0000
1000
0000
0010
0000
0000
0100
0000
0000
0010
0000
0100
0000
0000
0000
0000
0000
0000
0000
0110
0000
0000
0000
0000
0000
0000
0000
,
0010
0000
0000
0000
0000
0000
0100
0000
0001
0000
0000
1000
0000
0000
0001
0000
1000
0000
0000
0000
0000
0000
0000
0000
0010
0000
0000
0100
0000
0000
0010
0000
,
0100
0000
0000
0000
0000
0000
0000
0000
0001
0000
0000
1000
0000
0000
0001
0000
1000
0000
0000
0000
0000
0000
0000
0000
2002
0000
0000
0000
0000
0000
0000
0000
,
3003
0000
1100
0000
0001
0010
0000
0001
,
0100
0001
1010
0000
0101
0000
1000
0100
,
1000
0100
0011
0000
1010
0000
0100
0001
,
0010
0000
0100
0000
1000
0000
0001
0000
0110
0000
0000
0000
1001
0000
1000
0001
,
1000
1001
0010
1000
0100
0001
0100
1000
,
0010
0001
0010
1000
0100
0001
0100
1000
,
0010
0001
0010
1000
0100
0010
0100
1000
,
0010
0001
0010
1000
0100
0010
0100
1000
,
0010
0001
0010
1000
0001
0100
0010
1000
,
0001
0000
0000
0001
1000
0000
0000
1000
0001
0000
0000
0001
0100
0000
0000
0100
,
0010
1010
0101
1100
,
0011
0000
0000
0001
1000
0000
0000
1000
0001
0000
0000
0001
0010
0000
0000
0010
,
0100
0000
0000
0100
1000
0000
0010
0000
0100
0000
0001
0000
0010
0000
0100
0000
,
1000
0000
0001
0000
1000
0000
0000
1000
0001
0000
0000
0001
0100
0000
0000
0100
,
0010
0000
0000
0010
1000
0000
0000
0000
0101
0000
0000
0000
0010
0000
0000
0000
,
1100
0000
0000
0100
1000
0000
0000
1000
0010
0000
0000
0010
0100
0000
0000
0100
,
0001
0000
0000
0001
0010
0000
0000
0000
1100
0000
0000
0000
0101
0000
0000
0000
,
0000
1001
0000
0011
0000
1010
1001
0000
,
0110
2002
0000
0000
,
3003
0000
0000
0000
0000
1000
0000
0000
2000
0000
0000
0000
0000
0000
0000
0000
0000
0000
0000
0000
0000
0000
0000
0000
0000
0000
0000
0000
0000
0000
0000
0000
,
3000
0000
0000
0000
0000
0001
0000
0000
0002
0000
0000
0000
0000
0000
0000
0000
0023
0000
0000
0000
0000
0000
0000
0000
0230
0000
0000
0000
0000
0000
0000
0000
,
1300
0000
0010
0100
0002
0000
0000
0000
0003
0000
0000
0000
0000
0000
0000
0000
;

//---------------dance-double - ----------------
#NOTES:
     dance-double:
     :
     Easy:
     4:
     0.289,0.327,0.249,0.065,0.000:
00000000
00000000
00000000
00000000
,
00000000
00000000
00000000
00000000
,
00000000
00000000
00000000
00000000
,
00000000
00000000
00000000
00000000
,
00000000
00000000
00000000
00000010
00000000
00000100
00000000
00000000
,
00000101
00000000
00000000
00001000
00000000
00010000
00000000
00000000
,
00101000
00000000
00000000
00010000
00000000
00100000
00000000
00000000
,
10100000
01000000
00010000
00001000
,
00001000
00000000
00000000
00000010
00000000
00000001
00000000
00000000
,
00000101
00000000
00000000
00001000
00000000
00010000
00000000
00000000
,
10100000
00000000
00000000
10000000
00000000
01000000
00000000
00000000
,
11000000
01000000
00010000
00001000
,
00010000
00000000
00000000
00100000
00000000
10000000
00000000
00000000
,
10010000
00000000
00000000
01000000
00000000
00010000
00000000
00000000
,
00011000
00000000
00000000
00000010
00000000
00000001
00000000
00000000
,
00000101
00000100
00001000
00010000
,
00001000
00000000
00000000
00100000
00000000
01000000
00000000
00000000
,
11000000
00000000
00000000
01000000
00000000
00010000
00000000
00000000
,
00011000
00000000
00000000
00001000
00000000
00000010
00000000
00000000
,
00000011
00000001
00000100
00001000
,
00010000
00022000
00000000
00000000
,
00000000
00000000
00000000
00000000
,
00000000
00000000
00000000
00000000
,
00033000
00100000
00000000
10000000
,
00000000
01000000
00000000
00010000
,
00000000
00001000
00000000
00000010
,
00000000
00000001
00000000
00000100
,
00000000
00001000
00000000
00010000
,
00000000
01000000
00000000
10000000
,
00000000
00100000
00000000
00010000
,
00000000
00001000
00000000
00000100
,
00000000
00000001
00000010
00001000
,
00000000
00001000
00010000
01000000
,
00000000
01000000
10000000
00100000
,
00000000
00100000
00010000
00001000
,
00010000
01000000
00100000
00011000
,
00000000
00000100
00000010
00011000
,
00000000
00000010
00000001
00000100
,
00001000
00010000
00100000
10100000
,
00000000
00000000
00100000
00000000
00000000
10000000
00000000
00000000
,
01000000
01100000
00000000
00101000
,
00000000
00010000
00000000
00001000
,
00000000
00000010
00000001
00000000
,
00000011
00000010
00000001
00000100
,
00000000
00000100
00001000
00010000
,
00000000
00010000
00100000
10000000
,
00000000
10000000
01000000
00010000
,
00000000
00000000
00011000
00000000
00000000
00001100
00000000
00000000
,
00000110
00000010
00000001
00000100
,
00000001
00000100
00001000
00010000
,
00000000
00100000
10000000
01000000
,
10000000
01000000
00010000
00001000
,
00010000
00001000
00000010
00000001
,
00000000
00000010
00000001
00000100
,
00000000
00000001
00000100
00001000
,
00010000
00100000
00100000
00100000
,
00000000
10000000
00000000
00000000
00000000
00000000
10000000
00000000
,
01000000
00022000
00000000
00033000
,
00000000
00000020
00000000
00000030
,
00000000
00000001
00000100
00001000
,
00010000
00200000
00300000
00000000
;

//---------------dance-double - ----------------
#NOTES:
     dance-double:
     :
     Medium:
     7:
     0.426,0.523,0.357,0.076,0.103:
00000000
00000000
00000000
00000000
,
00000000
00000000
00000000
00000000
,
00000000
00000000
00000000
00000000
,
00000000
00000000
00000000
00000000
,
00000000
00000000
00000000
00100000
10000000
10000000
01000000
00000000
,
00110000
00000000
00000000
01000000
00001000
00001000
00010000
00000000
,
00001100
00000000
00000000
00000010
00000001
00000001
00000100
00000000
,
00001000
00000100
00011000
00100000
,
00011000
00000000
00000000
00010000
01000000
01000000
00010000
00000000
,
00011000
00000000
00000000
00001000
00000100
00000100
00001000
00000000
,
00011000
00000000
00000000
00100000
10000000
10000000
01000000
00000000
,
00110000
00010000
00001010
00001000
,
01010000
00000000
00100000
00000000
00010000
00010000
01000000
00000000
,
01100000
00000000
00000000
00001000
00010000
00010000
00001000
00000000
,
00011000
00000000
00000000
00000010
00001000
00001000
00000010
00000000
,
00000110
00001010
00011000
01010000
,
00011000
00000000
00000000
00100000
10000000
10000000
01000000
00000000
,
00110000
00000000
00000000
00010000
00001000
00001000
00000100
00000000
,
00000011
00000000
00000000
00000100
00001000
00001000
00010000
00000000
,
00011000
00001010
00011000
01010000
,
00011000
00022000
00000000
00000000
,
00000000
00000000
00000000
00000000
,
00000000
00000000
00000000
00000000
,
00033000
00000000
00000000
00000000
00100000
00000000
00000000
00100000
10000000
00000000
00000000
00000000
01000000
00000000
00000000
00000000
,
01000000
00000000
00000000
00000000
00010000
00000000
00000000
00010000
00001000
00000000
00000000
00000000
00000100
00000000
00000000
00000000
,
00000100
00000000
00000000
00000000
00000001
00000000
00000000
00000001
00000010
00000000
00000000
00000000
00001000
00000000
00000000
00000000
,
00001000
00000000
00000000
00000000
00010000
00000000
00000000
00010000
01000000
00000000
00000000
00000000
10000000
00000000
00000000
00000000
,
10000000
00000000
00000000
00000000
00100000
00000000
00000000
00100000
00010000
00000000
00000000
00000000
00001000
00000000
00000000
00000000
,
00001000
00000000
00000000
00000000
00000010
00000000
00000000
00000010
00000001
00000000
00000000
00000000
00000100
00000000
00000000
00000000
,
00000100
00000000
00000000
00000000
00001000
00000000
00000000
00001000
00010000
00000000
00000000
00000000
00100000
00000000
00000000
00000000
,
00100000
00000000
00000000
00000000
10000000
00000000
00000000
10000000
01000000
00000000
00000000
00000000
00010000
00000000
00000000
00000000
,
00010000
00000000
00000000
00000000
00001000
00000000
00000000
00000010
00000001
00000000
00000000
00000000
00000001
00000000
00000000
00000100
,
00001000
00000000
00000000
00000000
00001000
00000000
00000000
00010000
00100000
00000000
00000000
00000000
00100000
00000000
00000000
10000000
,
01000000
00000000
00000000
00000000
01000000
00000000
00000000
00010000
00001000
00000000
00000000
00000000
00001000
00000000
00000000
00000100
,
00000001
00000000
00000000
00000000
00000001
00000000
00000000
00000100
00001000
00000000
00000000
00000000
00001000
00000000
00000000
00010000
,
00100000
10000000
00100000
10100000
,
00000000
01000000
00010000
01010000
,
00000000
00100000
00010000
00001000
,
00000100
00000010
00001000
00001100
,
00000000
00000000
00100000
00000000
00000000
00010000
00000000
00000000
,
01000000
00100000
10000000
01000000
,
00000000
00001000
00000000
00000010
,
00000001
00000000
00000100
00000000
00001000
00000000
00000000
00010000
,
00000000
00001000
00010000
00000000
00100000
00000000
10000000
00000000
,
01000000
00100000
00010000
01000000
,
00100000
10000000
01000000
00100000
,
00010000
00001000
00000010
00000001
,
00000100
00000000
00000010
00000000
00000000
00001000
00000000
00000000
,
00000100
00000010
00000001
00000100
,
00001000
00010000
01000000
10000000
,
00100000
01000000
00010000
10000000
,
01000000
00000000
00010000
00001000
00000010
00000001
00000100
00001000
,
00010000
00100000
00010000
00000000
00001000
00000000
00000010
00000000
,
00001000
00010000
01000000
00010000
,
00001000
00010000
00100000
10000000
,
01000000
00110000
00011000
00001100
,
00000000
00011000
00000000
00000010
00000000
00000001
00000100
00000000
,
00001100
00022000
00000000
00033000
,
00000000
00000000
00000000
00000000
00000000
00100000
00000000
00000000
01000000
00000000
00000000
00000000
00000000
00000000
00000000
00000000
00000000
00000000
00000000
00000000
00000000
00000000
00000000
00000000
00000000
00000000
00000000
00000000
00000000
00000000
00000000
00000000
,
00000000
00000000
00000000
00000000
00000000
00010000
00000000
00000000
00000200
00000000
00000000
00000000
00000000
00000000
00000000
00000000
00002300
00000000
00000000
00000000
00000000
00000000
00000000
00000000
00013000
00000000
00000000
00000000
00000000
00000000
00000000
00000000
,
00000000
00000000
00100000
10000000
02000000
00000000
00000000
00000000
03000000
00000000
00000000
00000000
00000000
00000000
00000000
00000000
;

//---------------dance-double - ----------------
#NOTES:
     dance-double:
     :
     Hard:
     9:
     0.592,0.556,0.195,0.054,0.416:
00000000
00000000
00000000
00000000
,
00000000
00000000
00000000
00000000
,
00000000
00000000
00000000
00000000
,
00000000
00000000
00000000
00000000
,
00000000
00000000
00000000
00010000
00001000
00001000
00010000
00000010
,
00000010
00000000
00000000
00001000
00000001
00000001
00001000
00000001
,
00000100
00000100
00000000
00000010
00000001
00000100
00001000
00010000
,
00100000
01000000
00010000
10000000
10000000
00100000
01000000
01000000
,
00001000
00010000
00000000
00001000
00010000
00010000
00001000
00100000
,
00100000
00000000
00000000
00010000
10000000
10000000
00010000
01000000
,
01000000
00000000
00000000
00100000
10000000
10000000
10000000
01000000
,
00010000
00001000
00000010
00000001
00000100
00000010
00001000
00000100
,
00000010
00000001
00000000
00000100
00000010
00000010
00000100
00000001
,
00000001
00000000
00000000
00000001
00000100
00000100
00000010
00010000
,
00010000
00000000
00000000
00001000
00010000
00010000
00001000
00010000
,
00100000
10000000
01000000
00100000
00010000
01000000
00100000
10000000
,
01000000
00010000
00000000
00001000
00000010
00000010
00000100
00000001
,
00000001
00000000
00000000
00000010
00000001
00000001
00000100
00001000
,
00001000
00000000
00000000
00000010
00000100
00000100
00000001
00000100
,
00001000
00010000
00100000
10000000
01000000
00100000
00010000
01000000
,
00001000
00010000
00022000
00000000
00000000
00000000
00000000
00000000
,
00000000
00000000
00000000
00000000
,
00000000
00000000
00000000
00000000
,
00033000
00000000
00000000
00000000
00000010
00000000
00000000
00000010
00000001
00000000
00000000
00000001
00000100
00000000
00000000
00000100
,
00001000
00000000
00000000
00001000
00010000
00000000
00000000
00010000
00100000
00000000
00000000
00100000
10000000
00000000
00000000
10000000
,
01000000
00000000
00000000
01000000
00010000
00000000
00000000
00010000
00001000
00000000
00000000
00001000
00000100
00000000
00000000
00000100
,
00000001
00000000
00000000
00000001
00000010
00000000
00000000
00000010
00001000
00000000
00000000
00001000
00010000
00000000
00000000
00010000
,
00001000
00000000
00000000
00001000
00010000
00000000
00000000
00010000
01000000
00000000
00000000
01000000
00010000
00000000
00000000
00010000
,
00001000
00000000
00000000
00001000
00000100
00000000
00000000
00000100
00001000
00000000
00000000
00001000
00010000
00000000
00000000
00010000
,
00100000
00000000
00000000
00100000
00010000
00000000
00000000
00010000
00001000
00000000
00000000
00001000
00000010
00000000
00000000
00000010
,
00001000
00000000
00000000
00001000
00010000
00000000
00000000
00010000
00100000
00000000
00000000
00100000
10000000
00000000
00000000
10000000
,
01000000
00000000
00000000
01000000
00010000
00000000
00000000
00010000
00001000
00000000
00000000
00001000
00000100
00000000
00000000
00000100
,
00000001
00000000
00000000
00000001
00000010
00000000
00000000
00000010
00000100
00000000
00000000
00000100
00001000
00000000
00000000
00001000
,
00000100
00000000
00000000
00000100
00001000
00000000
00000000
00000000
00000000
00000000
00000000
00010000
00001000
00000000
00000000
00000000
,
00000000
00000000
00000000
00001000
01000000
00000000
00000000
01000000
00100000
00000000
00000000
00100000
10000000
00000000
00000000
10000000
,
00010000
00000000
00000000
00000000
00100000
00000000
00000000
00010000
01000000
00000000
00000000
00100000
10000000
00000000
00000000
00000000
,
11000000
00000000
00000000
00000000
00010000
00000000
00000000
00001000
00000010
00000000
00000000
00000001
00000100
00000000
00000000
00000000
,
00000110
00000000
00000000
00000000
00000010
00000000
00000000
00001000
00000100
00000000
00000000
00000010
00000001
00000000
00000000
00000100
,
00001000
00000000
00000000
00010000
00100000
00000000
00000000
10000000
01000000
00000000
00000000
00010000
00001000
00000000
00000000
00000000
,
00000000
00000000
00000010
00000000
00000001
00000100
00000010
00001000
,
00000100
00000000
00000110
00000000
00001100
00000000
00000010
00000001
,
00000100
00001000
00010000
00000000
00100000
00000000
00100000
10000000
,
01000000
00100000
00010000
10000000
00100000
00000000
10000000
01000000
,
00010000
00001000
00000010
00001000
00000010
00001000
00010000
01000000
,
10000000
01000000
00100000
10000000
00100000
00010000
00001000
00000100
,
00000001
00000100
00000010
00000001
00000010
00001000
00010000
01000000
,
10000000
01000000
00100000
10000000
00100000
00010000
00001000
00000100
,
00000001
00000100
00000010
00000001
00000100
00001000
00010000
00100000
,
10000000
00000000
00000000
00010000
10000000
00000000
00000000
01000000
00100000
00000000
00000000
00010000
01000000
00000000
00000000
00100000
,
10000000
00000000
00000000
01000000
00100000
00000000
00000000
00000000
11000000
00000000
00000000
00000000
00110000
00000000
00000000
00000000
,
00001000
00000000
00000000
00000010
00000100
00000000
00000000
00001000
00000001
00000000
00000000
00000010
00001000
00000000
00000000
00000100
,
00000001
00000000
00000000
00001000
00000010
00000000
00000001
00000000
00000100
00000000
00001000
00000000
00010000
00000000
01000000
00000000
,
10000000
00000000
00100000
00000000
01000000
00000000
00000000
00010000
01000000
00000000
00000000
00001000
00010000
00000000
00000000
00000010
,
00001000
00000000
00000000
00000010
00000100
00000000
00000000
00000000
00011000
00000000
00000000
00000000
01100000
00000000
00000000
00000000
,
00010000
00000000
00000000
00001000
00000010
00000000
00000000
00000001
00000100
00000000
00000000
00001000
00010000
00000000
00000000
00100000
,
10000000
00000000
00000000
01000000
00100000
00000000
00000000
00000000
00011000
00000000
00000000
00000000
00000110
00000000
00000000
00000000
,
00000000
00011000
00000000
01100000
00000000
00010000
00001000
00000000
,
00000110
00022000
00000000
00033000
,
00000000
00000000
00000000
00000000
00000000
10000000
00000000
00000000
01000000
00000000
00000000
00000000
00000000
00000000
00000000
00000000
00000000
00000000
00000000
00000000
00000000
00000000
00000000
00000000
00000000
00000000
00000000
00000000
00000000
00000000
00000000
00000000
,
00000000
00000000
00000000
00000000
00000000
00000001
00000000
00000000
00000100
00000000
00000000
00000000
00000000
00000000
00000000
00000000
00000110
00000000
00000000
00000000
00000000
00000000
00000000
00000000
00011000
00000000
00000000
00000000
00000000
00000000
00000000
00000000
,
01100000
00000000
00001000
00010000
00002000
00000000
00000000
00000000
00003000
00000000
00000000
00000000
00000000
00000000
00000000
00000000
;

//---------------dance-single - ----------------
#NOTES:
     dance-single:
     :
     Beginner:
     1:
     0.171,0.228,0.205,0.000,0.000:
0000
0000
0000
0000
,
0000
0000
0000
0000
,
0000
0000
0000
0000
,
0000
0000
0000
0000
,
0000
0000
0010
0000
,
0010
0000
0100
0000
,
0100
0000
0010
0000
,
0000
0100
0000
0100
,
0000
0000
0001
0000
,
0001
0000
1000
0000
,
1000
0000
0001
0000
,
0000
1000
0000
1000
,
0000
0000
0010
0000
,
0100
0000
0010
0000
,
0100
0000
0010
0000
,
0100
0000
0000
0100
,
0000
0000
0010
0000
,
1000
0000
0001
0000
,
0100
0000
0010
0000
,
1000
0000
0100
0000
,
0010
0000
0000
0000
,
0000
0000
0000
0000
,
0000
0000
0000
0000
,
0000
1000
0000
1000
,
0000
0001
0000
0001
,
0000
1000
0000
1000
,
0000
0001
0000
0001
,
0000
0010
0000
0010
,
0000
0100
0000
0100
,
0000
0010
0000
0010
,
0000
0100
0000
0100
,
0000
1000
0000
0001
,
0000
0010
0000
0100
,
0000
1000
0000
0010
,
0000
0100
0000
0001
,
0000
0010
0000
1001
,
0000
0100
0000
1001
,
0000
0010
0000
1001
,
0000
0100
0000
1001
,
0000
0010
0000
0000
,
0000
1000
0000
0000
,
0000
0001
0000
0000
,
0000
0100
0000
0000
,
0000
0010
0000
0000
,
0000
0001
0000
0000
,
0000
0010
0000
0000
,
0000
1000
0000
0000
,
0000
1001
0000
0000
,
0000
0110
0000
1001
,
0000
0010
0000
1001
,
0000
1001
0000
0110
,
0000
1000
0000
0110
,
0000
0110
0000
1001
,
0000
0010
0000
1001
,
0000
0110
0000
1001
,
0000
0010
0000
1001
,
0000
0010
0000
0110
,
0000
1001
0000
0000
,
0000
0010
0000
0000
,
0000
0100
0000
0000
,
0000
0010
0000
0000
;
