#TITLE:TRIP MACHINE EmpyreaN;
#SUBTITLE:;
#ARTIST:DE-SIRE vs. -Viper-;
#TITLETRANSLIT:;
#SUBTITLETRANSLIT:;
#ARTISTTRANSLIT:;
#CREDIT:;
#BANNER:trip.bn.png;
#BACKGROUND:tripmachineemp.bg.png;
#LYRICSPATH:;
#CDTITLE:;
#MUSIC:tripmachineX2.mp3;
#OFFSET:0.000;
#SAMPLESTART:14.520;
#SAMPLELENGTH:12.000;
#SELECTABLE:YES;
#BPMS:0.000=165.000,32.000=41.250,34.000=165.000,206.000=82.500,210.000=165.000,221.000=82.500,225.500=165.000,241.500=82.500,245.500=165.000;
#STOPS:;
#BGCHANGES:;

//---------------dance-single - ----------------
#NOTES:
     dance-single:
     :
     Hard:
     9:
     0.594,0.601,0.414,0.160,0.009:
0000
0000
0000
0000
,
0000
0000
0000
0000
,
0000
0000
0000
0000
,
0001
0000
0000
0000
,
0010
0000
0001
1000
0100
0000
1000
0000
,
0010
0000
1000
0001
0100
0000
0010
0000
,
1000
0001
0100
0000
0110
0000
1001
0000
,
0001
0100
1000
0000
1001
0000
0110
0000
,
2000
0000
0002
3003
0001
0000
0001
0100
,
0010
0000
1000
0100
0001
0000
0100
1000
,
0010
0001
0010
1000
0001
0000
0001
0010
,
0100
1000
0001
0010
1000
0000
0010
0001
,
1000
0000
0010
0100
0001
0000
0101
0000
,
0011
0000
0001
0010
0100
0000
1000
0010
,
0100
0001
0010
1000
0001
0100
0010
0000
,
1001
0000
0010
0001
0101
0000
0001
1000
,
1100
0000
1010
0000
1001
0000
1000
0100
,
0010
0000
0001
0010
1000
0100
0010
0001
,
0100
0000
0101
0000
0110
0000
1000
0010
,
0001
0010
1000
0100
0010
0000
0011
0000
,
1001
0000
0010
0100
1001
0000
0010
1000
,
0010
0000
0100
0001
0200
0000
0000
0000
,
0320
0000
0000
0000
2030
0000
0001
0001
,
3001
0000
0010
0000
1002
0000
0100
0100
,
0103
0000
0010
1000
1020
0000
0001
0001
,
0031
0000
0001
0010
0201
0000
0010
0000
,
0310
0000
0100
0000
0001
0010
0100
1000
,
0010
0100
0010
1000
0100
0010
0011
0000
,
1001
0000
1010
0000
1000
0100
0010
0001
,
0100
0010
0100
0001
0010
0100
1100
0000
,
0110
0000
1001
0000
2010
0000
3010
0100
,
0001
0000
0011
0000
1002
0000
0103
1000
,
0010
0000
0100
0010
1000
0000
0001
0010
,
0100
0000
0101
0100
0010
0000
0001
1000
,
0010
0000
0100
0000
0010
1000
0010
1000
,
0001
0100
0001
0000
1000
0100
1000
0100
,
0010
0001
0010
0000
0011
0000
0110
0000
,
1001
0000
0010
1000
0100
0010
0100
0010
,
0001
0010
0100
0000
1000
0010
0100
0000
,
0001
0100
0010
0000
1010
0000
0001
0100
,
0101
0000
0110
0000
1001
0000
0001
1000
,
0001
0000
0010
0000
0100
0000
0010
0100
,
0010
0000
0100
0000
1000
0000
0001
1000
,
0001
0000
0010
0100
0010
0000
0010
1000
,
0010
0001
0010
0000
1002
0000
0010
0010
,
0013
0000
0010
0001
0100
0000
2010
0000
,
0001
0001
3001
0000
0001
1000
0001
1000
,
0010
0100
0010
0100
0001
0010
0100
1000
,
0002
0000
1003
0000
0110
0000
1000
0010
,
0001
0000
0010
1000
0001
0010
1000
0001
,
0100
1000
0001
0000
1000
0010
0100
0001
,
1000
0100
0001
1000
0010
0000
0000
0000
,
0000
0000
0000
0000
0011
0000
1000
0001
,
0100
0000
0001
0010
0100
1000
0010
0000
,
1010
0000
0001
0100
1000
0100
0010
0001
,
0010
1000
0002
0000
2003
0000
3200
0000
,
0301
0000
0010
0000
0100
0000
1000
0000
0000
1001
0000
0000
1000
0000
0000
0100
0000
0000
0010
0000
0000
0100
0000
0000
,
0010
0100
1000
0010
0100
0001
0100
0010
,
0100
0010
0001
0010
0100
0010
0001
1000
,
0100
0010
1000
0001
0010
0100
1000
0100
,
0001
0100
1000
0001
0000
0011
0000
1000
,
0000
1010
0000
0001
0100
0001
0100
1000
,
0100
1000
0100
0010
0100
0001
0100
1000
,
0100
0010
1000
0010
0100
0010
0001
0010
,
1000
0100
0001
1000
0010
0001
0100
0010
,
1000
0001
0100
1000
0100
0001
0100
0010
,
1000
0010
0001
0200
0000
0000
0000
0000
,
0000
0300
0000
0000
;

//---------------dance-single - ----------------
#NOTES:
     dance-single:
     :
     Challenge:
     10:
     0.727,0.760,0.311,0.188,0.381:
0000
0000
0000
0000
,
0000
0000
0000
0000
,
0000
0000
0000
0000
,
0010
0000
0000
0000
,
0001
0010
1000
0010
0001
0000
1001
0000
,
0001
0100
1000
0100
0001
0000
1000
0100
,
0001
0100
1000
0010
0001
0010
1000
0000
,
1001
0000
0001
1000
0100
0000
1000
0001
,
0100
0000
0000
0000
0000
0000
0010
0000
0000
1000
0000
0000
0001
0000
0100
0000
0010
0000
1000
0000
0110
0000
0000
0000
1000
0000
0000
0000
0000
0000
0100
0000
0000
0000
0000
0000
0010
0000
0000
0000
0000
0000
0001
0000
0000
0010
0000
0000
,
0001
0000
0100
0000
0010
0000
0000
0000
0001
0000
0100
0000
0010
0000
1000
0010
,
1000
0000
1000
0000
0100
0000
0010
0000
0001
0010
0001
0010
0001
0000
0100
0000
,
1000
0000
0100
0000
0001
0010
0100
1000
0001
0000
0011
0000
1001
0000
0000
0000
,
1000
0000
0010
0100
0001
0010
0100
1000
0001
0000
0100
0000
0010
0000
0100
0001
,
0010
0000
0000
0000
1000
0100
1000
0000
0010
0000
0001
0100
0001
0000
0001
0010
,
0100
0000
1000
0010
0100
0000
0010
0100
0001
0000
0100
0000
0101
0000
0001
0000
,
0010
0100
1001
0000
1100
1000
0010
1000
,
0100
0000
0010
0000
0110
0000
0000
0000
0001
0000
1000
0000
0001
0000
0100
0010
,
0100
0010
1000
0010
0001
0010
1000
0100
,
0001
0000
0000
0000
0100
0010
0100
0000
0010
0000
0001
0000
0100
0000
0010
0000
,
1000
0000
0001
0100
0010
0000
0000
0000
1000
0000
0100
0000
0010
0000
0010
0000
,
0001
0100
0010
0010
1000
0010
0010
0100
,
0001
0001
0010
0100
2001
0000
0000
0000
,
3002
0000
0000
0000
0203
0000
0310
1000
,
0200
0000
0000
0000
0320
0000
0031
1000
,
0020
0000
0230
0000
0302
0000
0013
0100
,
2000
0000
0000
0000
3020
0000
0000
0000
0230
0000
0000
0000
0301
0000
0010
0001
,
0200
0000
0000
0000
0320
0000
0000
0000
1030
0100
0010
0001
0100
0010
1000
0001
,
0100
0000
0000
0000
0010
0000
0000
0000
0100
0001
0010
0100
1000
0010
0100
0001
,
0010
0000
0000
0000
0100
0000
0000
0000
1000
0001
1000
0001
0010
0100
0010
0100
,
0010
0000
0000
0000
1001
0000
0000
0000
1000
0010
1000
0100
1000
0001
0100
0010
,
0100
0000
0000
0000
0110
0000
0000
0000
0001
0000
0000
0000
0010
0000
0001
0100
,
0001
0000
0000
0000
0001
0000
0000
0000
0010
0000
0000
0000
0100
0000
1000
0100
,
1000
0000
0001
0000
1000
0010
1000
0010
,
1000
0000
0011
0000
0001
0100
0001
0100
,
0001
0000
0000
0000
0110
0000
0000
0000
0001
0000
0010
0000
0100
0000
1000
0100
,
1000
0000
0010
0000
0100
0000
0000
0000
1000
0000
0010
0000
0100
0000
0001
0100
,
0001
0000
0001
0000
0010
0000
0100
0000
1000
0100
1000
0100
1000
0000
0010
0000
,
0001
0000
0010
0000
1000
0100
0010
0001
1000
0000
1100
0000
1001
0000
0000
0000
,
0001
0000
0100
0010
1000
0100
0010
0001
1000
0000
0010
0000
0100
0000
0010
1000
,
0100
0000
0000
0000
0001
0010
0001
0000
0100
0000
1000
0010
1000
0000
1000
0100
,
0010
0000
0001
0100
0010
0000
1000
0000
2001
0000
0000
0000
3010
0000
0100
0000
,
0010
0000
0012
0000
1003
0100
1000
0100
,
0010
0001
0010
0001
1020
0000
0130
0010
,
0100
0000
1200
0000
0310
0001
0010
1000
,
0010
0100
0001
0100
1000
0100
0010
1000
,
1010
0000
1100
0000
0010
0001
0100
0001
,
0101
0000
0000
0000
0011
0000
0000
0000
0001
0000
0010
0000
0001
0000
0001
0100
,
0001
0000
0000
0000
0101
0000
0000
0000
1000
0000
0010
0000
0100
0000
0010
1000
,
0010
0000
0000
0000
1010
0000
0000
0000
0100
0000
0010
0000
1000
0010
1000
0000
,
0100
0000
0001
0010
0001
0000
0000
0000
1100
0000
0000
0000
0001
0010
0001
0000
,
1000
0100
1000
0000
0010
0000
0000
0000
0100
0001
0010
0000
0010
0100
1000
0000
,
1001
0000
0110
0000
1001
1000
0100
0001
,
1000
0010
0001
1000
0001
0010
0100
1000
,
0010
0100
0010
1000
0100
0010
0001
1000
,
0010
0000
0100
0000
0001
0000
0000
0000
0001
0100
0001
0100
0001
0000
0010
0000
,
1000
0100
1000
0100
1000
0000
0000
0000
0000
0000
0000
0000
0010
0000
0000
0000
,
1000
0000
0100
0000
0010
0000
0001
0000
0000
0001
0000
0000
0000
0000
0000
1100
0000
0000
0000
0000
0000
0001
0000
0000
,
0010
0000
0100
0000
0000
0000
1000
0000
0100
0000
0010
0000
0001
0010
0001
0000
,
0010
0100
0000
0010
0000
0101
0000
0001
,
0100
0000
0010
0000
0000
0000
1000
0100
1000
0010
0100
0000
0001
0000
0010
0000
,
0000
0000
1000
0100
0010
0000
2002
0000
0000
0000
0000
0000
0000
0000
0000
0000
,
3003
0000
0000
1000
0100
0001
0100
1000
,
0010
0001
0010
1000
0001
0100
1000
0001
,
0010
1000
0100
0001
0100
1000
0010
0001
,
0010
0000
1000
0000
0100
0000
0010
0000
0001
1000
0010
1000
0001
0100
0001
0010
,
0100
0000
1000
0000
0010
0000
0000
0000
0100
0001
0010
0100
0010
0001
0100
0010
,
1000
0001
0100
0020
0000
0000
0000
0000
,
0000
0030
0000
0000
;

//---------------dance-single - ----------------
#NOTES:
     dance-single:
     :
     Easy:
     3:
     0.199,0.250,0.066,0.009,0.000:
0000
0000
0000
0000
,
0000
0000
0000
0000
,
0000
0000
0000
0000
,
0000
0000
0000
0000
,
0010
0000
0000
0000
,
1000
0000
0000
0000
,
0001
0000
0000
0000
,
1000
0000
0000
0000
,
0010
0000
0100
0000
,
0100
0000
0010
0000
,
0010
0000
1000
1000
,
1000
0000
0001
0000
,
0001
0000
0010
0010
,
0010
0000
0100
0000
,
0100
0000
0010
0100
,
0010
0000
0100
0010
,
0100
0000
1000
0000
,
1000
0000
0001
0000
,
0001
0000
1000
0001
,
1000
0000
0002
0000
,
1000
0000
1000
0000
,
1000
1003
0000
0000
,
0000
0000
1000
0000
,
1001
0000
0001
0000
,
1001
0000
0010
0000
,
0110
0000
0100
0000
,
0110
0000
1000
1000
,
1000
0000
0001
0001
,
0001
0000
0010
0010
,
0010
0000
0100
0100
,
0100
0000
1000
0000
,
0001
0000
1000
0000
,
0001
0000
1000
0000
,
0001
0000
1000
0000
,
0001
0000
0010
0010
,
0010
0000
0100
0100
,
0100
0000
0010
0000
,
0010
0000
0010
0000
,
1000
1000
1000
0000
,
0001
0000
0010
0010
,
0010
0000
1000
0000
,
1000
0000
0001
0000
,
0001
0000
1001
0000
,
1001
0000
0010
0000
,
0100
0000
0001
0001
,
0001
0000
1000
1000
,
1000
0000
0001
0001
,
0001
0000
1000
1000
,
1000
0000
0001
0000
,
0010
0000
0100
0000
,
0010
0000
1000
1000
,
1000
0000
0001
0000
,
0000
0000
0010
0000
,
0010
0000
0100
0000
,
0100
0000
0010
0010
,
0010
0100
0000
0000
,
0000
0000
0000
1000
0000
0000
0000
1000
,
0000
0000
0000
0001
0000
0000
0000
0001
,
0000
0000
0000
1000
0000
0001
0000
1000
,
0000
0000
0000
0010
0000
0000
0000
0100
,
0000
0000
0000
1001
0000
0000
0000
0000
,
0000
0000
0000
1000
0000
0000
0000
0001
,
0000
0000
0000
1000
0000
0001
0000
1000
,
0000
0001
0000
1000
0000
0000
0000
1000
,
0000
0000
0000
0001
0000
0000
0000
1000
,
0000
0000
0000
0001
0000
0000
0000
0010
,
0000
0000
0000
1000
0000
0000
0000
0000
;

//---------------dance-single - Copied from----------------
#NOTES:
     dance-single:
     Copied from:
     Medium:
     7:
     0.442,0.473,0.141,0.132,0.000: // measure 1
0000
0000
0000
0000
,  // measure 2
0000
0000
0000
0000
,  // measure 3
0000
0000
0000
0000
,  // measure 4
0000
0000
0000
0000
,  // measure 5
0001
0000
0001
0010
0001
0000
0001
0000
,  // measure 6
1000
0000
1000
0010
1000
0000
1000
0000
,  // measure 7
0001
0000
0001
0010
0001
0000
1000
0000
,  // measure 8
1000
0100
1000
0000
1000
0000
0001
0100
,  // measure 9
0001
0000
1000
0001
,  // measure 10
0001
0010
0001
0000
0100
0000
0010
0000
,  // measure 11
0100
0010
0100
0000
0010
0000
1000
0000
,  // measure 12
0001
1000
0001
0000
0010
0000
0100
0000
,  // measure 13
1000
0100
1000
0000
0010
0000
0100
0000
,  // measure 14
0001
0100
0001
0010
0001
0000
1000
0000
,  // measure 15
0001
0000
0010
0000
0001
0010
0001
0000
,  // measure 16
1000
0100
1000
0000
0010
1000
0010
0000
,  // measure 17
1000
0001
1000
0000
0001
0000
0010
0000
,  // measure 18
0100
1000
1100
1000
,  // measure 19
0100
0010
0011
0011
,  // measure 20
0101
0101
0100
0010
,  // measure 21
1000
0000
0001
1000
0001
0000
1000
0001
,  // measure 22
1000
0000
0001
1000
0001
0000
0000
0000
,  // measure 23
0010
0000
1002
0000
,  // measure 24
2003
0000
3020
0000
,  // measure 25
0230
0000
0302
1000
,  // measure 26
0023
0000
0230
1000
,  // measure 27
0320
0000
0000
0000
0031
0000
0001
0100
,  // measure 28
0001
0000
0001
0000
1000
0000
1000
0010
,  // measure 29
1000
0000
1000
0000
1000
0000
1000
0100
,  // measure 30
1000
0000
0001
0000
0001
0000
0001
0010
,  // measure 31
0001
0000
1000
0000
0001
0010
0100
1000
,  // measure 32
0001
0000
0001
0000
1000
0100
0010
0001
,  // measure 33
1000
0000
1000
0000
1000
0010
0100
0001
,  // measure 34
1000
0000
1000
0000
0001
0100
0010
1000
,  // measure 35
0001
0001
1000
1100
,  // measure 36
0001
0101
1000
1100
,  // measure 37
0001
0101
1000
1010
,  // measure 38
0001
0011
1000
1010
,  // measure 39
0001
0011
1000
0001
,  // measure 40
1000
0000
0001
0000
0001
0010
0001
0000
,  // measure 41
1000
0000
1000
0000
0020
0000
1000
1000
,  // measure 42
1030
0000
1000
0000
0200
0000
0010
0010
,  // measure 43
0310
0000
0010
0000
0002
0000
1000
1000
,  // measure 44
1003
0000
1000
0000
0020
0000
0100
0100
,  // measure 45
0130
0000
0000
0000
1000
0000
0001
0010
,  // measure 46
0001
0000
1000
0000
0001
0000
1000
0010
,  // measure 47
1000
0000
0001
0000
0010
0000
0100
0010
,  // measure 48
0100
0000
1000
0000
0010
0001
0010
0000
,  // measure 49
1000
0000
0001
0000
0001
0010
0100
0000
,  // measure 50
1000
0010
0100
0000
0001
0000
0001
0010
,  // measure 51
0001
0000
1000
0000
1000
0010
1000
0000
,  // measure 52
1000
0100
0010
0001
1001
0000
0000
0000
,  // measure 53
0000
0000
0000
0000
0001
0000
1000
0100
,  // measure 54
1000
0000
0010
0000
0100
0001
0100
0000
,  // measure 55
0001
0010
0001
0000
1000
0010
1000
0000
,  // measure 56
0001
0010
0100
0000
0000
0000
0000
0000
,  // measure 57
0000
0000
0000
1000
0000
1000
0000
1000
,  // measure 58
0010
1000
0000
0001
0000
0001
0000
0001
,  // measure 59
0010
0001
0000
1000
0000
0100
0000
0010
,  // measure 60
0001
0100
0000
0010
0000
1000
0000
1000
,  // measure 61
0100
0010
0000
0002
0000
0000
0000
0000
,  // measure 62
0000
0000
0000
1003
0100
0010
0001
0010
,  // measure 63
0100
1000
0000
0001
0100
0010
1000
0010
,  // measure 64
0100
0001
0000
0001
1000
0001
1000
0010
,  // measure 65
0100
0010
0000
1000
0001
1000
0001
0010
,  // measure 66
0100
0010
0000
1000
0100
1000
0001
0100
,  // measure 67
0001
0100
0000
0200
0000
0000
0000
0000
,  // measure 68
0300
0000
0000
0000
;

//---------------dance-single - Copied from----------------
#NOTES:
     dance-single:
     Copied from:
     Beginner:
     1:
     0.085,0.094,0.000,0.000,0.000:
0000
0000
0000
0000
,
0000
0000
0000
0000
,
0000
0000
0000
0000
,
0000
0000
0000
0000
,
0001
0000
0000
0000
,
0001
0000
0000
0000
,
1000
0000
0000
0000
,
1000
0000
0000
0000
,
1000
0000
1000
0000
,
0000
0000
1000
0000
,
0000
0000
1000
0000
,
0000
0000
0001
0000
,
0000
0000
0001
0000
,
0000
0000
0001
0000
,
0000
0000
1000
0000
,
0000
0000
1000
0000
,
0000
0000
0010
0000
,
0000
0000
0010
0000
,
0000
0000
0010
0000
,
0000
0000
0100
0000
,
0000
0000
0100
0000
,
0000
0000
0100
0000
,
0000
0000
0100
0000
,
0000
0000
0010
0000
,
0000
0000
0010
0000
,
0000
0000
0100
0000
,
0000
0000
0010
0000
,
0000
0000
0010
0000
,
0000
0000
0010
0000
,
0000
0000
0010
0000
,
0000
0000
0100
0000
,
0000
0000
0100
0000
,
0000
0000
0100
0000
,
0000
0000
0001
0000
,
0000
0000
0001
0000
,
0000
0000
0001
0000
,
0000
0000
1000
0000
,
0000
0000
1000
0000
,
0000
0000
1000
0000
,
0000
0000
1000
0000
,
0000
0000
1000
0000
,
0000
0000
1000
0000
,
0000
0000
0001
0000
,
0000
0000
0001
0000
,
0000
0000
0001
0000
,
0000
0000
1000
0000
,
0000
0000
1000
0000
,
0000
0000
0010
0000
,
0000
0000
0010
0000
,
0000
0000
0010
0000
,
0000
0000
0100
0000
,
0000
0000
0100
0000
,
0000
0000
0100
0000
,
0000
0000
0100
0000
,
0000
0000
0100
0000
,
0000
0000
0000
0000
,
0000
0000
0000
0001
0000
0000
0000
0000
,
0000
0000
0000
0001
0000
0000
0000
0000
,
0000
0000
0000
0001
0000
0000
0000
0000
,
0000
0000
0000
1000
0000
0000
0000
0000
,
0000
0000
0000
1000
0000
0000
0000
0000
,
0000
0000
0000
0010
0000
0000
0000
0000
,
0000
0000
0000
0010
0000
0000
0000
0000
,
0000
0000
0000
0010
0000
0000
0000
0000
,
0000
0000
0000
0100
0000
0000
0000
0000
,
0000
0000
0000
0100
0000
0000
0000
0000
,
0000
0000
0000
0100
0000
0000
0000
0000
;
