#TITLE:Light My Fire;
#SUBTITLE:;
#ARTIST:The Doors;
#TITLETRANSLIT:;
#SUBTITLETRANSLIT:;
#ARTISTTRANSLIT:;
#CREDIT:;
#BANNER:;
#BACKGROUND:light.bg.jpg;
#LYRICSPATH:;
#CDTITLE:;
#MUSIC:06 Light My Fire (New Stereo Mix).mp3;
#OFFSET:-0.120;
#SAMPLESTART:51.420;
#SAMPLELENGTH:19.640;
#SELECTABLE:YES;
#BPMS:0.000=130.080;
#STOPS:139.750=0.115
,580.250=0.115
;
#BGCHANGES:;

//---------------dance-single - ----------------
#NOTES:
     dance-single:
     :
     Hard:
     10:
     0.559,0.648,0.421,0.215,0.254:
0000
0000
0000
0000
,
0000
0000
0000
0000
,
0000
0000
0000
0000
,
0000
0000
0000
0000
,
0000
0000
0000
0000
,
1000
0000
0100
0000
0000
1000
0000
0020
,
0000
0000
0100
0000
0000
0130
0000
0000
,
0001
0000
1000
0000
0000
0001
0000
0012
,
0000
0000
1003
0000
0100
1000
0100
0010
,
0002
0000
1003
0000
0000
1000
1000
2010
,
0000
0000
3100
0000
0100
0010
0000
0000
,
0001
0010
0100
1000
0100
0010
0002
0000
,
1003
0000
0000
0000
0010
0000
0100
0000
0000
0000
0000
0001
1000
0001
0000
0000
,
1000
0100
1000
0010
0100
0001
0100
0010
,
1000
0100
0010
0001
0100
0010
1000
0010
,
1000
0100
0010
0001
0200
0000
0010
0310
,
0000
1000
0100
0010
0000
0001
0100
0000
,
1001
0000
0001
1000
0010
0000
0100
0010
,
1000
0000
1000
0100
0010
0001
0100
1000
,
0100
0001
0010
0100
1000
0100
0001
0100
,
2000
0000
3002
0000
0013
0001
0100
0210
,
0000
0000
1300
0000
0100
0100
0000
0000
,
0001
0000
0010
0000
0100
0000
1000
0100
,
2000
0001
3010
0000
,
1001
0000
1000
0100
0010
0001
0000
0001
,
0100
0000
0101
0000
0001
0100
0010
0000
,
1010
0000
1000
0000
1100
0000
0010
0001
,
0102
0000
0000
0000
0100
0000
0000
0000
0103
0000
1000
0001
1000
0000
0000
0000
,
0001
0100
0010
0100
0010
0100
0001
0010
,
0100
1000
0100
0010
0001
0010
1000
0010
,
0001
0100
0010
1000
0010
1000
0100
1000
,
0010
0100
0010
1000
0010
0100
0010
1000
,
0100
0010
0001
0100
1000
0100
0001
0010
,
0100
0110
1001
0110
,
1000
0000
0000
0000
0001
0000
0000
0100
0010
0100
0010
1000
0100
0010
0001
0000
,
0000
0010
0001
0101
0000
0010
1000
1100
,
0000
0010
0001
1000
0010
1000
0100
0001
,
0000
0100
1000
0010
0000
1000
0001
1001
,
0001
0010
0100
1000
0010
0100
0000
0110
,
0000
1001
0000
0001
2000
0000
0002
0000
,
3003
0000
0000
0110
0000
0001
0100
0002
,
0000
1003
0100
2000
0000
3001
0010
0100
,
0010
0001
0100
0010
1000
0100
0011
0000
,
0101
0000
0010
1000
0000
1010
0000
0000
,
1000
0000
0001
0000
0010
0100
0010
0000
,
0001
1000
0001
0000
0100
0010
1000
0100
,
0010
0001
0100
0020
0000
0130
0020
0000
,
0130
0020
0000
1030
0002
0000
1003
0002
,
0000
0000
0103
0000
0010
0000
1000
0100
1000
0000
0010
0000
0200
0000
0000
0000
,
0310
0200
0000
0301
2000
0000
3001
2000
,
0000
0000
3001
0000
0100
0010
0100
0000
0010
0000
1000
0100
1000
0000
0100
0000
,
0010
0000
0001
1000
0001
1000
0002
0000
0000
0000
0000
0000
2003
0000
0000
0000
,
3010
0100
1000
0100
0001
0010
0100
1000
,
0001
0000
0000
0000
0001
1000
0100
0000
1000
0001
0100
0000
0001
1000
0100
0000
,
1000
0100
0010
0001
0101
0000
0001
1000
,
0100
0000
1000
0001
0100
0000
0010
1000
,
0100
0000
0010
0001
0100
0000
1000
0100
,
1100
0000
0001
0100
0101
0000
1000
0100
,
1000
0001
0100
0002
1000
0000
0013
0200
,
0001
2300
0001
3020
,
1030
0100
0010
0002
1000
2003
0010
3020
,
0100
0230
0000
0301
0010
0100
1000
0100
,
0010
0002
0000
1003
0000
2002
0000
3003
,
1000
0100
0001
0100
1000
0001
0010
1000
,
0010
0002
1000
0000
0000
1003
0000
0000
,
1000
0100
1000
0100
0001
0100
0002
0000
,
0103
1000
0100
0000
0010
0000
0001
0000
0000
0000
0100
0000
0000
0000
0000
0000
,
1000
0001
0100
0001
0010
0100
1000
0000
,
0010
0001
0010
0000
0000
0000
0000
0000
0001
0100
0001
0000
1000
0000
0100
0000
,
0010
0001
0100
0010
0001
0010
0100
1000
,
0100
0001
0202
0303
2200
3300
0001
0010
,
0001
0100
1000
0100
0001
2020
3030
1000
,
0100
1000
0022
0033
0202
0000
0303
0000
,
0001
0010
0100
1000
0100
0010
0001
1000
,
0100
1000
2200
3300
2020
0000
3030
0001
,
0010
0100
0001
0100
0010
0202
0303
0001
,
1000
0000
0000
0000
0000
0000
1000
0010
0000
0000
0010
0100
0000
0000
0101
0000
0000
0000
0001
0100
0000
0000
1000
0100
,
0000
0110
0000
0011
0000
1010
0000
0110
0000
2002
0000
0000
,
3003
2001
0000
3010
0000
0100
0001
0010
,
1000
0011
0001
0100
0010
0000
1000
0100
,
1020
0000
0130
0000
1000
0001
0100
0000
,
0011
0000
0001
0010
0001
0000
1001
0000
1000
0000
0001
0000
0100
0000
0000
0000
,
0110
0000
0000
0000
1000
0000
0100
0000
0010
0000
0000
0000
1000
0010
1000
0000
,
0001
0010
0100
1000
1002
0000
0103
0000
,
0110
0000
0000
0000
1001
0000
0000
0000
1000
0001
1000
0001
1000
0001
1000
0001
,
1000
0000
1002
1000
1003
0000
0010
1000
,
0001
0000
0000
0000
0011
0000
0000
0000
1001
0000
0000
0000
0010
0100
0010
0000
,
0000
0000
0010
0001
1000
0000
1000
0100
,
1100
0000
0100
0000
0010
0000
0011
0000
0101
0000
0110
0000
,
1001
0000
1000
0000
0001
0000
0110
0000
1001
0000
1000
0000
,
0100
0000
0010
0000
0011
0000
0001
0000
0100
0000
0010
0000
,
1001
0000
0110
0000
1001
0000
0100
0000
0010
0000
1000
0000
,
0011
0000
0100
0000
0010
0000
1010
0000
0100
0000
1001
0000
,
0011
0000
0110
0000
1100
0000
1010
0000
0110
0000
0101
0000
,
0001
0000
1000
0000
0010
0000
0100
0000
0010
0000
1000
0000
,
1010
0000
0110
0000
0101
0000
0011
0000
0110
0000
1100
0000
,
1000
0000
0001
0000
0010
0000
0100
0000
1000
0000
0110
0000
,
2001
0000
0000
0000
0001
0000
0000
0000
3001
1000
0001
1000
0001
1000
0001
1000
,
0020
0000
0001
0000
,
0100
0000
0000
0000
0000
0000
0000
0000
1000
0030
1000
0001
0020
0000
0000
0000
,
0000
0000
0000
0000
0100
0000
0000
0000
0030
0000
0001
1000
0010
0000
0000
0000
,
0100
0000
0000
0012
0000
0023
0001
0000
,
0031
2010
3020
1030
,
0110
0000
0000
1000
0000
0000
0001
0000
,
1000
0100
1000
0100
1000
0000
0001
0100
,
0001
0000
0100
0000
0001
0000
0000
0000
1000
0000
0001
0000
0001
1000
0001
0000
,
2000
0000
0000
0000
0001
0000
0000
0000
0001
0000
0000
0000
3001
0000
0010
0100
,
0010
0100
0000
0110
0000
0000
1000
0100
,
0010
0002
0000
0000
1000
0000
0000
0200
,
0003
0000
0010
0000
0000
0000
0310
1000
0010
0000
0000
0000
0001
0000
0010
0000
,
0200
0000
0000
0000
0310
0000
0001
0100
0010
0000
0000
0000
0101
0000
0000
0000
,
1010
0000
0000
0000
1000
0100
0010
0000
0002
0000
0000
0000
1000
0000
0000
0000
,
1003
0000
0000
0000
1000
0100
0010
0001
0010
0100
1000
0000
0000
0000
0000
0000
,
1001
0000
0000
0000
0000
0000
0001
0010
0100
1000
0100
0010
0001
0000
0000
0000
,
1001
0000
0000
0000
0110
0000
0010
1000
0001
0000
1000
0000
0001
1000
0010
0000
,
0100
0000
0001
0000
0010
0000
0100
0000
0010
0001
0100
0000
0100
0001
0010
0000
,
0100
1000
0010
0000
0110
0000
0000
0000
1000
0000
0001
0000
1000
0000
0000
0000
,
0011
0000
0001
0100
0010
0000
0110
0000
0000
0000
1002
0000
0000
0000
0000
0000
,
1003
0000
0000
0000
1100
0000
0010
0000
0001
0000
0001
0010
0000
0000
0102
0000
,
0000
0000
0103
0000
0000
0000
0100
0000
1000
0000
1000
0100
0000
0000
1001
0000
,
0000
0000
0000
0000
0000
0000
1000
0000
0001
0000
0001
1000
0000
0000
1001
0000
,
0000
0000
1000
0100
1000
0001
0100
0001
,
0100
0010
0010
1000
0100
0010
0010
0001
,
0100
0100
0010
1000
0100
0000
1001
0000
,
0001
0000
1000
0000
0001
0010
0001
0000
,
1000
0010
1000
0000
1000
0100
0010
0001
,
0100
0000
0010
0000
1000
0010
1000
0010
1000
0000
0100
1000
0100
1000
0100
0000
,
0010
0100
0010
0100
0010
0000
0000
0000
0010
0000
0001
0000
1000
0000
1000
0000
,
0002
0000
0003
0001
2000
0000
0000
3000
,
0001
0010
0100
0000
1000
0010
0100
0001
,
1000
1001
0001
1000
1100
0000
0011
0001
,
1000
1002
0000
0000
2003
0000
3002
0000
,
0003
0000
1000
0000
0001
0100
0010
0000
0000
0000
1010
0000
0000
0000
1000
0100
,
0010
0000
0000
0000
0001
0000
0100
0000
0000
0000
0010
1000
0100
0000
0010
0000
,
0001
0000
0100
0000
0010
0000
1000
0100
0010
0001
1000
0000
0001
0100
0010
1000
,
0001
0000
0000
0000
1000
0000
1001
0000
0000
0000
0110
0000
0010
0100
0010
0100
,
0010
0000
0001
0010
0001
0000
1000
0000
,
0010
0100
0010
0000
1000
0100
1000
0000
,
0001
0000
0000
0000
0001
0000
0001
0010
0001
0000
0000
0000
1000
0000
1000
0100
,
1000
0000
1001
0000
0000
1001
0000
0000
,
0110
0000
0000
0000
0000
1001
0000
0000
,
0000
0000
0000
0000
0000
0000
1000
0100
0010
0100
1000
0010
0100
0010
1000
0100
,
0010
0000
0000
0000
0001
0010
0100
0010
0001
0100
0010
0100
0001
0010
0100
0000
,
1000
0100
0010
0000
0001
0100
0010
0000
1000
0100
1000
0000
0001
0100
0001
0000
,
1000
0000
0100
0000
0010
0000
0001
0000
0100
0010
0100
0010
0100
0010
0100
0010
,
0000
1001
0000
1000
0001
0100
0000
0001
,
1000
1100
0000
0001
0011
0000
0110
0000
,
1000
1001
0000
0000
1000
0000
0001
0000
,
0001
0100
0001
0000
1000
0100
1000
0000
,
1010
0000
1000
0011
0000
0000
0001
0100
,
0001
0000
1000
0100
1000
0001
0100
0000
,
0010
1000
0010
0100
0010
0001
0010
0000
,
1000
0000
0001
0000
0010
0000
0100
0000
0001
0100
0001
0000
0100
0000
0010
0000
,
0001
0000
1000
0010
1000
0000
1000
0000
0100
0000
0010
0000
0001
0000
0100
0000
,
0010
0100
0010
0000
0010
0000
1000
0000
0001
0000
1000
0000
0010
0000
0001
0000
,
1000
0000
0100
0000
0002
0000
0000
0000
0000
0000
0000
0000
0103
0010
0100
0000
,
0110
0000
0000
1001
0000
0000
1010
0000
,
1000
0100
1000
0000
0001
0000
0001
0010
,
0001
1000
0101
1100
,
0001
0010
0100
0000
0100
0010
0000
0000
0000
0000
0000
0000
0011
0000
0000
0000
,
1000
0100
1000
0010
0100
0001
0010
0000
0010
0000
0100
0000
0010
0000
0001
0000
,
2000
0000
0000
0000
0000
0000
3001
0000
0000
1000
0000
0000
0000
0000
0000
0010
0000
0000
0100
0000
0000
0000
0001
0000
,
0000
0010
0000
0100
0000
1000
0000
0010
0000
0100
0000
0001
,
0000
0010
0000
0100
0000
2000
0000
0000
0000
0000
0000
0000
,
3001
0000
1000
0000
0001
0000
1000
0000
0000
0000
0000
0000
,
1001
0000
1001
0000
0110
0000
1001
0000
0000
0000
0000
0000
,
1100
0000
0100
0000
0010
0000
0011
0000
0100
0000
0010
0000
,
1010
0000
1100
0000
0110
0000
0011
0000
0101
0000
0110
0000
,
1001
0000
0001
0000
0010
0000
0100
0000
1001
0000
1000
0000
,
0100
0000
0010
0000
0101
0000
0110
0000
1010
0000
1100
0000
,
0101
0000
0011
0000
0110
0000
1001
0000
0110
0000
1000
0100
,
0010
0001
0000
0101
0000
0011
0000
0001
0000
0010
0000
0100
,
0000
1000
0010
0100
0001
0000
0011
0000
0101
0000
0001
0100
,
0010
1000
0100
0010
0011
0000
1010
0000
1000
0000
0001
0000
,
1000
0001
1000
0001
1000
0000
0001
0000
0001
0010
0001
0000
1000
0000
0100
0000
,
0010
0000
0001
0000
0100
0000
0010
0000
1000
0010
1000
0000
1000
0000
0001
0010
,
0001
0010
0001
0000
0010
0000
0100
0000
0010
0100
1000
0000
0100
0000
0010
0000
,
0001
0100
0010
1000
0000
0001
0010
0100
,
1000
0010
0100
0010
1000
0100
0010
0001
,
0000
0000
0002
0000
2003
0000
3100
1000
,
0010
0120
0000
0000
0031
0000
0010
0010
,
0000
0000
1000
0000
0100
1000
0010
0000
,
0001
0010
0002
0000
1000
0000
0103
0000
,
0110
0000
1001
1000
0001
0010
0100
1000
,
0000
1000
0010
0000
1010
0000
1000
0010
,
0100
0000
0101
0100
0001
0010
0011
0000
,
0100
1000
2010
0000
0010
0000
3010
0000
,
0000
1000
0001
1000
0001
0000
1000
0000
0001
0000
0010
0000
0100
0000
0010
0000
,
0001
1000
0100
0010
0100
1000
0001
0100
,
1000
0100
0001
1000
0100
0001
0100
1000
,
0001
0010
0100
1000
0100
0010
0001
0100
,
0010
1000
0010
0100
0001
0010
0100
1000
,
0010
0100
0001
0010
0000
0110
0000
1001
,
0000
1000
0001
1000
0000
0110
0000
1001
,
0000
1000
0000
0101
0000
0001
0100
0010
,
0000
1100
0000
0011
0000
1000
0010
0100
,
0000
0011
0001
0010
0000
1000
0001
1001
,
0000
0001
1000
0010
0000
1010
1000
0010
,
0100
0001
0010
0011
0000
1001
1000
0001
,
0000
0100
0010
1100
0000
0101
0001
0010
,
0100
1000
0101
0011
0000
1001
0000
1000
,
0100
0010
0000
0101
0000
0001
0100
0010
,
0010
1000
0100
0000
0011
0000
0001
0000
0100
0000
0010
0000
0100
0000
1000
0000
,
0100
0010
0001
0010
0100
1000
0001
0010
,
0100
0001
0010
0000
0100
0000
1000
0000
0001
0000
0100
0000
0010
0000
1000
0000
,
0100
0001
1000
0010
0001
1000
0100
0001
,
0100
1000
0001
0100
1000
0100
0001
1000
,
0010
0001
0010
1000
0001
0010
1000
0010
,
0001
1000
0010
0000
1000
0000
0100
0000
0001
0000
0100
0000
1000
0000
0001
0000
,
0010
0100
1000
0100
0010
0001
0100
0010
,
1000
0001
0100
0000
1000
0000
0100
0000
0001
0010
0100
0000
1000
0000
0100
0000
,
0001
0000
0100
0000
1000
0000
0001
0010
0001
0000
1000
0100
1000
0000
1000
0010
,
1000
0000
0001
0100
0001
0000
0001
0100
0001
0100
0001
0010
0001
0010
0100
1000
,
0100
1000
0002
0000
0000
0000
0000
0000
0000
0000
0000
0000
0000
0000
0000
0000
,
0000
0000
2000
0000
,
0000
0000
0000
0000
,
0000
0000
3003
0000
;

//---------------dance-double - ----------------
#NOTES:
     dance-double:
     :
     Hard:
     10:
     0.555,0.648,0.400,0.215,0.254:
00000000
00000000
00000000
00000000
,
00000000
00000000
00000000
00000000
,
00000000
00000000
00000000
00000000
,
00000000
00000000
00000000
00000000
,
00000000
00000000
00000000
00000000
,
01000000
00000000
00100000
00000000
00000000
01000000
00000000
00020000
,
00000000
00000000
00100000
00000000
00000000
00130000
00000000
00000000
,
00001000
00000000
01000000
00000000
00000000
00001000
00000000
00012000
,
00000000
00000000
01003000
00000000
00100000
01000000
00100000
00010000
,
00002000
00000000
01003000
00000000
00000000
01000000
01000000
02010000
,
00000000
00000000
03100000
00000000
00100000
00010000
00000000
00000000
,
00001000
00010000
00100000
01000000
00100000
00010000
00002000
00000000
,
00103000
00000000
00000000
00000000
00001000
00000000
00010000
00000000
00000000
00000000
00000000
00000100
00100000
00000100
00000000
00000000
,
00100000
00010000
00100000
00001000
00010000
00000100
00010000
00001000
,
00100000
00010000
00001000
00000100
00010000
00001000
00100000
00001000
,
00100000
00010000
00001000
00000100
00020000
00000000
00001000
00031000
,
00000000
00010000
00001000
00000100
00000000
00000010
00001000
00000000
,
00010010
00000000
00000010
00010000
00000100
00000000
00001000
00000100
,
00010000
00000000
00010000
00001000
00000100
00000010
00001000
00010000
,
00001000
00000010
00000100
00001000
00010000
00001000
00000010
00001000
,
00002000
00000000
00003002
00000000
00000013
00000001
00000100
00000210
,
00000000
00000000
00001300
00000000
00000100
00000100
00000000
00000000
,
00000001
00000000
00000010
00000000
00000100
00000000
00001000
00000100
,
00002000
00000001
00003010
00000000
,
00010010
00000000
00010000
00001000
00000100
00000010
00000000
00000010
,
00001000
00000000
00001010
00000000
00000010
00001000
00000100
00000000
,
00010100
00000000
00010000
00000000
00011000
00000000
00000100
00000010
,
00001020
00000000
00000000
00000000
00001000
00000000
00000000
00000000
00001030
00000000
00010000
00000010
00010000
00000000
00000000
00000000
,
00000100
00010000
00001000
00010000
00001000
00010000
00000100
00001000
,
00010000
00100000
00010000
00001000
00000100
00001000
00100000
00001000
,
00000100
00010000
00001000
00100000
00001000
00100000
00010000
00100000
,
00001000
00010000
00001000
00100000
00001000
00010000
00001000
00100000
,
00100000
00010000
00001000
00100000
01000000
00100000
00001000
00010000
,
00100000
00110000
01001000
00110000
,
01000000
00000000
00000000
00000000
00001000
00000000
00000000
00100000
00010000
00100000
00010000
01000000
00100000
00010000
00001000
00000000
,
00000000
00010000
00001000
00101000
00000000
00010000
01000000
01100000
,
00000000
00100000
00010000
10000000
00100000
10000000
01000000
00010000
,
00000000
01000000
10000000
00100000
00000000
10000000
00010000
10010000
,
00010000
00100000
01000000
10000000
00100000
01000000
00000000
01100000
,
00000000
10010000
00000000
00010000
20000000
00000000
00020000
00000000
,
30030000
00000000
00000000
00110000
00000000
00001000
00100000
00002000
,
00000000
01003000
00100000
02000000
00000000
03001000
00010000
00100000
,
00010000
00001000
00100000
00010000
01000000
00100000
00011000
00000000
,
00101000
00000000
00010000
01000000
00000000
01010000
00000000
00000000
,
00100000
00000000
00000100
00000000
00001000
00010000
00001000
00000000
,
00000100
00100000
00000100
00000000
00010000
00001000
00100000
00010000
,
00001000
00000100
00010000
00002000
00000000
00013000
00002000
00000000
,
00013000
00002000
00000000
00103000
00000200
00000000
00100300
00000200
,
00000000
00000000
00010300
00000000
00001000
00000000
00100000
00010000
00100000
00000000
00001000
00000000
00020000
00000000
00000000
00000000
,
00031000
00020000
00000000
00030100
00200000
00000000
00300100
00200000
,
00000000
00000000
00300100
00000000
00010000
00001000
00010000
00000000
00001000
00000000
00100000
00010000
00100000
00000000
00010000
00000000
,
00001000
00000000
00000100
00100000
00000100
00100000
00000200
00000000
00000000
00000000
00000000
00000000
00200300
00000000
00000000
00000000
,
00300100
00001000
00010000
00001000
00000010
00000100
00001000
00010000
,
00000010
00000000
00000000
00000000
00000010
00010000
00001000
00000000
00010000
00000010
00001000
00000000
00000010
00010000
00001000
00000000
,
00010000
00001000
00000100
00000010
00001010
00000000
00000010
00010000
,
00001000
00000000
00010000
00000010
00001000
00000000
00000100
00010000
,
00000100
00000000
00000010
00000001
00000100
00000000
00001000
00000100
,
00001100
00000000
00000001
00000100
00000101
00000000
00001000
00000100
,
00001000
00000001
00000100
00000002
00001000
00000000
00000013
00000200
,
00000001
00002300
00000001
00003020
,
00010030
00001000
00000100
00000020
00010000
00020030
00000100
00030200
,
00001000
00002300
00000000
00003010
00000100
00001000
00010000
00001000
,
00000100
00000020
00000000
00010030
00000000
00020020
00000000
00030030
,
00010000
00001000
00000010
00001000
00010000
00000010
00000100
00010000
,
00001000
00000200
00100000
00000000
00000000
00100300
00000000
00000000
,
00100000
00010000
00100000
00010000
00000100
00010000
00000200
00000000
,
00010300
00100000
00010000
00000000
00001000
00000000
00000100
00000000
00000000
00000000
00010000
00000000
00000000
00000000
00000000
00000000
,
00100000
00000100
00010000
00000100
00001000
00010000
00100000
00000000
,
00010000
00001000
00010000
00000000
00000000
00000000
00000000
00000000
00001000
00100000
00001000
00000000
01000000
00000000
00100000
00000000
,
00010000
00001000
00100000
00010000
00001000
00010000
00100000
01000000
,
00100000
00001000
00202000
00303000
02200000
03300000
00001000
00010000
,
00001000
00100000
01000000
00100000
00001000
02020000
03030000
01000000
,
01000000
10000000
00220000
00330000
02020000
00000000
03030000
00000000
,
00010000
00100000
01000000
10000000
01000000
00100000
00010000
10000000
,
01000000
10000000
22000000
33000000
20200000
00000000
30300000
00010000
,
00100000
01000000
00010000
01000000
00100000
02020000
03030000
00010000
,
01000000
00000000
00000000
00000000
00000000
00000000
01000000
00010000
00000000
00000000
00010000
00100000
00000000
00000000
00101000
00000000
00000000
00000000
00001000
00100000
00000000
00000000
01000000
00100000
,
00000000
00110000
00000000
00011000
00000000
01010000
00000000
00110000
00000000
02002000
00000000
00000000
,
03003000
02001000
00000000
03010000
00000000
00100000
00001000
00010000
,
01000000
00011000
00001000
00100000
00010000
00000000
01000000
00100000
,
00102000
00000000
00013000
00000000
00100000
00000100
00010000
00000000
,
00001100
00000000
00000100
00001000
00000100
00000000
00100000
00000000
00100000
00000000
00000100
00000000
00010000
00000000
00000000
00000000
,
00011000
00000000
00000000
00000000
00100000
00000000
00010000
00000000
00001000
00000000
00000000
00000000
00100000
00001000
00100000
00000000
,
00000100
00001000
00010000
00100000
00100200
00000000
00010300
00000000
,
00001100
00000000
00000000
00000000
00010010
00000000
00000000
00000000
00010000
00000010
00010000
00000010
00010000
00000010
00010000
00000010
,
00010000
00000000
00010020
00010000
00010030
00000000
00000100
00010000
,
00000010
00000000
00000000
00000000
00000110
00000000
00000000
00000000
00010010
00000000
00000000
00000000
00000100
00001000
00000100
00000000
,
00000000
00000000
00000100
00000010
00010000
00000000
00010000
00001000
,
00001100
00000000
00000100
00000000
00000010
00000000
00000011
00000000
00000101
00000000
00000110
00000000
,
00001001
00000000
00001000
00000000
00000001
00000000
00000110
00000000
00001001
00000000
00001000
00000000
,
00000100
00000000
00000010
00000000
00000011
00000000
00000001
00000000
00000100
00000000
00000010
00000000
,
00001001
00000000
00000110
00000000
00001001
00000000
00000100
00000000
00000010
00000000
00001000
00000000
,
00000110
00000000
00001000
00000000
00000100
00000000
00010100
00000000
00001000
00000000
00010010
00000000
,
00000110
00000000
00001100
00000000
00011000
00000000
00010100
00000000
00001100
00000000
00001010
00000000
,
00000010
00000000
00010000
00000000
00000100
00000000
00001000
00000000
00000100
00000000
00010000
00000000
,
00010100
00000000
00001100
00000000
00001010
00000000
00000110
00000000
00001100
00000000
00011000
00000000
,
00100000
00000000
00000100
00000000
00001000
00000000
00010000
00000000
00100000
00000000
00011000
00000000
,
00200100
00000000
00000000
00000000
00000100
00000000
00000000
00000000
00300100
00100000
00000100
00100000
00000100
00100000
00000100
00100000
,
00002000
00000000
00000100
00000000
,
00010000
00000000
00000000
00000000
00000000
00000000
00000000
00000000
00100000
00003000
00100000
00000100
00002000
00000000
00000000
00000000
,
00000000
00000000
00000000
00000000
00010000
00000000
00000000
00000000
00003000
00000000
00000100
00100000
00001000
00000000
00000000
00000000
,
00010000
00000000
00000000
00001200
00000000
00002300
00000100
00000000
,
00003100
00201000
00302000
00103000
,
00011000
00000000
00000000
00100000
00000000
00000000
00000100
00000000
,
01000000
00100000
01000000
00100000
01000000
00000000
00001000
00100000
,
00001000
00000000
00100000
00000000
00001000
00000000
00000000
00000000
01000000
00000000
00001000
00000000
00001000
01000000
00001000
00000000
,
02000000
00000000
00000000
00000000
00001000
00000000
00000000
00000000
00001000
00000000
00000000
00000000
03001000
00000000
00010000
00100000
,
00010000
00100000
00000000
00110000
00000000
00000000
01000000
00100000
,
00100000
00020000
00000000
00000000
10000000
00000000
00000000
02000000
,
00030000
00000000
00100000
00000000
00000000
00000000
03100000
10000000
00100000
00000000
00000000
00000000
00010000
00000000
00100000
00000000
,
02000000
00000000
00000000
00000000
03100000
00000000
00010000
01000000
00100000
00000000
00000000
00000000
01010000
00000000
00000000
00000000
,
10100000
00000000
00000000
00000000
10000000
01000000
00100000
00000000
00020000
00000000
00000000
00000000
10000000
00000000
00000000
00000000
,
01030000
00000000
00000000
00000000
01000000
00100000
00010000
00001000
00010000
00100000
01000000
00000000
00000000
00000000
00000000
00000000
,
01001000
00000000
00000000
00000000
00000000
00000000
00001000
00010000
00100000
01000000
00100000
00010000
00001000
00000000
00000000
00000000
,
01001000
00000000
00000000
00000000
00110000
00000000
00010000
01000000
00001000
00000000
01000000
00000000
00001000
01000000
00010000
00000000
,
00100000
00000000
00001000
00000000
00010000
00000000
00100000
00000000
00010000
00001000
00100000
00000000
00100000
00001000
00010000
00000000
,
00010000
00100000
00001000
00000000
00011000
00000000
00000000
00000000
00100000
00000000
00000100
00000000
00100000
00000000
00000000
00000000
,
00001100
00000000
00000100
00010000
00001000
00000000
00011000
00000000
00000000
00000000
00100200
00000000
00000000
00000000
00000000
00000000
,
00100300
00000000
00000000
00000000
00110000
00000000
00001000
00000000
00000100
00000000
00000100
00001000
00000000
00000000
00010200
00000000
,
00000000
00000000
00010300
00000000
00000000
00000000
00010000
00000000
00100000
00000000
00100000
00010000
00000000
00000000
00100000
00000000
,
00000000
00000000
00000000
00000000
00000000
00000000
00010000
00000000
00000010
00000000
00000010
00010000
00000000
00000000
00010010
00000000
,
00000000
00000000
00010000
00001000
00010000
00000010
00001000
00000010
,
00001000
00000100
00000100
00010000
00001000
00000100
00000100
00000010
,
00001000
00001000
00000100
00010000
00001000
00000000
00010010
00000000
,
00000001
00000000
00001000
00000000
00000001
00000010
00000001
00000000
,
00001000
00000010
00001000
00000000
00001000
00000100
00000010
00000001
,
00000100
00000000
00000010
00000000
00001000
00000010
00001000
00000010
00001000
00000000
00000100
00001000
00000100
00001000
00000100
00000000
,
00000010
00000100
00000010
00000100
00000010
00000000
00000000
00000000
00000010
00000000
00000001
00000000
00001000
00000000
00001000
00000000
,
00000020
00000000
00000030
00000010
00020000
00000000
00000000
00030000
,
00000010
00000100
00001000
00000000
00010000
00000100
00001000
00000010
,
00010000
00010010
00000010
00010000
00011000
00000000
00000110
00000010
,
00010000
00010020
00000000
00000000
00020030
00000000
00030020
00000000
,
00000030
00000000
00100000
00000000
00000100
00010000
00001000
00000000
00000000
00000000
00101000
00000000
00000000
00000000
00100000
00010000
,
00001000
00000000
00000000
00000000
00000100
00000000
00010000
00000000
00000000
00000000
00001000
00100000
00010000
00000000
00001000
00000000
,
00000100
00000000
00010000
00000000
00001000
00000000
00100000
00010000
00001000
00000100
00100000
00000000
00000100
00010000
00001000
00100000
,
00000100
00000000
00000000
00000000
00100000
00000000
00100000
00000000
00000000
00000000
00011000
00000000
00001000
00010000
00001000
00010000
,
00010000
00000000
00001000
00010000
00001000
00000000
01000000
00000000
,
00010000
00100000
00010000
00000000
01000000
00100000
01000000
00000000
,
00001000
00000000
00000000
00000000
00001000
00000000
00001000
00010000
00001000
00000000
00000000
00000000
01000000
00000000
01000000
00100000
,
01000000
00000000
01001000
00000000
00000000
01001000
00000000
00000000
,
01100000
00000000
00000000
00000000
00000000
10010000
00000000
00000000
,
00000000
00000000
00000000
00000000
00000000
00000000
10000000
01000000
00100000
01000000
10000000
00100000
01000000
00100000
10000000
01000000
,
00100000
00000000
00000000
00000000
00010000
00100000
01000000
00100000
00010000
01000000
00100000
01000000
00010000
00100000
01000000
00000000
,
10000000
01000000
00100000
00000000
00010000
01000000
00100000
00000000
10000000
01000000
10000000
00000000
00010000
01000000
00010000
00000000
,
01000000
00000000
00100000
00000000
00010000
00000000
00001000
00000000
00100000
00010000
00100000
00010000
00100000
00010000
00100000
00010000
,
00000000
01001000
00000000
01000000
00001000
00100000
00000000
00001000
,
01000000
01100000
00000000
00001000
00011000
00000000
00110000
00000000
,
01000000
01001000
00000000
00000000
01000000
00000000
00001000
00000000
,
00000100
00010000
00000100
00000000
00100000
00010000
00100000
00000000
,
00101000
00000000
00100000
00001100
00000000
00000000
00000100
00010000
,
00000100
00000000
00100000
00010000
00100000
00000100
00010000
00000000
,
00001000
00100000
00001000
00010000
00001000
00000100
00001000
00000000
,
00010000
00000000
00000010
00000000
00000100
00000000
00001000
00000000
00000010
00001000
00000010
00000000
00001000
00000000
00000100
00000000
,
00000010
00000000
00010000
00000100
00010000
00000000
00010000
00000000
00001000
00000000
00000100
00000000
00000010
00000000
00001000
00000000
,
00000100
00001000
00000100
00000000
00000100
00000000
00010000
00000000
00000010
00000000
00010000
00000000
00000100
00000000
00000010
00000000
,
00010000
00000000
00001000
00000000
00000020
00000000
00000000
00000000
00000000
00000000
00000000
00000000
00001030
00000100
00001000
00000000
,
00000110
00000000
00000000
00001001
00000000
00000000
00001010
00000000
,
00001000
00000100
00001000
00000000
00000001
00000000
00000001
00000010
,
00000001
00001000
00000101
00001100
,
00000001
00000010
00000100
00000000
00000100
00000010
00000000
00000000
00000000
00000000
00000000
00000000
00000011
00000000
00000000
00000000
,
00010000
00001000
00010000
00000100
00001000
00000010
00000100
00000000
00000100
00000000
00001000
00000000
00000100
00000000
00000010
00000000
,
00020000
00000000
00000000
00000000
00000000
00000000
00030010
00000000
00000000
00010000
00000000
00000000
00000000
00000000
00000000
00000100
00000000
00000000
00001000
00000000
00000000
00000000
00000010
00000000
,
00000000
00000100
00000000
00001000
00000000
00010000
00000000
00000100
00000000
00001000
00000000
00000010
,
00000000
00000100
00000000
00001000
00000000
00020000
00000000
00000000
00000000
00000000
00000000
00000000
,
00030100
00000000
00100000
00000000
00000100
00000000
00100000
00000000
00000000
00000000
00000000
00000000
,
00100000
00000000
00100000
00000000
00011000
00000000
00100000
00000000
00000000
00000000
00000000
00000000
,
00110000
00000000
00010000
00000000
00001000
00000000
00001100
00000000
00010000
00000000
00001000
00000000
,
00101000
00000000
00110000
00000000
00011000
00000000
00001100
00000000
00010100
00000000
00011000
00000000
,
01001000
00000000
00001000
00000000
00010000
00000000
00100000
00000000
01001000
00000000
01000000
00000000
,
00100000
00000000
00010000
00000000
00101000
00000000
00110000
00000000
01010000
00000000
01100000
00000000
,
00101000
00000000
00011000
00000000
00110000
00000000
01001000
00000000
00110000
00000000
01000000
00100000
,
00010000
00001000
00000000
00101000
00000000
00011000
00000000
00001000
00000000
00010000
00000000
00100000
,
00000000
10000000
00100000
01000000
00010000
00000000
00110000
00000000
01010000
00000000
00010000
01000000
,
00100000
10000000
01000000
00100000
00110000
00000000
10100000
00000000
10000000
00000000
00010000
00000000
,
10000000
00010000
10000000
00010000
10000000
00000000
00010000
00000000
00010000
00100000
00010000
00000000
10000000
00000000
01000000
00000000
,
00100000
00000000
00010000
00000000
01000000
00000000
00100000
00000000
10000000
00100000
10000000
00000000
10000000
00000000
00010000
00100000
,
00001000
00010000
00001000
00000000
00010000
00000000
00100000
00000000
00010000
00100000
01000000
00000000
00100000
00000000
00010000
00000000
,
00001000
00100000
00010000
01000000
00000000
00001000
00010000
00100000
,
01000000
00010000
00100000
00010000
01000000
00100000
00010000
00001000
,
00000000
00000000
00002000
00000000
02003000
00000000
03100000
01000000
,
00001000
00012000
00000000
00000000
00003100
00000000
00001000
00001000
,
00000000
00000000
00100000
00000000
00010000
00100000
00001000
00000000
,
00000100
00001000
00000200
00000000
00100000
00000000
00010300
00000000
,
00011000
00000000
00100000
00100000
00000100
00001000
00010000
00100000
,
00000000
00010000
00000100
00000000
00010100
00000000
00010000
00000100
,
00001000
00000000
00001010
00001000
00000010
00000100
00000110
00000000
,
00001000
00010000
00020100
00000000
00000100
00000000
00030100
00000000
,
00000000
00010000
00000010
00010000
00000010
00000000
00010000
00000000
00000010
00000000
00000100
00000000
00001000
00000000
00000100
00000000
,
00000001
00001000
00000100
00000010
00000100
00001000
00000001
00000100
,
00001000
00000100
00000001
00001000
00000100
00000001
00000100
00001000
,
00000001
00000010
00000100
00001000
00000100
00000010
00000001
00000100
,
00000010
00001000
00000010
00000100
00000001
00000010
00000100
00001000
,
00000100
00001000
00000010
00000100
00000000
00001100
00000000
00010010
,
00000000
00010000
00000010
00010000
00000000
00001100
00000000
00010010
,
00000000
00010000
00000000
00001010
00000000
00000010
00001000
00000100
,
00000000
00011000
00000000
00000110
00000000
00010000
00000100
00001000
,
00000000
00001100
00000100
00001000
00000000
00100000
00000100
00100000
,
00000000
00000100
00100000
00001000
00000000
00101000
00100000
00001000
,
00010000
00000100
00001000
00001100
00000000
00100000
00100000
00000100
,
00000000
00010000
00001000
00110000
00000000
00010100
00000100
00001000
,
00100000
01000000
00101000
00011000
00000000
01001000
00000000
01000000
,
00100000
00010000
00000000
00101000
00000000
00001000
00100000
00010000
,
00010000
01000000
00100000
00000000
00011000
00000000
00001000
00000000
00100000
00000000
00010000
00000000
00100000
00000000
01000000
00000000
,
00100000
00010000
00001000
00010000
00100000
01000000
00001000
00010000
,
01000000
00010000
00100000
00000000
01000000
00000000
10000000
00000000
00010000
00000000
01000000
00000000
00100000
00000000
10000000
00000000
,
01000000
00010000
10000000
00100000
00010000
10000000
01000000
00010000
,
01000000
10000000
00010000
01000000
10000000
01000000
00010000
10000000
,
00100000
00010000
00100000
10000000
00010000
00100000
10000000
00100000
,
00001000
01000000
00010000
00000000
01000000
00000000
00100000
00000000
00001000
00000000
00100000
00000000
01000000
00000000
00001000
00000000
,
00010000
00100000
01000000
00100000
00010000
00001000
00100000
00010000
,
01000000
00001000
00100000
00000000
01000000
00000000
00100000
00000000
00001000
00010000
00100000
00000000
01000000
00000000
00100000
00000000
,
00001000
00000000
00100000
00000000
01000000
00000000
00001000
00010000
00001000
00000000
01000000
00100000
01000000
00000000
01000000
00010000
,
00100000
00000000
00000100
00010000
00000100
00000000
00000100
00010000
00000100
00010000
00000100
00001000
00000100
00001000
00010000
00100000
,
00010000
00100000
00000200
00000000
00000000
00000000
00000000
00000000
00000000
00000000
00000000
00000000
00000000
00000000
00000000
00000000
,
00000000
00000000
00200000
00000000
,
00000000
00000000
00000000
00000000
,
00000000
00000000
00300300
00000000
;

//---------------dance-single - Copied from----------------
#NOTES:
     dance-single:
     Copied from:
     Easy:
     4:
     0.271,0.363,0.208,0.127,0.000:
0000
0000
0000
0000
,
0000
0000
0000
0000
,
0000
0000
0000
0000
,
0000
0000
0000
0000
,
0000
0000
0000
0000
,
0001
0010
0000
0000
,
0000
0010
0000
0000
,
1000
0001
0000
0000
,
0000
0001
0010
0010
,
2000
3001
0000
0001
,
0000
0010
0010
0000
,
1000
0010
0010
2000
,
3001
0100
0000
0001
,
0001
0001
0010
0010
,
0001
0100
0010
0001
,
0001
0000
0100
0000
0020
0000
0100
0030
,
0000
0010
0000
0010
,
1001
1000
0100
0010
,
0001
0001
0100
0010
,
0010
0100
0001
1000
,
0002
2003
3100
0010
,
0000
0001
0010
0000
,
1000
0100
0010
0001
,
0002
1000
0103
0000
,
1001
0001
0100
0000
,
0010
1010
1000
0100
,
0101
0001
0011
0100
,
2010
0010
3010
0001
,
1000
0100
0100
1000
,
0010
0010
1000
0001
,
1000
0100
0100
0010
,
0100
0100
0100
0100
,
0010
1000
0001
1000
,
0010
0110
1001
0110
,
0001
1000
0100
0010
,
0000
1000
0000
0001
,
0000
1000
0100
0010
,
0000
0001
0000
1000
,
1000
0010
0100
0000
,
0000
0000
0002
2000
,
3003
0000
0000
0010
,
0000
0010
0000
0100
,
0100
0010
0001
1100
,
1010
0100
0000
0000
,
0001
1000
0100
0100
,
1000
1000
0010
0001
,
0100
0010
0000
0200
,
0310
0000
2000
3001
,
0000
0100
0001
0020
,
0130
0000
0002
1003
,
0000
0010
0100
0001
,
0100
1000
0000
0002
,
0103
0001
1000
0010
,
1000
1000
0001
1000
,
0001
0100
1010
1000
,
0010
0001
0010
0100
,
0010
0100
0010
0001
,
0011
1000
1010
0001
,
0001
0010
0001
0100
,
1000
0002
1000
0203
,
0301
0100
0001
0100
,
0010
0000
0100
0001
,
0100
0000
0000
0000
,
0001
1000
0001
0100
,
0100
0001
0000
0000
,
0001
0001
1000
2000
,
3010
0100
0000
0000
,
0001
0010
0100
0001
,
0100
0000
1000
0001
,
0100
0010
1000
0010
,
0010
0000
2020
3030
0022
0033
1000
0000
,
1000
0001
1000
0000
,
0010
0000
2200
3300
2020
0000
3030
0000
,
1000
0010
0010
1000
,
0010
0000
0022
0033
0202
0000
0303
0000
,
0100
1000
0100
0000
,
0001
0001
0000
1000
,
0000
1100
0000
2002
,
3003
0000
0000
1000
,
0001
1000
0100
0001
,
0201
0310
0001
0010
,
1100
1000
0001
0010
,
0110
0001
0100
0001
,
1000
0010
2001
3010
,
0110
1001
0001
0001
,
0001
2001
3001
0100
,
1000
1100
1001
0100
,
0000
0100
0001
0001
,
0011
0000
1100
0000
,
1001
0000
0110
0000
,
0010
0000
1000
0000
,
1001
0000
0010
0000
,
1100
0000
0101
0000
,
1100
0000
0101
0000
,
1000
0000
0010
0000
,
0101
0000
1100
0000
,
0001
0000
0010
0000
,
1002
1000
1003
1000
,
0200
0000
1000
0000
,
0010
0000
0000
0000
0000
0000
0000
0000
0001
0300
0000
0000
0200
0000
0000
0000
,
0000
0010
0300
0100
,
0010
0000
0000
1000
,
1000
0102
0203
0301
,
0110
0000
0000
1000
,
0001
0001
0001
1000
,
1000
1000
0001
1000
,
0002
1000
1000
1003
,
0100
0000
0000
0001
,
0100
0000
0001
0000
,
0000
0000
0100
1000
,
0020
0130
0100
1010
,
0101
0001
2000
0001
,
3001
0001
0100
0000
,
1001
0000
0010
1000
,
1001
0110
1000
1000
,
0010
0100
0100
0010
,
0010
0110
0001
0001
,
1100
0100
0000
0000
,
0001
0011
1000
0000
,
0000
0000
0001
0000
,
0000
0000
1000
0000
,
0000
0001
0001
0010
,
0010
0100
0010
0100
,
0010
0100
0010
1001
,
1000
0001
1000
1000
,
0001
0001
0001
0100
,
0010
0001
0001
0010
,
0100
0100
0100
0001
,
2000
0000
3000
0000
0002
0000
0000
0003
,
1000
0010
0001
0010
,
0001
1000
0011
1100
,
0001
0000
0002
2003
,
3000
1000
0000
0000
,
0100
1000
0000
0010
,
1000
0100
0100
1000
,
1000
0001
0000
0100
,
0100
1000
1000
0001
,
0100
0100
0001
0001
,
1000
1000
1000
0001
,
0001
1001
0000
0000
,
0110
0000
0000
0000
,
0000
0000
0100
0010
,
0100
1000
1000
1000
,
0001
1000
0001
1000
,
0001
0100
0010
0010
,
0000
0000
1000
0000
,
0001
0000
1100
0110
,
0001
0000
0001
1000
,
1000
1000
0001
0001
,
0101
0001
0000
1000
,
1000
0001
0001
0010
,
0100
0100
0100
0100
,
0001
0100
1000
0010
,
1000
0001
0010
1000
,
0100
0100
1000
0100
,
0001
2000
0000
3010
,
0110
0000
0000
0101
,
0001
0001
1000
1000
,
1000
0001
1010
0011
,
1000
0010
0000
1100
,
0001
0010
0100
0100
,
0002
1003
0000
0010
,
0000
0010
0000
0010
,
0000
0010
0000
0000
,
1000
0000
0001
0000
,
1001
0000
1001
0000
,
0011
0000
1100
0000
,
0101
0000
1100
0000
,
1001
0000
0010
0000
,
0010
0000
0110
0000
,
1010
0000
1001
0000
,
0100
1010
0000
0100
,
0000
0010
1100
0000
,
0100
0100
0101
0000
,
0001
0001
1000
0001
,
0100
0010
0001
0001
,
1000
0100
0100
0010
,
1000
0100
0000
0100
,
0001
0010
0001
0100
,
0000
2000
3002
0013
,
0100
0000
1000
0100
,
0000
0001
0010
0100
,
1000
2000
0001
3010
,
0110
1001
1000
0010
,
0000
0100
0101
0001
,
0010
1010
1000
1100
,
0010
0102
0100
0103
,
0000
1000
1000
0010
,
1000
0010
0010
1000
,
0001
1000
0010
0010
,
1000
0010
0010
1000
,
0100
0100
1000
0010
,
0100
1000
0000
0000
,
0000
1000
0000
0000
,
0000
0000
0000
0010
,
0000
0000
0000
0100
,
0000
1000
0000
1000
,
0000
0001
0000
0001
,
0010
0100
0000
0001
,
0000
0100
0000
1000
,
0010
1010
0000
0000
,
0010
0000
0000
0010
,
0100
1100
0010
0010
,
0010
1000
0010
1000
,
0010
0010
1000
0100
,
0010
0001
1000
0010
,
0010
1000
0001
1000
,
0100
0100
1000
0001
,
1000
0001
1000
0001
,
0100
0001
0100
0010
,
0001
0001
1000
0001
,
1000
0001
1000
0001
,
0001
1000
1000
1000
,
0010
0000
0000
0000
,
0000
0000
0002
0000
,
0000
0000
0000
0000
,
0000
0000
0003
0000
;

//---------------dance-single - Copied from Copied from----------------
#NOTES:
     dance-single:
     Copied from Copied from:
     Medium:
     7:
     0.388,0.440,0.313,0.129,0.007: // measure 1
0000
0000
0000
0000
,  // measure 2
0000
0000
0000
0000
,  // measure 3
0000
0000
0000
0000
,  // measure 4
0000
0000
0000
0000
,  // measure 5
0000
0000
0000
0000
,  // measure 6
0010
1000
0000
0000
,  // measure 7
0001
1000
0000
0000
,  // measure 8
0100
0010
0000
0000
,  // measure 9
1000
0010
1000
1000
,  // measure 10
0200
0000
0310
0000
0001
1000
0010
0000
,  // measure 11
1001
0000
1000
0001
1000
0000
0110
0000
,  // measure 12
0100
0001
1000
0000
1000
0001
0200
0000
,  // measure 13
0310
0000
0001
0000
1000
0100
0010
0000
,  // measure 14
0010
0000
0010
0000
1000
0001
1000
0000
,  // measure 15
0010
1000
0001
0000
1000
0001
0010
0000
,  // measure 16
0010
0000
0001
0100
2000
0000
0001
3000
,  // measure 17
1000
0010
0100
0000
0001
1000
0010
0000
,  // measure 18
0110
0100
0001
1000
,  // measure 19
0010
0110
1001
1000
,  // measure 20
1001
0000
0001
1000
0010
1000
0100
0000
,  // measure 21
0020
0230
0301
1000
,  // measure 22
0001
0000
0010
0001
1000
0000
0010
0000
,  // measure 23
0100
0000
0001
1000
0010
0001
0100
0000
,  // measure 24
0020
0100
0031
0110
,  // measure 25
0110
0000
0010
0000
0001
0000
1000
0010
,  // measure 26
1000
0000
1100
0000
0100
0000
0001
0010
,  // measure 27
0011
0000
0010
0000
1010
1000
0001
0000
,  // measure 28
1200
1000
1300
0010
,  // measure 29
0100
1000
0001
0000
0001
1000
0100
0000
,  // measure 30
1000
0001
1000
0000
0100
0001
0010
0000
,  // measure 31
0100
1000
0001
0000
0001
0001
1000
0000
,  // measure 32
0001
1000
0001
0100
0001
0010
0001
0000
,  // measure 33
1000
0000
0100
0100
0010
0000
0100
0001
,  // measure 34
1000
1001
0110
1001
,  // measure 35
0010
0000
0000
0000
0100
0000
0000
0000
0001
0100
0010
0000
1000
0100
0010
0000
,  // measure 36
0000
1000
0100
0000
1000
0000
0010
0000
,  // measure 37
0000
0001
0100
0000
0001
0100
1000
0000
,  // measure 38
0000
0000
0010
0001
0100
0000
0100
0010
,  // measure 39
0100
0000
1000
0000
0001
0000
0000
1001
,  // measure 40
0000
0110
0000
0000
0020
0000
0200
0000
,  // measure 41
0330
0000
0000
0000
1000
1000
1000
0000
,  // measure 42
0001
0001
0001
0000
0000
1000
0001
0100
,  // measure 43
0001
1000
0010
0101
,  // measure 44
1100
0000
0001
0010
0000
0000
0011
0000
,  // measure 45
0010
0100
0001
0001
,  // measure 46
0100
0010
0100
0001
1000
0000
0010
1000
,  // measure 47
0001
0100
1000
0000
0000
0000
0002
0000
,  // measure 48
1003
0000
0200
0310
,  // measure 49
0000
0000
0001
1000
0010
0100
2000
0000
,  // measure 50
3001
0000
0020
0130
,  // measure 51
0000
0000
1000
0100
0001
0100
0010
0000
,  // measure 52
0001
0100
0000
0020
,  // measure 53
0031
0000
0010
0001
0100
0000
1000
1000
,  // measure 54
0100
0000
0100
0001
0010
0000
0100
1000
,  // measure 55
0010
0001
1100
0100
,  // measure 56
1000
0010
1000
0001
,  // measure 57
1000
0001
1000
0010
,  // measure 58
1010
0000
0100
0000
1100
0000
0010
0001
,  // measure 59
0010
1000
0010
0001
,  // measure 60
0100
0020
0100
0032
,  // measure 61
0013
0001
0010
0001
,  // measure 62
1000
1000
0001
0010
,  // measure 63
0001
1000
1000
0010
,  // measure 64
0010
0000
0100
0100
0010
0000
0001
0010
,  // measure 65
0001
0020
0000
0030
,  // measure 66
0010
0010
0100
0200
,  // measure 67
1300
0000
0001
0000
1000
0100
1000
0000
,  // measure 68
0010
1000
0001
0010
,  // measure 69
0001
0000
0100
0010
,  // measure 70
0001
0000
1000
0010
0100
0010
1000
0000
,  // measure 71
1000
0000
2200
3300
2020
3030
0100
0010
,  // measure 72
0100
1000
0010
0000
0100
0000
0001
0000
,  // measure 73
1000
0000
0202
0303
2200
0000
3300
0000
,  // measure 74
0100
0001
1000
0001
1000
0000
0100
0000
,  // measure 75
1000
0000
2020
3030
0022
0000
0033
0000
,  // measure 76
0001
1000
0100
0010
0001
0000
1000
0000
,  // measure 77
0010
0100
0010
0000
0001
0000
0100
0000
,  // measure 78
0000
0101
0000
0220
,  // measure 79
0330
1001
0000
1000
0001
1000
0100
0000
,  // measure 80
0010
0001
0100
0010
0001
0000
0010
1000
,  // measure 81
0012
0000
1003
0000
0010
0001
1000
0010
,  // measure 82
0101
0000
0100
1000
0010
0000
1000
0001
,  // measure 83
1001
0010
0001
0010
,  // measure 84
0100
0001
1000
0010
0210
0000
1300
0000
,  // measure 85
1001
0000
0000
0000
0110
0000
0000
0000
0010
0000
0100
0000
0010
0100
0010
0000
,  // measure 86
0010
0210
0310
0001
,  // measure 87
0100
0101
0110
0001
,  // measure 88
1000
0100
0001
0000
0010
0000
0010
0000
,  // measure 89
1010
0000
0101
1000
,  // measure 90
0110
0010
1001
0001
,  // measure 91
1000
0110
0100
1001
,  // measure 92
0110
0001
1000
1100
,  // measure 93
0101
0010
0011
1001
,  // measure 94
0101
1000
0011
0001
,  // measure 95
0100
0010
1000
1000
,  // measure 96
0011
0000
0101
0000
,  // measure 97
0010
0000
1000
0000
,  // measure 98
0120
0000
0100
0000
0130
0010
0100
1000
,  // measure 99
0002
0000
0100
0000
,  // measure 100
1000
0000
0000
0000
0000
0000
0000
0000
0010
0003
0000
0000
0002
0000
0000
0000
,  // measure 101
0000
1000
0003
0001
,  // measure 102
1000
0000
0001
1000
0000
0000
0100
0000
,  // measure 103
0100
0021
0032
0013
,  // measure 104
1001
0000
1001
0100
,  // measure 105
0010
0000
0010
0000
0010
0000
0100
0010
,  // measure 106
0100
0000
0100
0100
0010
0000
0100
1000
,  // measure 107
0020
0100
0100
0130
,  // measure 108
0001
0000
0000
0010
,  // measure 109
0001
1000
0010
1001
,  // measure 110
0000
0000
0001
0100
,  // measure 111
2000
0000
3001
0000
0001
1000
1100
0000
,  // measure 112
0011
0001
0010
0000
0200
0000
0010
0000
,  // measure 113
0310
0000
0000
0000
0010
0000
0010
0100
0001
0000
0000
0000
0011
0000
0000
0000
,  // measure 114
0110
0000
0000
0000
1000
0000
0100
1000
0010
0000
0000
0000
0100
0000
0000
0000
,  // measure 115
0110
0000
1001
0000
0100
0010
0100
0000
,  // measure 116
1000
1000
0001
0001
0001
0000
1000
0001
,  // measure 117
1000
0000
1001
0000
0010
0100
0010
0000
,  // measure 118
0101
0001
1000
1010
,  // measure 119
0010
0000
1010
0010
0100
0000
0110
0000
,  // measure 120
1001
0000
0011
0001
0010
0000
0110
0000
,  // measure 121
1001
0000
0100
0010
0100
0000
0001
0010
,  // measure 122
0100
1000
0010
0000
0010
0000
1000
0001
,  // measure 123
1000
0100
0001
0100
1000
0000
0001
0100
,  // measure 124
1000
0100
0001
0000
1000
0000
0110
0000
,  // measure 125
0100
0001
0010
0000
0100
0001
0100
0000
,  // measure 126
0010
1000
0010
0000
0010
0000
0001
0000
,  // measure 127
1000
0000
0010
0100
0010
0000
1000
0000
,  // measure 128
0001
1000
0001
0000
0001
0000
0010
0000
,  // measure 129
0200
0000
0300
0000
0020
0000
0000
0030
,  // measure 130
0100
1000
0010
1000
,  // measure 131
0010
0001
0100
0000
1010
0000
0101
0000
,  // measure 132
0010
1000
0020
0230
,  // measure 133
0300
0100
0100
0000
0001
0000
1000
0000
,  // measure 134
0001
0000
0100
0000
0010
0000
1000
0001
,  // measure 135
0100
0000
0001
0100
0001
0000
0100
0010
,  // measure 136
0100
0000
0010
1000
0000
0000
0001
0100
,  // measure 137
0001
0000
0100
1000
0100
0000
0010
0001
,  // measure 138
0001
0001
0010
0010
,  // measure 139
0100
0010
0100
0010
0100
0000
0010
0000
,  // measure 140
0010
0000
0110
0000
0000
1001
0000
0000
,  // measure 141
1001
0000
0000
0000
0000
0110
0000
0000
,  // measure 142
0000
0000
0000
1000
0001
0100
1000
0100
,  // measure 143
0001
1000
0100
0001
0100
0000
0100
0000
,  // measure 144
0010
0000
0100
0000
0010
0001
0100
1000
,  // measure 145
0010
0000
0001
0000
1000
0001
1000
0000
,  // measure 146
0000
0000
0100
0000
,  // measure 147
0110
0000
0101
1001
,  // measure 148
0010
0000
0010
0100
,  // measure 149
0110
0100
0010
0010
,  // measure 150
0011
0000
0010
0000
0001
1000
0100
0000
,  // measure 151
0100
0000
0010
1000
0010
0000
1000
0010
,  // measure 152
0001
0000
0001
1000
0001
0000
0001
0000
,  // measure 153
0010
0000
0001
0010
0100
0000
1000
0000
,  // measure 154
0100
0000
0010
0100
1000
0000
0100
0000
,  // measure 155
0001
0000
0001
0000
0100
0000
0001
1000
,  // measure 156
0010
0200
0000
1300
,  // measure 157
1001
0000
0110
0011
,  // measure 158
1000
0000
0010
0000
0100
0010
0100
0000
,  // measure 159
0100
1000
0010
0000
1100
0000
1010
0000
,  // measure 160
0100
0001
1000
0000
1000
0000
0101
0000
,  // measure 161
0010
0001
1000
0000
0001
0100
0001
0000
,  // measure 162
0020
0130
0001
1000
,  // measure 163
0010
0000
1000
0000
0001
1000
0001
0000
,  // measure 164
0010
0000
1000
0010
0100
0000
0000
0000
,  // measure 165
0100
0000
0010
0000
,  // measure 166
0110
1000
0110
0000
,  // measure 167
1010
1000
0101
0000
,  // measure 168
0011
1000
0101
0000
,  // measure 169
0110
0001
1001
0000
,  // measure 170
1001
0010
1001
0001
,  // measure 171
1100
0001
0110
1000
,  // measure 172
0001
1100
0001
0001
,  // measure 173
0010
1000
0101
1000
,  // measure 174
0101
0001
0011
0011
,  // measure 175
0010
0000
0010
1000
0100
0000
0010
1000
,  // measure 176
0001
0000
1000
0001
0010
0000
0010
0001
,  // measure 177
0100
0000
0001
0100
0001
0000
1000
0000
,  // measure 178
0100
1000
0001
0000
1000
0000
0001
0000
,  // measure 179
0010
1000
0010
0001
,  // measure 180
1000
0200
0320
1030
,  // measure 181
0001
0010
0100
0001
,  // measure 182
1000
0010
1000
0001
,  // measure 183
0100
0200
0010
1300
,  // measure 184
1001
0110
0100
1000
,  // measure 185
0000
0001
0011
0010
,  // measure 186
1000
1100
0100
0101
,  // measure 187
1000
0021
0001
0031
,  // measure 188
0000
0000
0100
0010
0100
0000
1000
0001
,  // measure 189
0100
0000
1000
0010
1000
0000
0100
1000
,  // measure 190
0010
0000
0100
0010
1000
0000
1000
0000
,  // measure 191
0100
0000
1000
0000
1000
0001
0100
0000
,  // measure 192
0001
0100
0001
0000
0100
0000
1000
0010
,  // measure 193
0001
0100
0010
1001
,  // measure 194
0010
0100
1001
0010
,  // measure 195
0100
0000
1000
1100
,  // measure 196
0001
0000
0101
0000
0001
0100
0001
0000
,  // measure 197
0101
1100
0010
0100
,  // measure 198
0011
0010
1010
0010
,  // measure 199
1000
0001
0011
0010
,  // measure 200
0000
0001
0000
0100
,  // measure 201
1000
1100
0011
0101
,  // measure 202
1001
0000
1000
0001
1000
0001
1000
0000
,  // measure 203
0001
0000
0101
0000
1000
0001
1000
0000
,  // measure 204
1000
0001
0100
0000
1000
0010
0100
0000
,  // measure 205
1000
0001
0000
0000
1000
0000
0000
0000
0100
0000
0000
0000
0001
0000
0000
0000
,  // measure 206
1000
0000
0010
0001
0100
0000
1000
0001
,  // measure 207
1000
1000
0100
0000
0010
0000
0100
0000
,  // measure 208
0001
1000
0001
0000
0100
0001
0010
0000
,  // measure 209
0100
1000
0010
0000
0100
0100
0010
0000
,  // measure 210
0001
0001
0010
0000
0001
0100
1000
0000
,  // measure 211
0010
1000
0010
0000
0100
0001
0010
0000
,  // measure 212
0100
1000
0010
0000
0100
0001
0010
0000
,  // measure 213
0010
0001
0100
1000
0100
0001
0100
0010
,  // measure 214
1000
0000
0000
0000
,  // measure 215
0000
0000
0020
0000
,  // measure 216
0000
0000
0000
0000
,  // measure 217
0000
0000
0030
0000
;
