#TITLE:Brown Derby Jump;
#SUBTITLE:;
#ARTIST:Cherry Poppin Daddies;
#TITLETRANSLIT:;
#SUBTITLETRANSLIT:;
#ARTISTTRANSLIT:;
#CREDIT:;
#BANNER:;
#BACKGROUND:;
#LYRICSPATH:;
#CDTITLE:;
#MUSIC:ChPD-Brown_derby_Jump.mp3;
#OFFSET:0.080;
#SAMPLESTART:78.680;
#SAMPLELENGTH:21.240;
#SELECTABLE:YES;
#BPMS:0.000=101.230,4.000=202.461,125.000=101.230,129.000=202.461,217.000=101.230,221.000=202.461,277.000=101.230,281.000=202.461,305.000=101.230,309.000=202.461,333.000=101.230,337.000=202.461,425.000=101.230,427.500=202.461,527.000=101.230,531.000=202.461,555.000=101.230,558.500=202.461;
#STOPS:;
#BGCHANGES:;

//---------------dance-single - ----------------
#NOTES:
     dance-single:
     :
     Hard:
     10:
     0.557,0.620,0.216,0.188,0.473: // measure 1
0000
0000
0000
0000
0000
0000
0000
0100
,  // measure 2
0001
1000
0010
0100
,  // measure 3
0001
0000
0000
0000
0000
0000
1000
0000
0000
0000
0000
0000
0100
0000
0000
0010
0000
0000
0000
0000
0000
0000
1001
0000
,  // measure 4
0000
0000
0000
0001
0000
0000
1000
0000
0010
0100
0000
0000
,  // measure 5
0001
0000
0000
0000
0010
0000
0100
0000
0000
0000
1100
0000
0000
0000
0000
1001
0000
0000
0000
0000
0000
0110
0000
0000
,  // measure 6
0000
0000
0000
0001
0000
0000
1000
0000
0010
0100
0000
0000
,  // measure 7
0001
0000
0010
1000
0000
0000
0010
0000
0001
0000
0000
1001
,  // measure 8
0000
0001
0001
0010
,  // measure 9
0010
1000
1000
0100
,  // measure 10
0100
0000
0000
0001
0000
0000
0010
0000
1000
0001
0000
0000
,  // measure 11
0100
0000
0010
0001
0000
0000
0100
0000
0010
1000
0000
1001
,  // measure 12
0000
0000
1000
0010
0000
0010
0100
0000
0100
0001
0000
0001
,  // measure 13
0010
0000
0000
0000
0100
0000
0000
0000
0000
1001
0000
0000
0000
0000
0000
0110
0000
0000
0000
0000
2002
0000
0000
0000
,  // measure 14
3003
1000
0010
0100
,  // measure 15
0001
1000
0100
0010
,  // measure 16
0001
0000
0001
0010
0000
0010
0100
0000
0100
1000
0000
0000
,  // measure 17
1000
0020
0000
0000
0100
0000
0100
0000
,  // measure 18
1030
0001
2000
0001
,  // measure 19
0000
0001
0000
0001
,  // measure 20
3100
0010
0002
0000
,  // measure 21
1000
0000
1000
0000
,  // measure 22
1003
0010
0100
0001
,  // measure 23
1001
0001
0010
0110
,  // measure 24
0010
0000
0000
0001
0000
1000
0100
0000
0000
0010
0000
0001
,  // measure 25
0100
0020
0000
0000
1000
0000
1000
0000
,  // measure 26
1030
0100
0010
1000
,  // measure 27
0001
0000
0010
0100
0000
2002
0000
0000
,  // measure 28
3003
0000
1000
0010
,  // measure 29
0001
0000
0010
0100
0000
2002
0000
0000
,  // measure 30
3003
0001
0001
0010
,  // measure 31
0010
0000
1000
0010
0000
0000
0110
0000
,  // measure 32
0100
0010
0100
0020
0000
0000
0000
0000
0000
0000
0000
0000
,  // measure 33
0000
0000
0000
0031
0000
0100
0001
0000
0000
1000
0000
0010
,  // measure 34
0100
0000
0001
0010
0000
0010
0100
0000
0100
0000
0000
1001
,  // measure 35
0000
0000
1000
0010
0000
0010
0100
0000
0100
0001
0000
0001
,  // measure 36
0010
0000
0000
0000
0010
0000
0100
0000
0000
0000
1001
0000
0000
0000
0000
0110
0000
0000
0000
0000
0000
1001
0000
0000
,  // measure 37
0000
0001
0010
0100
,  // measure 38
1000
0001
0100
0010
,  // measure 39
1001
1000
0100
0010
,  // measure 40
0001
0100
0010
1000
,  // measure 41
1000
0001
0000
0000
1002
0000
0000
0000
0000
1000
0000
0000
,  // measure 42
0000
1000
0000
1000
,  // measure 43
0013
0100
2000
0000
,  // measure 44
0001
0000
0001
0000
,  // measure 45
3001
0100
0010
1000
,  // measure 46
1001
1000
0100
0110
,  // measure 47
0100
0000
0000
1000
0000
0001
0010
0000
0000
0100
0000
1000
,  // measure 48
0010
0200
0000
0000
0001
0000
0001
0000
,  // measure 49
0301
0010
0100
0001
,  // measure 50
1000
0000
0100
0010
0000
2002
0000
0000
,  // measure 51
3003
0000
0001
0100
,  // measure 52
1000
0000
0100
0010
0000
2002
0000
0000
,  // measure 53
3003
1000
1000
0100
,  // measure 54
0100
0000
0001
0100
0000
0000
0110
0000
,  // measure 55
0010
0100
0010
0200
0000
0000
0000
0000
0000
0000
0000
0000
,  // measure 56
0000
0000
0000
0301
0000
0000
0010
0000
1000
0001
0000
0000
,  // measure 57
0010
0000
0001
1000
0000
0000
0010
0000
0100
0000
0000
0001
,  // measure 58
0010
0000
0010
0001
0000
0000
1000
0000
0010
0100
0000
0000
,  // measure 59
0001
0000
0010
0100
0000
0000
1000
0000
0001
0000
0000
0000
,  // measure 60
1000
0010
0000
0010
1000
0000
0100
0000
0001
0100
0000
0000
,  // measure 61
0100
0000
1000
0100
0000
0000
0010
0000
0001
0000
0000
0000
,  // measure 62
1001
0000
0000
0000
0010
0000
0000
0000
2000
0000
0000
0000
,  // measure 63
0002
0000
0000
3003
,  // measure 64
0000
0000
0000
0001
0000
0000
0010
0000
1000
0001
0000
0000
,  // measure 65
0010
0000
0001
1000
0000
0000
0010
0000
0100
0000
0000
0001
,  // measure 66
0010
0000
0010
0001
0000
0000
1000
0000
0010
0100
0000
0000
,  // measure 67
0001
0000
0010
0100
0000
0000
1000
0000
0001
0000
0000
1000
,  // measure 68
0010
0000
0010
1000
0000
0000
0100
0000
0001
0100
0000
0000
,  // measure 69
0100
0000
1000
0100
0000
0000
0010
0000
0001
0000
0000
0100
,  // measure 70
0010
0000
0100
0000
0010
0000
0200
0000
0000
0000
0000
0000
0000
0000
0000
1000
0000
0000
0000
0000
0000
0000
0000
0000
,  // measure 71
0000
0301
0001
0000
0001
0000
0010
0000
,  // measure 72
0010
1000
1000
0100
,  // measure 73
0100
0001
0010
0100
,  // measure 74
1000
0001
0100
0010
,  // measure 75
1000
0001
1000
0100
,  // measure 76
0010
0001
1000
0010
,  // measure 77
0100
0002
0000
0000
,  // measure 78
0100
1003
0010
0100
,  // measure 79
0001
0000
0000
1000
0000
0000
0100
0010
0000
0001
0000
0000
,  // measure 80
0100
0010
0000
1000
0001
0000
0010
0000
0000
0100
0000
0000
,  // measure 81
1000
0000
0000
0100
0010
0000
0001
1000
0000
0010
0000
0000
,  // measure 82
0100
0010
0000
0000
1000
0000
0001
0000
0000
0010
0000
0000
,  // measure 83
0100
0000
0000
1000
0001
0000
0100
0000
0000
0010
0000
0000
,  // measure 84
0001
0010
0100
2000
0000
0000
0000
0000
0000
0000
0000
0000
,  // measure 85
0100
3001
0000
1000
,  // measure 86
1000
0001
0010
0100
,  // measure 87
0100
0000
0000
0010
0000
0000
0001
1000
0000
0020
0000
0000
,  // measure 88
0000
0000
2030
0001
,  // measure 89
3001
0000
0000
0001
0000
0010
0000
0000
0000
1002
0000
0000
,  // measure 90
0000
0000
1003
0010
0100
0001
1000
0000
,  // measure 91
1001
0000
0000
0000
0001
0010
0100
2000
0000
0001
0000
0000
,  // measure 92
0001
0000
0000
3001
0000
0000
0110
0000
0000
0010
0000
1000
,  // measure 93
0001
0000
1000
0010
0000
0000
1000
0000
0000
1000
0000
0000
,  // measure 94
0001
0001
0010
0010
,  // measure 95
0100
0010
0000
0100
0000
0000
1000
0000
0000
0001
0000
0000
,  // measure 96
1000
0010
0100
0010
,  // measure 97
1000
0010
0001
0010
,  // measure 98
1000
0001
0010
0100
,  // measure 99
1000
0000
0000
0001
0000
0000
1000
0000
0010
0100
0000
0000
,  // measure 100
0001
0000
2000
0000
0000
0000
0001
0000
0000
0001
0000
0000
,  // measure 101
3001
0000
1000
1000
,  // measure 102
0001
0001
0010
0010
,  // measure 103
0100
0010
0000
0100
0000
0000
1000
0000
0000
0001
0000
0000
,  // measure 104
1000
0010
0100
0010
,  // measure 105
1000
0010
0001
0010
,  // measure 106
1000
0001
0010
0100
,  // measure 107
0010
0000
0100
0000
0010
0000
0200
0000
0000
0000
0000
0000
0000
0000
0000
0000
0000
0000
0000
0000
0000
0300
0000
0000
,  // measure 108
0000
0000
0000
0000
0000
0000
0000
1000
0000
0001
0000
0000
0000
0000
0000
0000
0000
0000
1000
0000
0000
0000
0000
0000
,  // measure 109
0010
0000
0001
1000
0000
0000
0010
0000
1000
0001
0000
0000
,  // measure 110
0010
0000
0000
0000
0100
0000
0000
0000
0000
0110
0000
0000
0000
0000
0000
0000
0000
0000
0001
0000
0000
0000
0000
0000
,  // measure 111
0100
0000
0000
0000
1000
0000
0001
0000
0000
0000
0000
0000
0100
0000
0000
0000
0010
0000
0000
0000
0000
0110
0000
0000
,  // measure 112
0000
1001
0000
0000
0110
0000
0000
0000
0000
1000
0000
0000
,  // measure 113
0010
0000
0001
1000
0000
0000
0010
0000
1000
0001
0000
0000
,  // measure 114
0010
0000
0000
0000
0100
0000
0000
0000
0000
0110
0000
0000
0000
0000
0000
0000
0010
0000
0100
0000
0000
0000
0100
0000
,  // measure 115
0001
0000
0001
0010
0000
0000
0010
0000
0200
0000
0000
0000
,  // measure 116
0010
0000
0000
0310
0000
0001
0010
0000
0010
0001
0000
0000
,  // measure 117
1000
0000
0010
0100
0000
0000
0001
0000
0010
0100
0000
0000
,  // measure 118
1000
0000
0001
0000
0000
1000
0010
0000
0010
1000
0000
0000
,  // measure 119
0100
0000
0001
0100
0000
0000
0100
0000
1000
0100
0000
0000
,  // measure 120
0010
0000
0001
0000
0000
0001
1000
0000
1000
0001
0000
0000
,  // measure 121
0010
0000
1000
0010
0000
0000
0010
0000
0001
0010
0000
0000
,  // measure 122
0001
0000
1000
0000
0000
0000
0000
0010
0000
0100
0000
0000
,  // measure 123
0001
0000
1000
0000
0000
0100
0000
0010
0000
0000
0001
0000
,  // measure 124
1000
0000
0000
0010
0000
0000
0001
0000
1000
0020
0000
0000
,  // measure 125
0100
0100
0100
0130
,  // measure 126
1000
0001
0010
0100
,  // measure 127
1000
0000
0001
0100
0000
0000
0010
0000
1000
0100
0000
0010
,  // measure 128
0001
0000
0011
0000
0000
0001
0100
0000
0100
0010
0000
0010
,  // measure 129
1000
0000
1010
0000
0000
0010
1000
0000
0100
0010
0000
0010
,  // measure 130
0100
0000
0110
0000
0000
0000
0001
0000
0000
0010
0000
0000
,  // measure 131
0100
0000
0000
1000
0000
0000
0010
0000
1000
0001
0000
0001
,  // measure 132
1000
0000
1001
0000
0000
1000
0001
1000
0001
1000
0000
0000
,  // measure 133
0000
0000
0000
1000
,  // measure 134
0010
0000
0000
0100
0000
0000
0001
0000
0000
1000
0000
0100
,  // measure 135
0010
0000
0001
0000
0000
0100
0010
0000
1000
0001
0000
0010
,  // measure 136
0000
0000
0100
0000
0000
1000
0000
0000
0100
0010
0000
0001
,  // measure 137
1000
0000
0010
0000
0000
0100
0010
0000
0000
1000
0000
0001
,  // measure 138
0000
0000
0010
0000
0000
0100
0000
0000
1000
0001
0000
0100
,  // measure 139
0000
0000
0000
0010
0100
0001
0010
0100
0010
2002
0000
0000
,  // measure 140
0000
0000
0000
0000
,  // measure 141
3003
0000
0000
0000
;
