#TITLE:You Need A Lover;
#SUBTITLE:;
#ARTIST:Tommy K.;
#TITLETRANSLIT:;
#SUBTITLETRANSLIT:;
#ARTISTTRANSLIT:;
#CREDIT:;
#BANNER:You Need A Lover-bn.png;
#BACKGROUND:You Need A Lover-bg.png;
#LYRICSPATH:;
#CDTITLE:cd.png;
#MUSIC:You Need A Lover.mp3;
#OFFSET:-5.150;
#SAMPLESTART:72.210;
#SAMPLELENGTH:12.000;
#SELECTABLE:YES;
#BPMS:0.000=142.950,32.000=143.220,80.000=142.970;
#STOPS:224.000=0.839
;
#BGCHANGES:;

//---------------dance-single - ----------------
#NOTES:
     dance-single:
     :
     Hard:
     7:
     0.487,0.455,0.284,0.313,0.000:
1000
0001
1000
0000
0001
1000
0001
0000
,
0100
0010
0100
0000
1000
0010
0100
0000
,
0001
0100
0010
0000
1000
0010
0100
0000
,
2002
3003
0110
1001
,
0001
1000
0001
0000
1000
0001
1000
0000
,
0010
0100
0010
0000
0001
0100
0010
0000
,
1000
0010
0100
0000
0001
0100
0010
0000
,
2002
3003
0110
1001
,
0010
0100
0010
0000
0001
0100
0010
0000
,
1000
0010
0100
0000
1002
0000
0103
0000
,
0010
1000
0001
0000
0100
0010
0100
0000
,
0210
0301
2010
3100
,
0010
1000
0010
0000
0100
0001
0100
0000
,
0010
0100
0001
1000
0100
0010
0001
0000
,
1000
0010
1000
0000
0001
1000
0010
0000
,
2000
0000
0000
3000
,
0001
1000
0010
0000
1000
0001
0010
0000
,
0001
0100
0010
0000
0100
0001
0100
0000
,
0010
1000
0100
0000
0010
0001
0100
0000
,
2002
3003
0010
0010
,
1000
0010
1000
0000
0001
0100
0010
0000
,
1000
0001
0010
0000
0100
1000
0010
0000
,
1000
0001
0010
0000
0001
0100
0010
0000
,
2002
0003
0001
3001
,
2002
0000
0000
3003
,
0001
1000
0010
1000
,
0010
1000
0010
0000
0100
0001
0100
0000
,
0010
1000
0001
0010
0100
1000
0010
0000
,
1001
0000
0010
1000
0100
0010
0001
0000
,
1001
0000
0010
1000
0001
0100
0010
0000
,
1000
0010
1000
0000
0001
0100
0010
0000
,
0010
0100
0110
0000
0001
1000
1001
0000
,
2000
0010
0001
3010
,
0002
1000
0100
1003
,
1000
0010
1000
0000
0001
0100
0010
0000
,
2002
3003
0001
1000
,
0010
1000
0020
0000
0130
0001
0200
0000
,
0310
1000
0002
0000
0103
0010
0200
0000
,
0310
0100
0010
0100
0000
0001
1000
0010
,
2000
0000
3001
1001
,
0100
0010
0100
0000
1000
0010
0100
0000
,
0001
0100
0010
0000
2001
0000
3010
0000
,
0100
0001
1000
0000
0010
0100
0010
0000
,
0120
1030
0102
0013
,
0100
0001
0100
0000
0010
1000
0010
0000
,
0100
0010
1000
0001
0010
0100
1000
0000
,
0001
0100
0001
0000
1000
0001
0100
0000
,
1002
0103
2001
3010
,
1000
0010
0100
0000
0010
0100
0010
0000
,
1000
0001
1000
0000
2001
0000
3010
0000
,
0100
0001
0100
0000
0010
1000
0010
0000
,
2010
3100
0102
0103
,
0010
0100
0001
0000
0100
0010
1000
0000
,
0001
1000
0010
1000
0001
0010
0100
0000
,
0010
0001
1000
0000
0010
1000
0001
1000
,
0000
1001
0000
1001
0000
0010
1000
0000
,
2002
3003
1001
0000
;

//---------------dance-single - ----------------
#NOTES:
     dance-single:
     :
     Challenge:
     9:
     0.607,0.616,0.408,0.341,0.379:
0010
1000
0000
0001
0000
0001
0000
1000
0000
1000
0000
0010
0100
0000
0001
0000
,
1000
0010
0000
0100
0000
0100
0000
0001
0000
0001
0000
1000
0010
0000
0100
0000
,
0001
0100
0000
0010
0000
0010
0000
0100
0000
0100
0000
0001
1000
0000
0100
0000
,
2200
3300
0110
1001
,
0010
0001
0000
1000
0000
1000
0000
0010
0000
0010
0000
0100
0001
0000
1000
0000
,
0001
0100
0000
0010
0000
0010
0000
0100
0000
0100
0000
0010
0100
0000
0001
0000
,
1000
0010
0000
0100
0000
0100
0000
0001
0000
0001
0000
1000
0100
0000
0010
0000
,
0022
0000
0033
0000
0001
0101
1001
0000
,
0010
0100
0001
2000
0000
3010
0100
0002
,
0000
0013
0100
2000
0000
3001
1001
0000
,
0010
1000
0001
0010
0000
0001
1000
0020
,
0000
1030
0001
1001
0000
0010
1001
0000
,
0001
1000
0010
0200
0000
0301
0010
0200
,
0000
1300
0010
0100
0000
0100
0101
0000
,
0010
1000
0001
2000
0000
3010
1000
1010
,
0000
1010
0000
1010
0000
1010
1001
0000
,
0100
0001
0000
1000
0000
1000
0000
0001
0000
0001
0000
0100
0010
0000
1000
0000
,
0001
0100
0000
0010
0000
0010
0000
1000
0000
1000
0000
0001
0100
0000
0010
0000
,
1000
0010
0000
0100
0000
0100
0000
0010
0000
0010
0000
1000
0001
0000
0010
0000
,
0022
0033
0110
1001
,
0100
1000
0000
0001
0000
0001
0000
0100
0000
0100
0000
0010
1000
0000
0001
0000
,
1000
0010
0000
0100
0000
0100
0000
0010
0000
0010
0000
0100
0010
0000
1000
0000
,
0001
0100
0000
0010
0000
0010
0000
1000
0000
1000
0000
0001
0010
0000
0100
0000
,
2100
0000
3001
0001
1000
0010
1000
0002
,
0000
0103
1001
0010
,
0100
0000
0001
1000
0010
0100
0010
0100
,
0000
0010
0000
0100
0000
0010
0100
0000
,
0101
0000
0010
1000
0001
0010
0100
1100
,
0000
0100
1000
0010
0100
0001
1000
1001
,
0000
0001
0010
0100
1000
0010
1010
0000
,
0010
1000
0010
0000
0100
0000
0010
1000
0000
1000
0000
0001
0100
0000
1001
0000
,
1000
0001
1000
0000
0010
0000
0100
0010
0000
0010
0000
0100
0001
0000
1001
0000
,
1000
0010
0000
0010
0000
0010
0100
0010
,
0000
0100
0001
1000
0000
0010
1001
0000
,
0001
1000
0001
0000
0001
1000
0010
0000
,
2001
0010
0001
3010
,
0010
0100
0001
0000
0001
1000
0010
0000
,
0010
0100
0001
0000
0001
1000
0010
0000
,
0010
0100
0001
0010
0000
0001
0010
0001
,
1001
0000
0010
0000
0010
1000
1001
0000
,
0100
0010
1000
0002
0000
0103
0010
2000
,
0000
3100
0010
0002
0000
1003
1001
0000
,
0100
0001
1000
0100
0000
1000
0001
0200
,
0000
0301
1000
1001
0000
0100
1001
0000
,
1000
0001
0100
0020
0000
1030
0100
0020
,
0000
0031
0100
0010
0000
0010
1010
0000
,
0100
0001
1000
0002
0000
0103
0001
0201
,
0000
0302
0000
0103
0000
0001
0101
1001
,
0010
0100
0001
2000
0000
3001
0010
0200
,
0000
1300
0001
0020
0000
0031
1001
0000
,
0001
0100
0010
2000
0000
3001
0001
0002
,
0000
1003
1000
2000
0000
3010
1001
0000
,
0100
0100
0010
0020
0000
0130
0001
0200
,
0000
0310
1000
0002
0000
1003
1001
0000
,
0100
0010
1000
0002
0000
1003
0100
0010
,
0000
0011
0000
0011
0000
0001
1000
0010
,
0200
0300
1001
0000
;

//---------------dance-single - ----------------
#NOTES:
     dance-single:
     :
     Medium:
     5:
     0.375,0.375,0.152,0.351,0.000:
1000
0000
0001
0000
1000
0010
1000
0000
,
0001
0000
1000
0000
0001
0010
0001
0000
,
1000
0000
0001
0000
1000
0100
1000
0000
,
2002
3003
0001
0001
,
1000
0000
0001
0000
1000
0100
1000
0000
,
0010
0000
1000
0000
0001
0100
0001
0000
,
1000
0000
0010
0000
1000
0001
0100
0000
,
2002
3003
1000
1000
,
0001
1000
0100
0010
,
0001
1000
0001
0000
2002
0000
3003
0000
,
0010
0010
0100
0100
,
0020
0000
0230
0000
,
0301
0001
1000
1000
,
0001
1000
1001
0000
,
0001
0000
1000
0000
0001
1000
0010
1000
,
0000
1000
0000
1000
0000
0000
0000
0000
,
0001
0000
1000
0000
0001
0100
0001
0000
,
1000
0000
0001
0000
1000
0100
1000
0000
,
0001
0000
1000
0000
0001
0010
0001
0000
,
2002
3003
1000
1000
,
0001
0000
1000
0000
0001
0010
0001
0000
,
0100
0000
0001
0000
1000
0010
1000
0000
,
0001
0000
0100
0000
0001
1000
0010
0000
,
2002
3003
0001
1000
,
0002
0000
2000
0000
,
0000
0000
0000
3003
,
0001
0001
1000
1000
,
0001
0000
1000
0001
1000
0000
0010
0000
,
1001
0000
0001
1000
0001
0000
0010
0000
,
1100
0000
0001
1000
0010
0000
0100
0000
,
0101
0000
0100
0000
0100
0100
0100
0000
,
0010
0000
0010
0000
0010
0010
0010
0000
,
2000
0000
0100
0000
0010
0000
0001
3000
,
0002
0010
0100
1003
,
1000
0010
1000
0000
0001
0100
0001
0000
,
2002
0000
0000
3003
,
2000
0010
0100
3001
,
0002
0000
0100
0000
0010
0003
1000
0000
,
1000
0001
1000
0000
0001
1000
0001
1000
,
0002
0000
1000
1003
,
1000
0001
1000
0010
,
0100
0001
2002
3003
,
0001
0001
1000
1000
,
0002
0000
2003
0000
,
3010
0020
0130
0200
,
0310
0100
0010
0000
1001
0000
0000
0000
,
0001
0001
1000
1000
,
2002
0003
0001
3001
,
1000
0001
0010
0100
,
1000
0001
1000
0000
2002
0000
3003
0000
,
0100
0100
0010
0010
,
0200
0000
0320
0000
,
1030
2000
3001
0002
,
1003
0001
1001
0000
,
1000
0000
0001
0000
1000
0001
0100
0001
,
0000
0001
0000
0002
0000
0000
0003
0000
,
2000
3000
1001
0000
;

//---------------dance-single - ----------------
#NOTES:
     dance-single:
     :
     Easy:
     3:
     0.244,0.321,0.114,0.152,0.000:
1000
1000
0001
0001
,
1000
0001
1000
0000
,
0001
0001
1000
0001
,
1001
0000
1000
1000
,
0010
0010
0100
0100
,
0010
0100
0010
0000
,
0100
0100
0010
0100
,
0110
0000
0001
0001
,
1000
1000
0001
0000
,
0001
0001
1000
0000
,
0100
0100
0010
0000
,
0110
0000
1001
0000
,
0001
0001
0001
0000
,
1000
0001
1000
0000
,
0001
1000
0001
0000
,
2000
0000
3001
0000
,
0001
1000
0001
0000
,
1000
0010
1000
0000
,
0100
0010
0100
0000
,
1001
0000
1000
1000
,
1000
0001
1000
0000
,
0001
1000
0001
0000
,
0100
0100
0010
0010
,
0110
0000
0100
0100
,
0002
0000
2003
0000
,
0000
0000
0000
0000
,
3000
0000
0000
0000
,
0000
1000
1000
0001
,
1000
0000
0001
1000
,
0001
0000
0100
0100
,
0010
0000
0100
0000
,
0010
0000
0100
0000
,
0010
0000
0010
0000
,
0100
0100
0100
0000
,
0001
0000
1000
0000
,
2002
0000
3003
0000
,
0001
0000
1000
0000
,
0001
0001
0001
0000
,
1000
0000
0010
0000
,
2002
0000
3003
0000
,
1000
0001
1000
0000
,
0001
1000
0001
0000
,
1000
1000
0001
0001
,
2000
3000
2000
3000
,
0001
0001
0001
0000
,
1000
1000
1000
0000
,
0010
0100
0010
0000
,
1001
0000
0000
0000
,
0001
1000
0001
0000
,
1000
0001
1000
0000
,
0010
0010
0010
0000
,
0200
0300
0200
0300
,
0010
0010
0010
0000
,
0100
0100
0100
0000
,
0010
0100
0010
0000
,
2002
3003
2002
3003
,
0002
0003
1001
0000
;
