#TITLE:White Is For You, Black Is For Me;
#SUBTITLE:;
#ARTIST:Claudia VIP;
#TITLETRANSLIT:;
#SUBTITLETRANSLIT:;
#ARTISTTRANSLIT:;
#CREDIT:;
#BANNER:White Is For You, Black Is For Me-bn.PNG;
#BACKGROUND:White Is For You, Black Is For Me-bg.PNG;
#LYRICSPATH:White Is For You, Black Is For Me.lrc;
#CDTITLE:cd.png;
#MUSIC:White Is For You, Black Is For Me.mp3;
#OFFSET:-6.091;
#SAMPLESTART:49.504;
#SAMPLELENGTH:12.000;
#SELECTABLE:YES;
#BPMS:0.000=160.110,244.000=80.055,252.000=160.110;
#STOPS:;
#BGCHANGES:;

//---------------dance-single - ----------------
#NOTES:
     dance-single:
     :
     Hard:
     7:
     0.547,0.509,0.072,0.376,0.009:
2000
0001
0001
3001
,
0020
0100
0100
0130
,
0200
0001
0001
0301
,
2002
0000
3003
0000
,
0010
1000
0001
0100
0001
0010
0002
0000
,
0013
0001
0010
0100
1000
0010
2000
0000
,
3001
1000
0010
0100
0001
0100
0020
0000
,
0130
0001
0010
0100
1000
0010
2000
0000
,
3010
0100
1001
0000
0100
0010
1001
0000
,
0001
0010
0100
0010
0001
1000
1001
0000
,
0010
1000
0000
0010
0000
0010
0000
0010
,
0000
0001
0100
0000
0010
0000
1000
0000
,
0001
1000
0020
0000
1030
0001
0020
0000
,
0031
0010
0001
0100
0010
0100
0001
0000
,
0100
0010
2000
0000
3100
0010
0002
0000
,
0103
0010
1000
0001
0100
0010
1000
0000
,
0010
1000
0200
0000
0310
0001
0200
0000
,
0301
0000
0100
0000
0001
0100
0010
1000
,
0001
0000
1000
0010
1000
0000
0002
0000
,
1003
0000
0010
0100
0001
1000
0010
0000
,
2000
0010
0001
3100
,
0002
1000
0010
0103
,
1000
0001
1000
0000
0010
0100
0010
0000
,
0100
0010
1000
0001
0010
0100
1000
0010
,
2000
0001
0010
3001
,
0002
0100
1000
0013
,
1000
0001
1000
0000
0001
0100
0001
0000
,
0100
0010
0100
0000
0010
1000
0010
0000
,
1000
0000
0010
0000
1000
0000
0010
0000
0100
0001
0100
0001
0100
0000
0000
0000
,
0001
1000
0010
1000
0000
0010
0010
0000
,
1000
0001
0100
0001
0000
0100
0100
0000
,
0010
1000
0010
0000
0100
0001
0100
0000
,
0002
1003
2000
3001
,
0001
1000
0010
0100
0000
0010
0100
0000
,
0001
1000
0001
1000
0000
0010
1000
0000
,
0010
1000
0010
0000
0100
0001
0100
0000
,
0020
0130
0002
1003
,
1000
0001
0100
0002
0000
0100
0103
0000
,
0001
1000
0010
2000
0000
0010
3010
0000
,
0100
0001
0100
0000
0010
1000
0010
0000
,
2000
3001
0002
1003
,
1000
0001
0100
0020
0000
0100
0130
0000
,
1000
0001
1000
0002
0000
0100
0103
0000
,
0100
0001
0100
0000
0010
1000
0010
0000
,
0200
0310
2000
3001
,
1000
0010
1000
0000
0001
0100
0010
0000
,
0100
0001
0100
0000
0010
1000
0100
0000
,
1000
0010
0100
0000
0001
0100
0010
0000
,
0100
0001
0100
0010
1000
0001
0010
0100
,
1000
0010
1000
0000
0001
0100
0010
0000
,
0100
0001
1000
0000
0001
0010
0100
0000
,
0010
0100
0010
0000
0001
1000
0010
0000
,
2002
0000
3003
0010
0100
0000
0000
0000
,
0100
0001
1000
0010
1000
0100
2000
0000
,
3100
1000
0100
0010
0001
0100
0002
0000
,
1003
0001
0100
0010
1000
0010
0200
0000
,
0310
1000
0100
0010
0001
0100
0002
0000
,
0103
0010
1001
0000
0010
0100
1001
0000
,
1000
0100
0010
0100
1000
0001
1001
0000
,
0100
0001
0000
0100
0000
0100
0000
0100
,
0000
1000
0010
0000
0100
0000
0001
0000
,
2000
3000
0002
0003
,
2000
3000
0020
0130
,
0010
1000
0010
0000
0100
0001
0100
0000
,
0010
0100
0001
1000
0010
1000
0100
0000
,
0010
0001
0010
0000
0001
0000
1000
0010
,
1000
0010
0000
0010
0000
0100
0000
0001
;

//---------------dance-single - ----------------
#NOTES:
     dance-single:
     :
     Challenge:
     11:
     0.837,0.840,0.493,0.233,0.766:
1000
0010
1000
0000
0001
0100
0010
0000
,
1000
0001
0100
0010
1000
0001
0100
0010
,
1000
0001
1000
0001
0100
0010
0100
0010
1000
0010
0100
0001
1000
0010
0100
0000
,
0022
0000
0033
1100
2200
0000
3300
0000
,
0010
0000
1000
0000
0010
0000
0100
0001
0000
0001
0000
0001
1000
0000
0001
0000
,
1000
0000
0010
0000
1000
0000
0010
0100
0000
0100
0000
0100
0001
1000
0010
0100
,
0001
0000
0100
0000
0010
0000
1000
0001
0000
0001
0000
0001
1000
0000
0001
0000
,
0100
0000
0010
0000
1000
0000
0001
0100
0000
0100
0000
0001
1000
0010
0100
0001
,
1000
0000
0010
1000
0000
0001
0000
1000
0000
0010
0000
0100
0001
0000
1100
0000
,
0001
0000
0010
0000
0100
0000
1000
0001
0000
1000
0000
0001
1000
0000
0001
1000
,
0010
0000
1001
0000
0000
0010
0100
0010
0000
0100
0001
1000
0001
1000
0000
0010
,
0000
0010
0000
0010
0000
1000
0001
1000
0010
0100
0001
1000
0010
0100
0001
0000
,
1000
0001
2002
3003
0010
0100
0220
0330
,
1000
0001
1000
0001
0000
0100
0110
0000
,
0010
0100
0220
0330
1000
0001
2002
3003
,
1000
0000
0010
0000
0100
0000
0001
0000
1000
0010
0100
0001
1000
0010
0100
0001
,
1000
0001
1100
0000
0010
0001
1001
0000
,
1000
1000
0001
0100
0000
0110
0000
1001
,
0000
1000
0010
0100
0001
1000
0000
1001
,
0000
1000
0010
0100
0001
1000
0000
0001
,
1001
0000
0100
0010
0000
1001
0000
0011
,
0000
0011
0000
1100
0000
1100
0000
1000
,
0001
0100
0010
1000
0001
0100
0010
1000
,
0001
1000
0010
0100
0001
1000
0010
1000
0001
1000
0010
1000
0001
0100
0010
1000
,
0002
0000
1003
0000
0010
1000
0001
0100
,
0000
0110
0000
1001
0000
0011
0000
0001
,
1000
0010
0000
1010
0000
0101
0000
0010
,
1000
0010
1000
0001
0100
0010
1000
0001
,
1000
0000
0010
0000
1000
0000
0001
0000
1000
0010
0100
0001
2000
0000
0000
0000
,
3001
0001
1000
1000
0000
1001
1001
0000
,
0100
0100
0010
0010
0000
0110
0110
0000
,
1000
0001
0200
0000
0310
1000
0002
0000
,
1003
0000
0010
0000
0100
0000
0001
0000
1000
0010
1000
0100
1000
0001
0100
0001
,
0010
0001
1000
0010
0000
1010
1010
0000
,
0001
0100
0010
1000
0000
0101
0101
0000
,
0001
1000
0020
0000
0130
0001
2000
0000
,
3010
0000
0100
0000
0001
0000
1000
0000
0010
0100
0010
1000
0001
0100
0001
1000
,
0010
0010
0100
0100
0000
1001
1001
0000
,
0001
0001
1000
1000
0000
0110
0110
0000
,
0001
1000
0020
0000
0130
0001
2000
0000
,
3001
0000
0100
0000
0010
0000
1000
0000
0001
0100
0001
0010
0001
1000
0010
1000
,
0100
1000
0001
0100
0000
0101
0101
0000
,
1000
0010
0100
0001
0000
1010
1010
0000
,
1000
0001
0200
0000
0310
1000
0002
0000
,
0103
0000
0010
0000
1000
0000
0001
0000
0100
0010
0100
0001
1000
0010
1000
0001
,
0100
0000
0001
0000
1000
0000
0010
0100
0000
0100
0000
0100
1001
0000
0000
0000
,
1000
0000
0010
0000
0100
0000
0001
0010
0000
0010
0000
0010
1100
0000
0000
0000
,
0010
0000
0001
0000
1000
0000
0010
0100
0000
0100
0000
0100
0101
0000
0000
0000
,
0010
0000
0100
0000
0001
0000
1000
0000
0010
0100
0001
1000
0010
0100
0001
1000
,
0010
0000
0100
0000
0001
0000
1000
0001
0000
0001
0000
0001
1000
0000
1001
0000
,
0010
0000
1000
0000
0001
0000
0100
0001
0000
0001
0000
0001
1000
0000
0110
0000
,
0001
0000
0100
0000
0010
0000
1000
0001
0000
0001
0000
0001
1000
0000
1010
0000
,
2002
0000
3003
0110
2002
0000
3003
0000
,
0100
0000
0001
0000
0100
0000
0010
1000
0000
1000
0000
1000
0001
0000
1000
0000
,
0001
0000
0100
0000
0001
0000
0100
0010
0000
0010
0000
0010
1000
0001
0100
0010
,
1000
0000
0010
0000
0100
0000
0001
1000
0000
1000
0000
1000
0001
0000
1000
0000
,
0010
0000
0100
0000
0001
0000
1000
0010
0000
0010
0000
1000
0001
0100
0010
1000
,
0001
0000
0100
0001
0000
1000
0000
0001
0000
0100
0000
0010
1000
0000
0011
0000
,
1000
0000
0100
0000
0010
0000
0001
1000
0000
0001
0000
1000
0001
0000
1000
0001
,
0100
0000
1001
0000
0000
0100
0010
0100
0000
0010
1000
0001
1000
0001
0000
0100
,
0000
0100
0000
0100
0000
0001
1000
0001
0100
0010
1000
0001
0100
0010
1000
0001
,
1000
1000
1000
0000
0001
1000
0010
0100
0001
0001
0001
0000
1000
0010
0100
0001
,
1000
1000
1000
0000
0010
0100
0001
1000
0100
0100
0100
0000
0010
0001
1000
0001
,
0100
0000
0001
0010
0000
0100
0000
0010
0000
0001
0000
1000
0100
0000
1010
0000
,
0100
0000
0001
0000
1000
0000
0010
0100
0000
0010
0000
0100
0010
0000
0100
0010
,
1000
0000
0110
0000
0000
0001
1000
0001
0000
1000
0100
0010
0100
0010
0000
0001
,
0000
0001
0000
0001
0000
0010
0100
0010
0001
1000
0100
0010
0001
1000
0100
0010
;

//---------------dance-single - ----------------
#NOTES:
     dance-single:
     :
     Medium:
     5:
     0.392,0.450,0.206,0.188,0.000: // measure 1
1000
0001
1000
0000
,  // measure 2
0001
1000
0010
0000
,  // measure 3
0200
0000
0000
0000
,  // measure 4
0310
0000
1001
0000
,  // measure 5
0001
1000
0010
0000
1000
0000
0001
0000
,  // measure 6
0010
0100
0010
0000
0001
0000
1000
0000
,  // measure 7
0010
1000
0010
0000
0100
0000
0001
0000
,  // measure 8
0010
0001
0010
0000
0100
0000
1000
0000
,  // measure 9
0001
1000
0001
0000
0110
0000
1001
0000
,  // measure 10
1000
0010
0100
0000
0011
0000
1100
0000
,  // measure 11
0001
1000
0000
0010
0000
0010
0000
0010
,  // measure 12
0000
0000
0000
0000
,  // measure 13
1000
1001
0001
1001
,  // measure 14
0010
1000
0010
1000
0000
0001
0000
0000
,  // measure 15
1000
1001
0001
1001
,  // measure 16
0100
1000
0100
1000
0000
0001
0000
0000
,  // measure 17
1000
1001
0001
1001
,  // measure 18
0010
0000
1000
0001
0000
1000
0000
0010
,  // measure 19
0000
0000
0100
0000
0100
0000
0000
0010
,  // measure 20
0000
0100
0100
0000
,  // measure 21
0010
1000
0001
1001
,  // measure 22
0010
0100
0010
0110
,  // measure 23
0001
1000
0001
0000
0010
0100
1000
0000
,  // measure 24
0010
0000
1000
0000
0001
0000
1000
0010
,  // measure 25
1000
0001
1000
1000
,  // measure 26
0001
0001
1000
1000
,  // measure 27
0001
1000
0000
0001
0000
0001
0000
1000
,  // measure 28
0010
0010
0010
0010
,  // measure 29
1000
0001
1000
1001
,  // measure 30
1000
0010
1000
0010
0000
0000
0000
0000
,  // measure 31
0100
0001
0100
0001
0000
0000
0000
0000
,  // measure 32
1000
1000
0001
0001
,  // measure 33
2000
3020
0230
0302
,  // measure 34
1003
0001
1000
0001
0000
0000
0000
0000
,  // measure 35
0010
0100
0010
0100
0000
0000
0000
0000
,  // measure 36
1000
0001
0010
0100
,  // measure 37
2000
3002
2003
3020
,  // measure 38
1030
0010
0100
0001
0000
0000
0000
0000
,  // measure 39
1000
0100
0010
0001
0000
0000
0000
0000
,  // measure 40
1000
1000
0001
0001
,  // measure 41
2000
3002
0203
0320
,  // measure 42
1030
0001
0010
0100
0000
0000
0000
0000
,  // measure 43
1000
0010
0100
0001
0000
0000
0000
0000
,  // measure 44
1000
0010
0100
0010
,  // measure 45
1001
0000
0000
0010
0100
0000
0000
0000
,  // measure 46
1000
0010
0100
0101
,  // measure 47
0010
1000
0100
1100
,  // measure 48
0010
0001
1000
1001
,  // measure 49
0001
0001
1000
1000
,  // measure 50
0001
1000
0010
0110
,  // measure 51
0010
0100
0001
1000
,  // measure 52
0002
0000
0000
0000
,  // measure 53
1003
0000
0000
0001
1000
0000
0000
0000
,  // measure 54
1000
0001
0100
0000
0001
0000
1000
0000
,  // measure 55
0100
0010
0100
0000
1000
0000
0001
0000
,  // measure 56
0100
0001
0100
0000
0010
0000
1000
0000
,  // measure 57
0100
1000
0100
0000
0010
0000
0001
0000
,  // measure 58
1000
0001
1000
0000
0110
0000
1001
0000
,  // measure 59
0001
0100
0010
0000
1100
0000
0011
0000
,  // measure 60
1000
0001
0000
0100
0000
0100
0000
0100
,  // measure 61
0000
0000
0000
0000
,  // measure 62
0002
0000
2003
0000
,  // measure 63
3020
0000
0230
0000
,  // measure 64
0301
1000
0001
0000
0200
0000
0310
0000
,  // measure 65
1000
0010
0100
0000
0020
0000
0130
0000
,  // measure 66
0001
1000
0000
1000
0000
0001
0000
2000
,  // measure 67
0000
0000
0000
0000
0000
0000
0000
3001
;

//---------------dance-single - ----------------
#NOTES:
     dance-single:
     :
     Easy:
     3:
     0.284,0.269,0.108,0.287,0.000: // measure 1
1000
0000
0001
0000
,  // measure 2
1000
0001
1000
0000
,  // measure 3
0010
0000
0100
0000
,  // measure 4
0020
0000
0130
0000
,  // measure 5
0100
0100
0100
0000
,  // measure 6
0010
0010
0010
0000
,  // measure 7
0100
0010
0100
0000
,  // measure 8
0010
0100
0010
0000
,  // measure 9
1000
1000
1000
0000
,  // measure 10
0001
0001
0001
0000
,  // measure 11
1000
0001
1000
0000
,  // measure 12
0001
1000
0001
0000
,  // measure 13
2000
3000
0002
0003
,  // measure 14
1000
0010
0100
0000
,  // measure 15
0002
0003
2000
3000
,  // measure 16
0001
1000
0010
0000
,  // measure 17
0200
0300
0020
0030
,  // measure 18
1000
0001
1000
0000
,  // measure 19
1001
0000
0110
0000
,  // measure 20
1001
0000
1001
0000
,  // measure 21
2000
0000
3001
0000
,  // measure 22
0001
0001
0001
0001
,  // measure 23
2000
0000
3010
0000
,  // measure 24
0100
0100
0100
0100
,  // measure 25
0001
0000
1000
0000
,  // measure 26
0001
1000
0001
0000
,  // measure 27
0100
0000
0010
0000
,  // measure 28
0100
0000
0010
0000
,  // measure 29
1010
0000
0101
0000
,  // measure 30
1000
1000
2000
3000
,  // measure 31
0001
0001
0002
0003
,  // measure 32
2000
0000
3002
0000
,  // measure 33
0103
0010
0100
0010
,  // measure 34
0100
0100
0200
0300
,  // measure 35
0010
0010
0020
0030
,  // measure 36
2000
0000
3002
0000
,  // measure 37
1003
0001
1001
0000
,  // measure 38
0001
0001
0002
0003
,  // measure 39
1000
1000
2000
3000
,  // measure 40
0002
0000
2003
0000
,  // measure 41
3010
0100
0010
0100
,  // measure 42
0010
0010
0020
0030
,  // measure 43
0100
0100
0200
0300
,  // measure 44
0002
0000
2003
0000
,  // measure 45
3001
1000
1001
0000
,  // measure 46
1000
0000
0001
0000
,  // measure 47
1000
0001
1000
0000
,  // measure 48
0010
0000
0100
0000
,  // measure 49
0010
0100
0001
1000
,  // measure 50
0001
0001
0001
0000
,  // measure 51
1000
1000
1000
0000
,  // measure 52
0002
0000
0000
0000
,  // measure 53
1003
0000
1001
0000
,  // measure 54
0010
0010
0010
0000
,  // measure 55
0100
0100
0100
0000
,  // measure 56
0010
0100
0010
0000
,  // measure 57
0100
0010
0100
0000
,  // measure 58
0001
0001
0001
0000
,  // measure 59
1000
1000
1000
0000
,  // measure 60
0001
1000
0001
0000
,  // measure 61
1000
0001
1000
0000
,  // measure 62
0002
0003
2000
3000
,  // measure 63
0020
0030
0200
0300
,  // measure 64
0001
1000
0001
0000
,  // measure 65
1000
0001
1000
0000
,  // measure 66
1010
0000
0101
0000
,  // measure 67
2002
0000
0000
3003
;
