#TITLE:We Say Merry Christmas;
#SUBTITLE:;
#ARTIST:Virginelle;
#TITLETRANSLIT:;
#SUBTITLETRANSLIT:;
#ARTISTTRANSLIT:;
#CREDIT:;
#BANNER:We Say Merry Christmas-bn.png;
#BACKGROUND:We Say Merry Christmas-bg.png;
#LYRICSPATH:;
#CDTITLE:Super Eurobeat.png;
#MUSIC:We Say Merry Christmas.mp3;
#OFFSET:-6.623;
#SAMPLESTART:56.950;
#SAMPLELENGTH:12.000;
#SELECTABLE:YES;
#BPMS:0.000=150.000;
#STOPS:;
#BGCHANGES:;

//---------------dance-single - ----------------
#NOTES:
     dance-single:
     :
     Easy:
     4:
     0.326,0.390,0.192,0.338,0.000: // measure 1
2000
0000
0000
0000
,  // measure 2
3002
0000
0000
0000
,  // measure 3
0203
0000
0000
0000
,  // measure 4
0320
0000
0000
0030
,  // measure 5
0010
0100
0100
0100
,  // measure 6
0001
1000
1000
1000
,  // measure 7
0010
0100
0100
0100
,  // measure 8
0010
0100
0110
1001
,  // measure 9
0001
1000
1000
1000
,  // measure 10
0010
0100
0100
0100
,  // measure 11
0001
0100
0100
0100
,  // measure 12
0010
1000
1010
0101
,  // measure 13
0001
0001
0002
0000
,  // measure 14
1000
1000
2000
0003
,  // measure 15
3010
0100
0001
1000
,  // measure 16
1001
1000
0001
1000
,  // measure 17
0010
0100
0020
0000
,  // measure 18
0130
0001
2000
0000
,  // measure 19
3001
0010
1000
0010
,  // measure 20
0100
0001
0010
0001
,  // measure 21
0020
0000
0001
0000
,  // measure 22
0230
0000
0001
0000
,  // measure 23
0310
0001
1000
0001
,  // measure 24
0010
0100
0010
0100
,  // measure 25
0002
0000
1000
0000
,  // measure 26
2003
0000
0010
0000
,  // measure 27
3020
0000
0200
0330
,  // measure 28
2002
3003
0210
0301
,  // measure 29
1001
0100
1001
0010
,  // measure 30
0010
0100
0010
0100
,  // measure 31
0002
0000
1000
0000
,  // measure 32
1000
0000
1000
0103
,  // measure 33
1001
0010
0110
1001
,  // measure 34
0010
0100
1000
0010
,  // measure 35
0200
0000
0010
0000
,  // measure 36
0010
0000
0301
0001
,  // measure 37
0011
0100
0101
0001
,  // measure 38
1000
0010
1000
0010
,  // measure 39
0010
0010
0020
0030
,  // measure 40
0100
0100
0200
0300
,  // measure 41
0010
0110
0001
1001
,  // measure 42
0010
1000
0100
1000
,  // measure 43
0001
1000
0002
0000
,  // measure 44
1000
0100
1000
0100
,  // measure 45
2003
0000
3020
0000
,  // measure 46
0230
0000
0302
0000
,  // measure 47
2003
0000
3020
0000
,  // measure 48
0130
0100
0010
0100
,  // measure 49
0002
0000
2003
0000
,  // measure 50
3020
0000
0230
0000
,  // measure 51
0302
0000
2003
0000
,  // measure 52
3002
0000
0103
0010
,  // measure 53
0100
0010
0010
0010
,  // measure 54
1000
0001
0001
0001
,  // measure 55
0100
0010
0010
0010
,  // measure 56
0100
0010
0110
1001
,  // measure 57
1000
0001
0001
0001
,  // measure 58
0100
0010
0010
0010
,  // measure 59
1000
0010
0010
0010
,  // measure 60
0100
0001
0101
1010
,  // measure 61
2002
0000
0000
0000
,  // measure 62
3003
0000
0000
0000
;

//---------------dance-single - ----------------
#NOTES:
     dance-single:
     :
     Hard:
     8:
     0.547,0.502,0.219,0.265,0.183: // measure 1
2000
0000
0010
0010
,  // measure 2
3020
0000
0100
0100
,  // measure 3
0230
0000
0001
0301
,  // measure 4
2002
3003
0220
0330
,  // measure 5
1001
0000
0000
1000
0000
0000
1000
0000
0001
0000
0000
0001
0000
0000
0001
0000
,  // measure 6
1000
0000
0000
1000
0000
0000
1000
0000
0010
0000
0000
0010
0000
0000
0010
0000
,  // measure 7
0100
0000
0000
0100
0000
0000
0100
0000
0010
0000
0000
0010
0000
0000
0010
0000
,  // measure 8
1000
0000
0000
1000
0000
0000
0010
0000
1000
0000
0100
0000
0010
0000
0001
0000
,  // measure 9
0100
0000
0000
0100
0000
0000
0001
0000
0001
0000
0000
0001
0000
0000
0100
0000
,  // measure 10
0100
0000
0000
0100
0000
0000
0010
0000
0010
0000
0000
0010
0000
0000
1000
0000
,  // measure 11
1000
0000
0000
0100
0000
0000
0100
0000
1000
0000
0000
1000
0000
0000
0010
0000
,  // measure 12
0010
0000
0000
0100
0000
0000
0001
0000
0100
0000
0010
0000
0100
0000
0001
0000
,  // measure 13
0100
0010
0100
0000
0001
0100
0001
0000
,  // measure 14
0001
0100
0010
1000
0100
0010
0001
0000
,  // measure 15
0001
0100
0010
0000
0100
0001
0100
0000
,  // measure 16
0010
0110
1001
0110
,  // measure 17
0100
0010
0001
0100
0010
0100
0001
0000
,  // measure 18
0001
1000
0010
1000
0100
0010
0001
0000
,  // measure 19
0001
0100
0020
0000
0130
0001
0200
0000
,  // measure 20
0301
0100
0010
1000
0100
0010
0100
0000
,  // measure 21
2000
0010
0001
0100
,  // measure 22
3002
0100
0010
1000
,  // measure 23
1003
0010
1000
0000
0010
0100
0010
0000
,  // measure 24
0001
1000
0001
1000
0001
0010
0001
0000
,  // measure 25
0200
0001
0001
0301
,  // measure 26
0020
1000
1000
1030
,  // measure 27
0210
0301
0120
1030
,  // measure 28
0001
0100
0010
0100
0002
0000
1003
0000
,  // measure 29
2001
0000
3010
0100
0210
0000
0301
0100
,  // measure 30
0010
1000
0100
0010
0001
0100
0010
0000
,  // measure 31
0010
1000
0010
1000
0100
0010
0001
0100
,  // measure 32
0010
0100
0001
1000
0100
0010
0100
0000
,  // measure 33
0120
0000
0031
0010
0021
0000
0031
0100
,  // measure 34
0010
0000
1000
0010
1000
0100
0010
0000
,  // measure 35
0001
1000
0010
1000
0100
1000
0010
0000
,  // measure 36
0010
0100
0001
1000
0010
0100
0010
0000
,  // measure 37
0210
0000
0301
0100
2010
0000
3010
0100
,  // measure 38
0010
1000
0001
1000
0100
0010
0001
0000
,  // measure 39
0001
0100
0010
1000
0100
1000
0001
1000
,  // measure 40
0010
0100
0001
1000
0010
1000
0010
0000
,  // measure 41
0210
0000
0301
0100
0201
0000
0301
0010
,  // measure 42
0100
1000
0010
1000
0001
0100
0010
0000
,  // measure 43
0002
1000
0100
1000
,  // measure 44
0103
0010
1000
0001
1000
0100
0010
0000
,  // measure 45
2002
0000
0000
3003
,  // measure 46
0010
0000
0000
0010
0000
0000
0010
0000
0100
0000
0000
0100
0000
0000
0100
0000
,  // measure 47
0001
0000
0000
0001
0000
0000
0001
0000
1000
0000
0000
1000
0000
0000
1000
0000
,  // measure 48
0100
0000
0000
0100
0000
0000
0100
0000
1000
0000
0010
0000
1000
0000
0001
0000
,  // measure 49
0101
0000
0000
0100
0000
0000
0100
0000
0110
0000
0000
0010
0000
0000
0010
0000
,  // measure 50
0101
0000
0000
0100
0000
0000
0100
0000
1001
0000
0000
0001
0000
0000
0001
0000
,  // measure 51
1010
0000
0000
1000
0000
0000
0100
0000
1000
0000
0000
0110
0000
0000
0001
0000
,  // measure 52
1000
0000
0000
0010
0000
0000
0100
0000
0001
0000
0100
0000
0010
0000
0100
0000
,  // measure 53
0001
0000
1000
0100
0000
0000
1000
0000
0010
0000
0100
0010
0000
0000
0100
0000
,  // measure 54
0001
0000
0100
0010
0000
0000
0100
0000
0001
0000
1000
0100
0000
0000
1000
0000
,  // measure 55
0010
0000
0100
0010
0000
0000
0100
0000
0001
0000
0010
0001
0000
0000
0010
0000
,  // measure 56
0100
0000
1000
0010
0000
0000
1000
0000
0100
0000
1000
0000
0010
0000
0100
0000
,  // measure 57
0001
0000
0100
0010
0000
0000
0100
0000
0001
0000
0010
0001
0000
0000
0010
0000
,  // measure 58
0100
0000
0010
0100
0000
0000
0010
0000
0001
0000
0100
0010
0000
0000
0100
0000
,  // measure 59
0001
0000
1000
0010
0000
0000
1000
0000
0100
0000
1000
0100
0000
0000
1000
0000
,  // measure 60
0010
0000
1000
0001
0000
0000
0001
0000
1000
0000
0010
0000
0100
0000
0001
0000
,  // measure 61
2002
0000
0000
0000
,  // measure 62
3003
0000
0000
0000
;

//---------------dance-single - ----------------
#NOTES:
     dance-single:
     :
     Medium:
     6:
     0.392,0.418,0.146,0.201,0.000: // measure 1
1000
0010
1000
0010
,  // measure 2
2020
0000
0000
3030
,  // measure 3
0001
0100
0001
0100
,  // measure 4
0202
0000
0000
0303
,  // measure 5
0001
1000
0010
1000
,  // measure 6
0100
1000
0010
1000
,  // measure 7
0100
1000
0010
0100
,  // measure 8
0001
0000
0100
0000
0010
0100
0001
0100
,  // measure 9
0010
1000
0100
0010
,  // measure 10
0001
0100
0010
0100
,  // measure 11
0001
1000
0100
0010
,  // measure 12
0001
0000
1000
0000
0010
1000
0010
1000
,  // measure 13
0010
0000
0100
0000
0001
0100
0001
0000
,  // measure 14
0010
0000
0100
0000
0010
0100
0010
0000
,  // measure 15
1000
0100
0010
0001
,  // measure 16
2002
0000
0000
3003
,  // measure 17
0001
0000
0001
0000
1000
0100
1000
0000
,  // measure 18
0010
0000
0100
0000
0001
0100
0001
0000
,  // measure 19
0100
0000
0010
0000
1000
0010
1000
0000
,  // measure 20
0010
0100
0001
0100
0010
1000
0100
0000
,  // measure 21
0200
0010
0010
0310
,  // measure 22
0020
0100
0100
0130
,  // measure 23
0100
0010
0001
1000
,  // measure 24
0010
1000
0010
0000
0001
0100
0001
0000
,  // measure 25
0200
0010
0010
0310
,  // measure 26
0002
1000
1000
2003
,  // measure 27
3010
1020
0130
0210
,  // measure 28
0302
0103
0010
0010
,  // measure 29
0110
0000
0001
0100
0001
0000
0010
1000
,  // measure 30
0100
0000
0100
1000
0010
0000
0010
1000
,  // measure 31
0100
0100
0010
0010
,  // measure 32
0100
0010
0001
1000
,  // measure 33
0010
0000
0010
0100
0010
0000
0001
0100
,  // measure 34
0001
0000
0100
0010
0100
0000
0110
0000
,  // measure 35
0001
1000
0100
0010
,  // measure 36
0001
0100
0010
1000
,  // measure 37
1010
0100
1010
0100
,  // measure 38
0010
1000
0010
0000
0010
0100
0001
0000
,  // measure 39
0001
0100
0010
1000
,  // measure 40
0200
0310
0020
0130
,  // measure 41
1001
0010
1001
0010
,  // measure 42
0100
0010
0001
1000
,  // measure 43
0010
1000
0010
0000
0010
0100
0010
0000
,  // measure 44
0002
0000
2000
3003
,  // measure 45
2002
0000
0000
0000
,  // measure 46
0000
0000
0000
0000
,  // measure 47
3003
0000
0000
0000
,  // measure 48
1000
0010
1000
0100
,  // measure 49
1100
0010
0100
0001
,  // measure 50
0110
0001
1000
0010
,  // measure 51
0110
0001
1000
0100
,  // measure 52
1000
0000
0010
0000
0010
1000
0010
1000
,  // measure 53
0010
0000
0010
0100
0001
0000
0001
0100
,  // measure 54
0010
0000
0010
0100
0001
0000
0100
0001
,  // measure 55
0010
0000
0100
1000
0010
0000
0010
0100
,  // measure 56
0001
0000
0100
0010
0100
0001
0100
0000
,  // measure 57
0010
1000
0100
0000
0100
1000
0010
0000
,  // measure 58
0010
0100
0001
0000
0001
0100
0010
0000
,  // measure 59
0010
0100
0010
0000
0100
1000
0100
0000
,  // measure 60
0010
0100
0001
0000
0001
0100
0010
0000
,  // measure 61
2002
0000
0000
0000
,  // measure 62
3003
0000
0000
0000
;

//---------------dance-single - ----------------
#NOTES:
     dance-single:
     :
     Beginner:
     1:
     0.127,0.167,0.037,0.137,0.000: // measure 1
0020
0000
0000
0000
,  // measure 2
0030
0000
0000
0000
,  // measure 3
0200
0000
0000
0000
,  // measure 4
0300
0000
0000
0000
,  // measure 5
0010
0000
0000
0000
,  // measure 6
0100
0000
0000
0000
,  // measure 7
0001
0000
0000
0000
,  // measure 8
1000
0000
0001
0000
,  // measure 9
1000
0000
0000
0000
,  // measure 10
0010
0000
0000
0000
,  // measure 11
0100
0000
0000
0000
,  // measure 12
0001
0000
1000
0000
,  // measure 13
0010
0000
0000
0000
,  // measure 14
0100
0000
0000
0000
,  // measure 15
0001
0000
1000
0000
,  // measure 16
1010
0000
0000
0000
,  // measure 17
0100
0000
0000
0000
,  // measure 18
0010
0000
0000
0000
,  // measure 19
1000
0000
0000
0000
,  // measure 20
0001
0000
1000
0000
,  // measure 21
0002
0000
0000
0000
,  // measure 22
2003
0000
0000
0000
,  // measure 23
3020
0000
0000
0000
,  // measure 24
0230
0000
0000
0000
,  // measure 25
0302
0000
0003
0000
,  // measure 26
2000
0000
3000
0000
,  // measure 27
0100
0000
0010
0000
,  // measure 28
0100
0000
0010
0000
,  // measure 29
1001
0000
0000
0000
,  // measure 30
0010
0000
0010
0000
,  // measure 31
0200
0000
0000
0000
,  // measure 32
0310
0000
0000
0000
,  // measure 33
0110
0000
0000
0000
,  // measure 34
0001
0000
1000
0000
,  // measure 35
0002
0000
0000
0000
,  // measure 36
0103
0000
0000
0000
,  // measure 37
0010
0000
0100
0000
,  // measure 38
0001
0000
1000
0000
,  // measure 39
0002
0000
0000
0000
,  // measure 40
0000
0000
1000
1003
,  // measure 41
1000
0000
0010
0000
,  // measure 42
0100
0000
0001
0000
,  // measure 43
2000
0000
0000
0000
,  // measure 44
3010
0000
0100
0000
,  // measure 45
0220
0000
0000
0000
,  // measure 46
0330
0000
0000
0000
,  // measure 47
0000
0000
0000
0000
,  // measure 48
0000
0000
0000
0000
,  // measure 49
0100
0000
0000
0000
,  // measure 50
0010
0000
0000
0000
,  // measure 51
0100
0000
0000
0000
,  // measure 52
0001
0000
0000
0000
,  // measure 53
1000
0000
0010
0000
,  // measure 54
0100
0000
0001
0000
,  // measure 55
1000
0000
0010
0000
,  // measure 56
0100
0000
0001
0000
,  // measure 57
0010
0000
0100
0000
,  // measure 58
1000
0000
0010
0000
,  // measure 59
0100
0000
0001
0000
,  // measure 60
1000
0000
0010
0000
,  // measure 61
0002
0000
0000
0000
,  // measure 62
0003
0000
0000
0000
;
