#TITLE:となりのトトロ;
#SUBTITLE:;
#ARTIST:Shine;
#TITLETRANSLIT:Waiwai World;
#SUBTITLETRANSLIT:;
#ARTISTTRANSLIT:;
#CREDIT:;
#BANNER:Waiwai World-bn.png;
#BACKGROUND:Waiwai World-bg.png;
#LYRICSPATH:;
#CDTITLE:cd.png;
#MUSIC:Waiwai World.mp3;
#OFFSET:-6.107;
#SAMPLESTART:34.964;
#SAMPLELENGTH:12.000;
#SELECTABLE:YES;
#BPMS:0.000=158.180;
#STOPS:;
#BGCHANGES:;

//---------------dance-single - ----------------
#NOTES:
     dance-single:
     :
     Hard:
     9:
     0.683,0.644,0.243,0.168,0.393:
0010
1000
0010
0000
0100
0001
0100
0000
0001
1000
0000
1000
0000
0000
0001
0000
,
0010
0001
0010
0000
0100
1000
0100
0000
0010
0001
0000
0001
0000
0000
1000
0000
,
0010
0100
0010
0000
1000
0001
1000
0000
0001
0100
0000
0100
0000
0000
0010
0000
,
0100
0001
0100
0000
0010
1000
0010
0000
0100
0001
0000
0001
0000
0000
1000
0000
,
0010
1000
0010
0000
0100
0001
0100
0000
0010
1000
0000
1000
0000
0000
0010
0000
,
0100
0001
0100
0000
0010
1000
0010
0000
0100
0001
0000
0001
0000
0000
1000
0000
,
0001
1000
0001
0000
0100
0010
0100
0000
0010
0100
0000
0100
0000
0000
0010
0000
,
0010
0000
0100
1001
0000
0110
0000
0000
,
1001
0000
0010
0100
0010
0000
1000
0010
,
1000
0000
0000
0010
1000
0000
0010
0000
2000
0000
0000
0000
3010
0000
0000
0000
,
0100
0000
0001
0100
0010
0100
0001
0000
,
0100
0010
0100
0010
0100
0000
0010
0000
0100
0000
0000
0000
1001
0000
0000
0000
,
0010
0000
0000
1000
0001
0000
1000
0000
0010
0000
1000
0000
0010
0000
0000
0000
,
0101
1010
2002
3003
,
0002
0000
1003
0010
1000
0001
0100
0000
,
0010
0010
0100
0100
0110
0000
0010
0000
,
1000
0000
0000
0001
1000
0000
0010
0000
1000
0000
0001
1000
0001
0000
0000
0000
,
1000
0010
1000
0010
1000
0000
0010
0000
0100
0000
0000
0000
0010
0000
0000
0000
,
0100
0100
0010
0100
0010
0100
0010
0000
,
1001
0000
0000
0000
0010
0000
1000
0000
0001
1000
0000
0001
1000
0000
0000
0000
,
1000
1000
0010
0010
0200
0000
0301
0000
,
0100
0000
0010
1000
0001
0100
0010
0000
,
1000
1000
0001
1000
0001
0000
1001
0000
,
1000
0010
0100
0001
2000
0010
0010
3010
,
0100
0001
0100
0010
0100
0000
1001
0000
,
0002
0000
1003
0000
0010
0001
1100
0000
,
2000
0000
3001
0000
1000
0010
0110
0000
,
0200
0000
0301
0000
0001
1000
1001
0000
,
0001
1000
0001
1000
0001
1000
0001
0000
,
0100
0010
0000
0000
0100
0010
0000
0000
0100
0000
0010
0000
1000
0000
0001
0000
,
1000
0001
0000
0000
1000
0001
0000
0000
1000
0000
0010
0000
0100
0000
0001
0000
,
0010
0100
0000
0000
0010
0100
0000
0000
0010
0000
0100
0000
1000
0000
0001
0000
,
0001
1000
0001
1001
0000
0000
0000
0010
,
0100
0001
0100
0000
0010
1000
0010
0000
1000
0001
0000
0001
0000
0000
1000
0000
,
0100
1000
0100
0000
0010
0001
0010
0000
0100
1000
0000
1000
0000
0000
0001
0000
,
0100
0010
0100
0000
0001
1000
0001
0000
1000
0010
0000
0010
0000
0000
0100
0000
,
0010
1000
0010
0000
0100
0001
0100
0000
0010
1000
0000
1000
0000
0000
0001
0000
,
0100
0001
0100
0000
0010
1000
0010
0000
0100
0001
0000
0001
0000
0000
0100
0000
,
0010
1000
0010
0000
0100
0001
0100
0000
0010
1000
0000
1000
0000
0000
0001
0000
,
1000
0001
1000
0000
0010
0100
0010
0000
0100
0010
0000
0010
0000
0000
0100
0000
,
0100
0000
0010
1001
0000
0110
0000
0000
,
1001
0000
0001
1000
0010
0000
0100
0001
,
0100
0000
0000
0001
0100
0000
0001
0000
0100
0000
0000
0000
0010
0000
0000
0000
,
1000
0000
0001
1000
0010
1000
0010
0000
,
1000
0000
0010
1000
0010
0000
1000
0000
0020
0000
0000
0000
0130
0000
0000
0000
,
0010
0000
0000
0100
0010
0000
0100
0000
0010
0000
0100
0000
0001
0000
0000
0000
,
2000
3001
1001
0000
,
0010
1000
0001
0100
0010
1000
0010
0000
,
0100
0100
0010
0100
0010
0000
0100
0000
,
0010
0100
0001
1000
0010
1000
0001
0000
,
1000
0000
0010
1000
0001
0000
1000
0000
0010
0000
0000
0000
1000
0000
0000
0000
,
0001
1000
1000
0001
1000
0001
1000
0000
,
1001
0000
0000
0000
0100
0000
0001
0000
1000
0001
0000
1000
0001
0000
0000
0000
,
0001
0001
0100
0100
0020
0000
1030
0000
,
0010
0000
0100
0001
1000
0010
0100
0000
,
0001
0001
1000
0001
1000
0000
1001
0000
,
0001
0100
0010
1000
0002
0100
0100
0103
,
0010
1000
0010
0100
0010
0000
1001
0000
,
2000
0000
3001
0000
0100
1000
0011
0000
,
0002
0000
1003
0000
0001
0100
0110
0000
,
0020
0000
1030
0000
1000
0001
1001
0000
,
1000
0001
1000
0001
1000
0001
1000
0000
,
0010
0100
0000
0000
0010
0100
0000
0000
0010
0000
0100
0000
0001
0000
1000
0000
,
0001
1000
0000
0000
0001
1000
0000
0000
0001
0000
0100
0000
0010
0000
1000
0000
,
0100
0010
0000
0000
0100
0010
0000
0000
0100
0000
0010
0000
0001
0000
1000
0000
,
1000
0001
1000
2002
0000
3003
0000
0000
;

//---------------dance-single - ----------------
#NOTES:
     dance-single:
     :
     Medium:
     6:
     0.496,0.428,0.187,0.262,0.000:
1000
0000
0001
0000
1000
0010
1000
0000
,
0001
0000
0100
0000
0010
0100
0010
0000
,
1000
0000
0001
0000
1000
0010
1000
0000
,
0001
0000
0010
0000
0100
1000
0100
0000
,
2000
0000
3001
0000
0100
0010
0100
0000
,
0002
0000
1003
0000
0010
1000
0010
0000
,
0200
0000
0301
0000
1000
0010
1000
0000
,
0002
0000
1003
0010
0000
1001
0000
0000
,
1000
0000
0001
1000
0010
0000
1000
0000
,
0001
1000
0001
0000
2002
0000
3003
0000
,
0010
0010
0100
0100
,
0010
0100
0010
0100
0010
0000
1001
0000
,
0001
0000
1000
0000
0001
1000
0001
0000
,
1010
0101
2002
3003
,
1000
0000
0001
0000
1000
0001
1000
0000
,
0010
1000
0010
1000
0010
0000
1000
0000
,
0001
0001
1000
0001
,
1000
0001
1000
0000
1001
0000
0010
0000
,
0200
0010
0010
0310
,
2000
0000
3010
0000
0100
0010
0100
0000
,
0001
1000
0001
1000
0001
0000
1001
0000
,
0002
0000
1003
0000
0001
1000
0001
0000
,
1000
1000
1000
0000
0001
0001
0001
0000
,
1000
0000
0001
0000
1000
0001
1000
0001
,
2000
3001
2002
3003
,
0001
0000
1000
0000
0010
1000
0010
0000
,
0100
0000
0001
0000
0100
0010
0100
0000
,
0010
0010
0100
0100
,
0010
0100
0010
0100
0010
0000
1001
0000
,
0001
1000
0001
0000
1000
0010
1000
0000
,
0001
1000
0001
0000
0100
0001
0100
0000
,
0010
1000
0001
1000
,
0010
1000
0001
1000
0000
0000
0001
0000
,
0001
0000
1000
0000
0001
0100
0001
0000
,
1000
0000
0010
0000
0100
0010
0100
0000
,
0001
0000
1000
0000
0001
0100
0001
0000
,
1000
0000
0100
0000
0010
0001
0010
0000
,
0002
0000
1003
0000
0010
0100
0010
0000
,
2000
0000
3001
0000
0100
0001
0100
0000
,
0020
0000
1030
0000
0001
0100
0001
0000
,
2000
0000
3001
0100
0000
1001
0000
0000
,
0001
0000
1000
0001
0100
0000
0001
0000
,
1000
0001
1000
0000
2002
0000
3003
0000
,
0100
0100
0010
0010
,
0100
0010
0100
0010
0100
0000
1001
0000
,
1000
0000
0001
0000
1000
0001
1000
0000
,
1001
0110
2002
3003
,
0001
0000
1000
0000
0001
1000
0001
0000
,
0100
0001
0100
0001
0100
0000
0001
0000
,
1000
1000
0001
1000
,
0001
1000
0001
0000
1001
0000
0100
0000
,
2000
0001
0001
3001
,
0002
0000
0103
0000
0010
0100
0010
0000
,
1000
0001
1000
0001
1000
0000
1001
0000
,
2000
0000
3001
0000
1000
0001
1000
0000
,
0001
0001
0001
0000
1000
1000
1000
0000
,
0001
0000
1000
0000
0001
1000
0001
1000
,
0002
1003
2002
3003
,
1000
0000
0001
0000
0100
0001
0100
0000
,
0010
0000
1000
0000
0010
0100
0010
0000
,
0100
0100
0010
0010
,
0100
0010
0100
0010
0100
0000
1001
0000
,
1000
0001
1000
0000
0001
0100
0001
0000
,
1000
0001
1000
0000
0010
1000
0010
0000
,
0100
0001
1000
0001
,
0100
0001
1000
0001
0000
0000
0000
0000
;

//---------------dance-single - ----------------
#NOTES:
     dance-single:
     :
     Easy:
     4:
     0.331,0.337,0.262,0.150,0.000: // measure 1
0010
0010
0010
0000
,  // measure 2
0100
0100
0100
0000
,  // measure 3
0010
0010
0010
0000
,  // measure 4
0100
0001
1001
0000
,  // measure 5
1000
1000
1000
0000
,  // measure 6
0001
0001
0001
0000
,  // measure 7
1000
0001
1001
0000
,  // measure 8
1000
0001
1001
0000
,  // measure 9
0001
0000
1000
0000
,  // measure 10
0001
0001
1000
0000
,  // measure 11
0020
0000
0230
0000
,  // measure 12
0010
0310
1001
0000
,  // measure 13
0001
0000
1000
0000
,  // measure 14
0010
0100
1001
0000
,  // measure 15
0001
0001
1000
1000
,  // measure 16
0001
1000
1001
0000
,  // measure 17
2000
0000
3001
0000
,  // measure 18
0002
0000
1003
0000
,  // measure 19
0001
0001
1000
1000
,  // measure 20
0010
0100
0010
1001
,  // measure 21
0001
1000
1001
0000
,  // measure 22
1000
1000
0001
0001
,  // measure 23
1000
0001
1001
0000
,  // measure 24
0001
0001
1000
1000
,  // measure 25
0001
1000
1001
0000
,  // measure 26
2000
0000
0001
3001
,  // measure 27
0002
0000
1000
1003
,  // measure 28
0200
0000
0010
0310
,  // measure 29
0020
0000
0100
0130
,  // measure 30
0100
0010
0100
1001
,  // measure 31
0001
1000
0001
1010
,  // measure 32
0010
1000
0010
0101
,  // measure 33
0010
0100
1001
0000
,  // measure 34
0100
0100
0100
0000
,  // measure 35
0010
0010
0010
0000
,  // measure 36
0100
0100
0100
0000
,  // measure 37
0010
1000
1001
0000
,  // measure 38
0001
0001
0001
0000
,  // measure 39
1000
1000
1000
0000
,  // measure 40
0001
1000
1001
0000
,  // measure 41
0001
1000
1001
0000
,  // measure 42
1000
0000
0001
0000
,  // measure 43
1000
1000
0001
0000
,  // measure 44
0200
0000
0320
0000
,  // measure 45
0100
0130
1001
0000
,  // measure 46
1000
0000
0001
0000
,  // measure 47
0100
0010
1001
0000
,  // measure 48
1000
1000
0001
0001
,  // measure 49
1000
0001
1001
0000
,  // measure 50
0002
0000
1003
0000
,  // measure 51
2000
0000
3001
0000
,  // measure 52
1000
1000
0001
0001
,  // measure 53
0100
0010
0100
1001
,  // measure 54
1000
0001
1001
0000
,  // measure 55
0001
0001
1000
1000
,  // measure 56
0001
1000
1001
0000
,  // measure 57
1000
1000
0001
0001
,  // measure 58
1000
0001
1001
0000
,  // measure 59
0002
0000
1000
1003
,  // measure 60
2000
0000
0001
3001
,  // measure 61
0020
0000
0100
0130
,  // measure 62
0200
0000
0010
0310
,  // measure 63
0010
0100
0010
1001
,  // measure 64
1000
0001
1000
0101
,  // measure 65
0100
0001
0100
1010
,  // measure 66
0100
0010
1001
0000
;
