#TITLE:Voulez Vous Coucher Avec Moi;
#SUBTITLE:(Radio Edit);
#ARTIST:Sex Appeal;
#TITLETRANSLIT:;
#SUBTITLETRANSLIT:;
#ARTISTTRANSLIT:;
#CREDIT:;
#BANNER:Voulez Vous Coucher Avec Moi (Radio Edit)-bn.PNG;
#BACKGROUND:Voulez Vous Coucher Avec Moi (Radio Edit)-bg.PNG;
#LYRICSPATH:;
#CDTITLE:cd.png;
#MUSIC:Voulez Vous Coucher Avec Moi (Radio Edit).mp3;
#OFFSET:-13.800;
#SAMPLESTART:54.864;
#SAMPLELENGTH:14.240;
#SELECTABLE:YES;
#BPMS:0.000=140.000;
#STOPS:;
#BGCHANGES:;

//---------------dance-single - ----------------
#NOTES:
     dance-single:
     :
     Hard:
     8:
     0.560,0.544,0.422,0.088,0.224:
0010
0000
1000
0000
0010
0000
1000
0100
0000
1000
0100
0000
1000
0000
0100
0000
,
0010
0000
0001
0000
1000
0000
0001
1000
0000
0001
1000
0000
0010
0000
0100
0000
,
0001
0000
0100
0000
0010
0000
0100
0001
0000
0100
0001
0000
0100
0000
0001
0000
,
0010
0000
0100
0000
0010
0000
0001
0010
0000
0001
0010
0000
0001
0000
1000
0000
,
0010
0000
0100
0000
0010
0000
1000
0001
0000
1000
0001
0000
1000
0000
0001
0000
,
0010
0000
0100
0000
1000
0000
0001
1000
0000
0010
1000
0000
0001
0000
1000
0000
,
0010
0000
0100
0000
0001
0000
0010
0001
0000
0010
0001
0000
0010
0000
0100
0000
,
2002
0003
0010
3100
,
1001
0000
1001
0000
0000
0001
0000
0001
,
0000
0001
1000
0010
0100
0001
1000
1010
,
0000
1000
0010
0100
0001
0010
0100
0011
,
0000
0100
1000
0010
0100
0000
0001
0100
,
1000
0000
1001
0000
1001
0000
0001
0100
,
0000
0010
0100
0001
1000
0010
0100
0010
,
0000
0100
0010
0100
0001
0010
0100
1000
,
0000
1001
0000
1001
0000
1001
0000
0001
,
0010
0100
1000
0000
1000
0010
1000
0000
,
0010
0100
0001
0000
0001
0010
0100
0000
,
0100
1000
0010
0000
0010
1000
0010
0000
,
0010
0100
0001
1000
0001
0010
0100
1000
,
0001
1000
0010
0000
0100
0001
0010
0000
,
0001
1000
0010
0100
0001
1000
0010
0000
,
1000
0001
0010
0000
0001
1000
0010
0000
,
1000
1000
0010
0010
0100
0001
1001
0000
,
0001
1000
0010
0100
0010
1000
0010
0200
,
0000
0001
0001
0301
,
1000
0010
1000
0100
1000
0100
1000
0200
,
0000
1000
0010
1300
,
0001
1000
0010
0100
0010
0100
0001
0200
,
0000
0000
1000
0000
0010
0000
0301
0001
,
0010
0100
1000
0010
1000
0001
0010
0100
,
0011
0011
1100
1100
,
1010
0000
0010
1000
0010
0100
0001
0000
,
1001
0000
0001
0010
0100
1000
0010
0000
,
1010
0000
0010
0100
0001
0010
0001
0000
,
0011
0000
0001
1000
0010
1000
0010
1000
,
0001
0010
0100
1000
0001
1000
0010
0000
,
1010
0000
0010
1000
0100
0010
0001
0000
,
0011
0000
0001
0010
0100
1000
0010
0100
,
0002
0000
2003
0000
3020
0000
0130
0100
,
1001
0000
0000
0101
0000
0000
0011
0000
0000
0001
0000
0010
0001
0000
0010
0000
,
1001
0000
0000
0110
0000
0000
1001
0000
0000
0010
0000
0100
0010
0000
0100
0000
,
0110
0000
0000
0101
0000
0000
1010
0000
0000
1000
0000
0010
0100
0000
0100
0000
,
1010
0000
0000
0011
0000
0000
1100
0000
0000
0010
0000
1000
0100
0000
0100
0000
,
0011
0000
0000
1010
0000
0000
1100
0000
0000
0010
0000
0100
0001
0000
1000
0000
,
1010
0000
0000
0101
0000
0000
0011
0000
0000
0100
0000
1000
0100
0000
1000
0000
,
1100
0000
0000
0011
0000
0000
0101
0000
0000
0100
0000
0100
0010
0000
1000
0000
,
1001
0000
0101
0000
1100
0000
1001
0110
,
0100
0000
0001
0000
0100
0000
0001
0010
0000
0001
0010
0000
0001
0000
0010
0000
,
0100
0000
1000
0000
0001
0000
1000
0001
0000
1000
0001
0000
0100
0000
0010
0000
,
1000
0000
0010
0000
0100
0000
0010
1000
0000
0010
1000
0000
0010
0000
1000
0000
,
0100
0000
0010
0000
0100
0000
1000
0100
0000
1000
0100
0000
1000
0000
0001
0000
,
0100
0000
0010
0000
0100
0000
0001
1000
0000
0001
1000
0000
0001
0000
1000
0000
,
0100
0000
0010
0000
0001
0000
1000
0001
0000
0100
0001
0000
1000
0000
0001
0000
,
0100
0000
0010
0000
1000
0000
0100
1000
0000
0100
1000
0000
0100
0000
0010
0000
,
0010
0000
0100
0000
1000
0000
0010
0100
0000
0010
1000
0000
0001
0000
0100
0000
,
2002
3003
0000
0000
;

//---------------dance-single - ----------------
#NOTES:
     dance-single:
     :
     Medium:
     5:
     0.342,0.345,0.185,0.053,0.000: // measure 1
0010
1000
0010
0000
0100
0000
0001
0000
,  // measure 2
1000
0001
1000
0000
0001
0000
0010
0000
,  // measure 3
0100
1000
0100
0000
1000
0000
0001
0000
,  // measure 4
0010
0001
0100
0000
0001
0000
1000
0000
,  // measure 5
0001
1000
0010
0000
0100
0000
0001
0000
,  // measure 6
0010
0100
1000
0000
0001
0000
1000
0000
,  // measure 7
0001
0100
0010
0000
1000
0000
0001
0000
,  // measure 8
0010
0100
1000
0000
0000
0000
0001
0000
,  // measure 9
1000
1010
0000
0010
,  // measure 10
0010
0100
0100
0010
,  // measure 11
0100
0001
1000
0001
,  // measure 12
2000
3000
0002
1003
,  // measure 13
0010
0110
0000
0100
,  // measure 14
0010
0000
0010
0000
0100
0000
0001
1000
,  // measure 15
0001
0000
1000
0000
0001
0000
0000
1000
,  // measure 16
0000
1000
0000
0001
0000
0001
0000
0001
,  // measure 17
1000
0000
0010
0000
0100
0010
0100
0000
,  // measure 18
0001
0000
0010
0000
0001
0010
0001
0000
,  // measure 19
1000
0000
0010
0000
1000
0010
1000
0000
,  // measure 20
1010
0101
0110
1001
,  // measure 21
0001
0000
1000
0000
0001
1000
0001
0000
,  // measure 22
0010
0100
1000
1001
,  // measure 23
1000
0001
1000
0000
0010
1000
0010
0000
,  // measure 24
0010
0010
0010
0100
0010
0100
0100
0000
,  // measure 25
0100
0010
0100
0010
,  // measure 26
0200
0000
0010
0310
,  // measure 27
0010
0000
0100
0000
0010
0000
0100
0010
,  // measure 28
0100
0001
1000
1001
,  // measure 29
1000
0000
0010
0000
1000
0000
0010
1000
,  // measure 30
0020
0000
0100
0130
,  // measure 31
0100
0010
0100
0001
,  // measure 32
0011
0011
1100
1100
,  // measure 33
1001
0001
1000
0010
,  // measure 34
1010
0100
0001
0010
,  // measure 35
0011
0100
1000
0010
,  // measure 36
1001
1000
1000
1010
,  // measure 37
1010
0010
0100
0001
,  // measure 38
0011
0001
1000
0010
,  // measure 39
0110
0001
0010
0100
,  // measure 40
2000
0000
0001
3001
,  // measure 41
0001
1000
0001
1000
,  // measure 42
0010
0100
0010
0100
,  // measure 43
0001
0010
0100
1000
,  // measure 44
1000
0010
0100
0001
,  // measure 45
1000
0010
1000
0010
,  // measure 46
0100
0001
0100
0001
,  // measure 47
0010
0100
1000
0010
,  // measure 48
0200
0000
0010
0310
,  // measure 49
0010
0100
0010
0000
0100
0000
0001
0000
,  // measure 50
1000
0001
1000
0000
0010
0000
0100
0000
,  // measure 51
0001
0010
0100
0000
1000
0000
0001
0000
,  // measure 52
1000
0010
0100
0000
0001
0000
0010
0000
,  // measure 53
0100
0010
0100
0000
0010
0000
0001
0000
,  // measure 54
1000
0010
0100
0000
0010
0000
0100
0000
,  // measure 55
0010
1000
0100
0000
0010
0000
0001
0000
,  // measure 56
1000
0010
1000
0000
0010
0000
1000
0000
,  // measure 57
1001
0000
0000
0000
;

//---------------dance-single - ----------------
#NOTES:
     dance-single:
     :
     Easy:
     3:
     0.235,0.222,0.062,0.114,0.000: // measure 1
0001
0000
1000
1000
,  // measure 2
0010
0000
0100
0100
,  // measure 3
0010
0000
1000
1000
,  // measure 4
0001
0000
0010
0010
,  // measure 5
0001
0000
0100
0100
,  // measure 6
0010
0000
0100
0100
,  // measure 7
0010
0000
1000
0010
,  // measure 8
1000
0000
0010
0100
,  // measure 9
0001
0000
0000
1000
,  // measure 10
1000
0010
1000
0010
,  // measure 11
1000
0000
0001
0001
,  // measure 12
0200
0000
0320
0000
,  // measure 13
0130
0000
0010
0010
,  // measure 14
0100
0001
1000
0000
,  // measure 15
0010
1000
0001
0000
,  // measure 16
2000
0000
3002
0000
,  // measure 17
1003
0000
0001
0001
,  // measure 18
0100
0000
0010
0010
,  // measure 19
0100
0000
0001
0001
,  // measure 20
1000
1000
0001
0001
,  // measure 21
1000
0010
1000
0000
,  // measure 22
0010
0100
0010
0000
,  // measure 23
0001
1000
0001
0000
,  // measure 24
1000
0000
1001
1001
,  // measure 25
1000
0001
1000
0001
,  // measure 26
1000
0000
0010
0010
,  // measure 27
0100
0010
0100
0010
,  // measure 28
0100
0000
0001
1000
,  // measure 29
0001
0010
0100
1000
,  // measure 30
0020
0000
0130
0010
,  // measure 31
1000
0001
0010
0100
,  // measure 32
2000
0000
3001
1000
,  // measure 33
0010
0000
0010
0010
,  // measure 34
0100
0000
0100
0100
,  // measure 35
0010
0000
0010
1000
,  // measure 36
0001
0000
0001
0001
,  // measure 37
2000
3000
0001
1000
,  // measure 38
0020
0030
0100
0010
,  // measure 39
2000
3000
0001
0010
,  // measure 40
0100
0000
1000
0000
,  // measure 41
1010
0000
0101
0000
,  // measure 42
0100
0100
0100
0000
,  // measure 43
0110
0000
1001
0000
,  // measure 44
0001
1000
0001
0000
,  // measure 45
2000
3000
0002
0003
,  // measure 46
1000
0010
1000
0000
,  // measure 47
0020
0000
0230
0000
,  // measure 48
0301
1000
0001
1000
,  // measure 49
0010
0000
0100
0100
,  // measure 50
0010
0000
0001
0001
,  // measure 51
1000
0000
0010
1000
,  // measure 52
0010
0000
0100
0100
,  // measure 53
0010
0000
0100
0001
,  // measure 54
0010
0000
0100
1000
,  // measure 55
0010
0000
1000
0010
,  // measure 56
0100
0000
0001
0000
,  // measure 57
1001
0000
0000
0000
;
