#TITLE:Venus;
#SUBTITLE:;
#ARTIST:Lady Gaga;
#TITLETRANSLIT:;
#SUBTITLETRANSLIT:;
#ARTISTTRANSLIT:;
#CREDIT:;
#BANNER:Venus-bn.png;
#BACKGROUND:Venus-bg.png;
#LYRICSPATH:;
#CDTITLE:cd.png;
#MUSIC:Venus.mp3;
#OFFSET:-8.045;
#SAMPLESTART:71.490;
#SAMPLELENGTH:15.000;
#SELECTABLE:YES;
#BPMS:0.000=120.990,60.000=60.495,76.000=120.990;
#STOPS:14.000=0.496
,29.000=0.496
,44.000=0.496
,59.000=0.496
;
#BGCHANGES:60.000=Venus-bg BW.png=1.000=1=0=0,
76.000=Venus-bg fade.png=1.000=1=0=0,
107.938=flash.png=1.000=0=0=1,
108.000=Venus-bg.png=1.000=1=0=0,
99999=-nosongbg-=1.000=0=0=0 // don't automatically add -songbackground-
;

//---------------dance-single - ----------------
#NOTES:
     dance-single:
     :
     Hard:
     7:
     0.428,0.382,0.262,0.364,0.023: // measure 1
1000
0010
0100
0010
1001
0000
1000
0100
,  // measure 2
1010
0000
0001
1000
0001
1000
0002
0000
,  // measure 3
1003
0000
0010
1000
0010
1000
0020
0000
,  // measure 4
1030
0000
0001
1000
1001
0000
0001
0100
,  // measure 5
0010
0100
1001
0000
0001
0010
0101
0000
,  // measure 6
1000
0001
1000
0001
2000
0000
3001
0000
,  // measure 7
0100
0001
0100
0001
0200
0000
0301
0000
,  // measure 8
1000
0001
1001
0000
0200
0000
0302
0000
,  // measure 9
2003
0000
3010
1000
0010
0000
0010
0100
,  // measure 10
0010
0100
0002
0000
0013
0000
0100
1000
,  // measure 11
0010
0100
0010
0000
1001
0000
0100
0010
,  // measure 12
0001
0000
1000
0010
1000
0010
2000
0000
,  // measure 13
3001
0100
0002
0000
0013
0100
0010
0100
,  // measure 14
0010
0000
0011
0000
0100
1000
0010
1000
,  // measure 15
0001
1000
0001
0100
0010
0100
0001
0000
,  // measure 16
0100
0000
0001
0100
0001
0000
0001
0000
0001
0000
0000
0000
1000
0000
0001
0000
,  // measure 17
1000
0010
1000
0000
0100
0000
1000
0000
0001
0000
0000
0000
0100
0000
0100
0000
,  // measure 18
0010
0000
0100
0010
0100
0000
0001
0000
1000
0000
0000
0000
0001
0000
0000
0000
,  // measure 19
0001
0001
0001
0000
0000
0000
0000
0000
1000
1000
1000
0000
0010
0000
0010
0000
,  // measure 20
1001
0000
0100
1000
0100
1000
0100
1000
,  // measure 21
1100
0000
0001
0100
0001
0100
0001
0000
,  // measure 22
0102
1003
2001
3001
,  // measure 23
0012
0000
0013
0000
0100
1000
0010
1000
,  // measure 24
2010
0000
3010
1000
0010
1000
0010
1000
,  // measure 25
1020
0000
0130
0001
0100
0001
0100
0000
,  // measure 26
0002
1003
2000
3010
,  // measure 27
0020
0130
0001
1000
,  // measure 28
1001
0000
0100
1000
0001
1000
0010
0100
,  // measure 29
0101
0000
0001
0010
0100
1000
0010
0100
,  // measure 30
0010
0010
0010
0000
1001
0000
0001
0000
,  // measure 31
0010
0001
0010
0011
0000
0100
1000
0100
,  // measure 32
1100
0000
0001
1000
0100
0010
0001
1000
,  // measure 33
1001
0000
0010
0100
0001
0010
0001
0000
,  // measure 34
0011
0001
1000
0100
1000
0010
0100
0010
,  // measure 35
0010
0100
0010
0110
0000
0001
1000
0001
,  // measure 36
2001
3002
0203
0320
,  // measure 37
2030
3200
0320
0032
,  // measure 38
0103
0010
0100
0010
,  // measure 39
0010
0100
0010
0110
0000
0001
1000
0001
,  // measure 40
1002
0203
0320
2030
,  // measure 41
3200
0320
0032
0203
,  // measure 42
0320
2030
3002
0103
,  // measure 43
2002
0000
0000
3003
,  // measure 44
1001
0000
0000
0000
;

//---------------dance-single - ----------------
#NOTES:
     dance-single:
     :
     Medium:
     5:
     0.319,0.341,0.206,0.308,0.009:
0001
0000
1000
0000
0001
0000
0100
0010
,
0100
0001
1000
0100
,
1000
0000
0010
0100
0010
0000
0100
0000
,
0001
1000
1001
0001
,
1000
0100
1000
0010
,
0010
0001
0010
0000
0001
0000
1000
0000
,
0010
0100
0010
0000
0001
0000
1000
0000
,
0001
1010
0100
0100
,
0001
0100
0202
0303
,
0001
0000
0001
0000
1000
0000
0010
1000
,
0010
0100
0010
0100
,
0011
0001
1000
0010
,
0100
1000
0100
0000
1000
0000
0010
0000
,
0100
0000
0001
0000
1000
0001
1000
0000
,
0010
0001
1000
0101
,
2002
0000
3003
0001
0001
0000
0000
0000
,
1000
0000
0010
0010
0101
0000
0000
0000
,
0100
0000
0010
1000
0001
0000
0000
0000
,
1000
1000
1000
0000
0000
0000
0000
0000
0001
0001
0001
0000
0000
0000
0001
0000
,
1001
0001
1000
0010
,
1000
0000
0001
1000
,
2002
3003
0220
0330
,
2002
3003
0001
0010
,
0011
0000
0100
1000
,
1100
0000
0010
0100
,
0220
0330
0220
0330
,
0110
0001
1000
0010
,
1001
0000
0001
1000
0001
0000
0010
0000
,
0101
0000
0001
1000
0100
0000
1000
0000
,
1010
0100
0010
0100
,
0001
0100
0001
0100
0000
0010
1000
0010
,
1000
0000
0100
1000
0100
0000
0010
0000
,
0101
0000
0001
0010
0001
0000
0100
0000
,
0010
0100
0010
1000
,
0010
0100
0001
0100
0000
0010
1000
0100
,
2000
3002
0023
0230
,
0320
0000
2030
0000
3002
0000
1003
0001
,
1000
0010
0100
0010
,
0001
0100
0001
1000
0000
0001
1000
0100
,
1000
0020
0230
0302
,
0023
0230
2300
3002
,
0023
0230
0302
1003
,
2002
0000
0000
3003
,
1001
0000
0000
0000
;

//---------------dance-single - ----------------
#NOTES:
     dance-single:
     :
     Easy:
     3:
     0.227,0.281,0.140,0.206,0.000:
1000
1000
0001
1000
,
0001
1000
0010
0000
,
0000
0100
0010
0000
,
0000
0000
1001
0001
,
1000
0001
0100
0010
,
0100
1000
0000
0000
,
0001
0010
0000
0000
,
0000
1100
0001
0000
,
1000
0010
1000
0001
,
1000
0010
1000
0000
,
0001
0000
0010
0000
,
0110
0001
1000
0010
,
1000
0100
1000
0010
,
0001
1000
0000
0010
,
0000
0001
0000
1001
,
0001
0000
2000
0000
,
3001
0000
0020
0030
,
0200
0000
0020
0030
,
0301
0000
1000
0001
,
0001
0000
1000
1000
,
1000
0000
0010
0010
,
0010
0000
0220
0330
,
0220
0330
0001
0001
,
0001
0000
0100
0100
,
0100
0000
0010
0010
,
2020
3030
2020
3030
,
2020
3030
0002
1003
,
1001
1000
1000
0020
,
1030
0001
1000
0002
,
0103
0101
1000
0010
,
1000
1000
0001
0001
,
0010
0100
0010
0100
,
1000
0002
1000
0010
,
1001
0010
0100
0010
,
0100
0001
0010
0001
,
2000
0010
0001
0100
,
0001
0010
0100
0010
,
3001
0001
1000
0001
,
1001
0000
0000
0000
,
1002
0100
1000
0100
,
0010
1000
0100
1000
,
0013
0001
1000
0010
,
2002
0000
0000
3003
,
1001
0000
0000
0000
;
