#TITLE:Up & Down;
#SUBTITLE:(Don't Fall In Love With Me);
#ARTIST:Billy More;
#TITLETRANSLIT:;
#SUBTITLETRANSLIT:;
#ARTISTTRANSLIT:;
#CREDIT:;
#BANNER:Up & Down (Don't Fall In Love With Me)-bn.PNG;
#BACKGROUND:Up & Down (Don't Fall In Love With Me)-bg.PNG;
#LYRICSPATH:;
#CDTITLE:cd.png;
#MUSIC:Up & Down (Don't Fall In Love With Me).ogg;
#OFFSET:-5.705;
#SAMPLESTART:80.770;
#SAMPLELENGTH:12.000;
#SELECTABLE:YES;
#BPMS:0.000=129.990,148.000=64.995,156.000=129.990;
#STOPS:;
#BGCHANGES:;

//---------------dance-single - ----------------
#NOTES:
     dance-single:
     :
     Hard:
     8:
     0.544,0.551,0.169,0.376,0.207: // measure 1
0000
0000
0000
0000
0000
1000
0100
0010
,  // measure 2
0001
0000
0000
0000
0010
0000
0100
1000
0000
0000
0010
0000
1000
0000
0010
0000
,  // measure 3
0100
0000
0000
0001
0000
0100
0000
0000
0010
0000
0100
0000
0001
0000
0100
0010
,  // measure 4
0000
0000
0000
0000
1000
0000
0100
0010
0000
0000
0000
0000
0001
0000
1000
0000
,  // measure 5
0020
0000
2030
0000
3100
0010
0001
1000
,  // measure 6
0010
0000
0000
0000
0100
0000
0001
0100
0000
0000
0010
0000
1000
0000
0100
0000
,  // measure 7
0010
0000
0000
0001
0000
0010
0000
0000
0100
0000
1000
0000
0010
0000
0100
0010
,  // measure 8
0000
0000
0000
0000
0100
0000
0001
0100
0000
0000
0000
0000
0010
0000
1000
0000
,  // measure 9
0200
0000
2300
0000
3010
1000
0001
0010
,  // measure 10
0100
0000
1000
0000
0010
0000
0100
0001
0000
0000
1000
0000
0010
0000
0100
0000
,  // measure 11
0001
0000
0000
0100
0010
0000
0100
0010
0000
0000
1000
0000
0001
0000
0010
0000
,  // measure 12
0100
0000
1000
0000
0001
0000
1000
0010
0000
0000
0100
0000
0001
0000
0010
0000
,  // measure 13
0100
0000
0000
0010
0001
0000
0010
0001
0000
0000
0010
0000
0100
0000
1000
0000
,  // measure 14
0010
0000
0100
0000
0001
0000
1000
0010
0000
0000
1000
0000
0100
0000
0010
0000
,  // measure 15
0000
0000
0000
0001
1000
0000
0001
1000
0000
0000
0010
0000
0100
0000
0001
0000
,  // measure 16
1000
0000
0100
0000
0010
0000
0001
0010
0000
0000
0001
0000
0100
0000
0010
0000
,  // measure 17
0220
0000
0000
0000
0330
0000
0000
0000
0010
0100
0010
0000
1001
0000
0000
0000
,  // measure 18
0020
0000
0031
0100
0010
0000
1000
0010
,  // measure 19
0100
0001
0010
0100
1000
0001
0100
0010
,  // measure 20
2000
3200
0320
0031
,  // measure 21
0101
0110
1010
1001
,  // measure 22
0200
0000
0310
1000
0200
0000
0310
0001
,  // measure 23
1000
0010
0100
0001
1000
0100
0010
0100
,  // measure 24
2000
3002
0203
0320
,  // measure 25
1030
0001
0100
0010
0100
0001
0010
0100
,  // measure 26
0010
0000
0000
0000
0001
0000
0100
0010
0000
0000
0100
0000
0100
0000
0010
0000
,  // measure 27
1001
0000
0100
0001
1000
0100
0010
0100
,  // measure 28
2000
0000
3001
0100
0020
0000
1030
0001
,  // measure 29
0200
0000
0302
0000
0023
0000
0031
0010
,  // measure 30
1001
0000
0000
0000
1000
0000
0010
0100
0000
0000
0010
0000
0100
0000
0001
0000
,  // measure 31
1000
0000
0000
0000
0100
0000
0010
0000
0001
0000
1000
0000
0100
0000
0010
0002
,  // measure 32
0000
0000
0000
0000
0103
0000
0010
2000
0000
0000
0000
0000
3100
0000
0010
0000
,  // measure 33
0002
0000
0203
0000
0320
0000
2030
0001
,  // measure 34
3200
0000
0301
0100
0002
0000
0023
0000
,  // measure 35
0230
0000
1000
1000
2300
0000
3020
0000
,  // measure 36
0230
0000
0301
0010
0002
0000
0103
0010
,  // measure 37
1000
0100
0010
0100
0020
0000
0130
0000
,  // measure 38
1001
0000
1000
0001
1000
0000
1001
0000
0110
0000
0100
0010
0100
0000
0110
0000
,  // measure 39
1001
0000
0100
0100
0100
0000
0100
0010
0100
0010
0100
0010
0100
0000
1001
0000
,  // measure 40
0100
0000
1000
0000
0010
0000
0100
0001
0000
0000
1000
0000
0010
0000
0100
0000
,  // measure 41
0001
0000
0000
0100
0010
0000
0100
0010
0000
0000
1000
0000
0001
0000
0010
0000
,  // measure 42
0100
0000
1000
0000
0001
0000
1000
0010
0000
0000
0100
0000
0001
0000
0010
0000
,  // measure 43
0100
0000
0000
0010
0001
0000
0010
0001
0000
0000
0010
0000
0100
0000
1000
0000
,  // measure 44
0010
0000
0100
0000
0001
0000
1000
0010
0000
0000
1000
0000
0100
0000
0010
0000
,  // measure 45
0000
0000
0000
0001
1000
0000
0001
1000
0000
0000
0100
0000
0010
0000
0001
0000
,  // measure 46
0010
0000
0001
0000
1000
0000
0010
1000
0000
0000
0010
0000
0100
0000
0001
0000
,  // measure 47
0010
0000
0000
0010
0001
0000
0010
0001
0000
0000
0010
0000
0002
0000
0000
0000
,  // measure 48
0013
0001
0100
0010
1000
0001
1002
0000
,  // measure 49
0103
0010
0100
0010
0120
0000
1030
0000
,  // measure 50
0001
0000
0100
0000
0001
0000
1000
0000
0001
0000
1000
0010
1000
0000
0000
0000
,  // measure 51
1000
0100
0010
0001
1002
0000
1003
0000
,  // measure 52
1001
0000
0000
0000
;

//---------------dance-single - ----------------
#NOTES:
     dance-single:
     :
     Medium:
     5:
     0.462,0.407,0.357,0.573,0.000:
0000
0000
0000
0010
,
1001
0000
0001
1000
0001
0000
2000
0000
,
3010
0000
0100
0010
0100
0000
0002
0000
,
1003
0000
1010
0000
0101
0000
0010
1000
,
0020
0230
0302
2003
,
3002
0000
1003
0001
1000
0000
0020
0000
,
0130
0000
0010
0100
0010
0000
1000
0001
,
1000
0000
0010
1000
0010
0000
0100
0001
,
0200
0320
2030
3002
,
2003
3010
1010
1010
,
0002
0103
0101
0101
,
0020
0130
0110
0110
,
0020
0130
1010
1010
,
0002
0013
1100
0011
,
0002
1003
0110
0101
,
0020
0130
0101
1010
,
2002
3003
0100
1001
,
0002
0000
1000
1000
1000
0000
1003
0010
,
0100
0000
0001
0000
0010
0000
0001
1000
,
0020
0230
0302
0023
,
0230
2300
3002
1003
,
1001
0000
0001
1000
0001
0000
1000
0010
,
2000
3020
0230
0302
,
0023
0230
2300
3002
,
2003
0000
0001
3001
,
1001
0000
0001
1000
0010
0000
0010
0000
,
0110
0000
0010
0100
0010
0000
0100
0001
,
0100
0000
0001
0010
0001
0000
0010
0100
,
1000
0000
0010
0000
1000
0000
0010
1000
,
0010
0000
1000
0010
2000
0000
3010
0000
,
0100
0000
0001
0010
0002
0000
0013
0000
,
0100
0000
1000
0001
1000
0000
0001
1000
,
0020
0000
0130
0000
0001
0000
1000
0100
,
0020
0032
2003
3010
,
1010
1010
0101
0101
,
1001
0000
0001
1000
0001
0000
1000
0001
,
2000
3020
0230
0301
,
1001
0020
0230
0320
,
2030
0000
3002
0000
1003
0001
1000
0001
,
1001
0000
0001
1000
0002
0000
1003
0000
,
0010
0000
1000
0010
2000
0000
3010
0000
,
0100
0000
0001
0100
0002
0000
0103
0000
,
0110
0000
0001
0010
0001
0000
0010
0000
,
1100
0000
0001
1000
0002
0000
1003
0000
,
1010
0000
0001
0100
0002
0000
0103
0000
,
0110
1001
0110
1001
,
0001
1000
0001
1000
0001
1000
1010
0000
,
0001
1000
0001
1000
0002
0000
1003
0000
,
0010
0100
0010
0100
0020
0000
0130
0000
,
0001
1000
0001
0010
0002
0000
0013
0000
,
0001
1000
0010
0100
0020
0000
0130
0000
,
1001
0000
0000
0000
;

//---------------dance-single - ----------------
#NOTES:
     dance-single:
     :
     Easy:
     3:
     0.281,0.312,0.169,0.263,0.000:
0000
0000
0000
0010
,
1001
0000
0001
0001
,
0001
0000
1000
1000
,
1000
0000
0010
0000
,
0100
0000
0010
0010
,
1001
0000
1000
0001
,
1000
0000
0001
0100
,
0010
0000
0100
0000
,
1001
0000
0001
1000
,
1001
0000
0001
0001
,
1000
0000
0010
0010
,
0100
0000
0001
0001
,
0010
0000
0100
0100
,
1000
0000
0001
1000
,
0001
0000
1000
0010
,
0100
0000
0010
0100
,
0001
0000
1000
0001
,
1001
0000
0001
0000
,
1000
1000
0001
0001
,
0010
0100
1000
0010
,
0100
0001
1000
0001
,
1001
0000
0001
0000
,
1000
1000
0001
1000
,
0001
0010
0100
1000
,
1001
0000
0001
1000
,
0020
0000
0100
0230
,
0302
0000
1000
1000
,
2003
0000
3002
0000
,
2003
3002
2003
3002
,
2003
0000
0001
0001
,
3002
0000
1000
1000
,
2003
0000
3002
0000
,
2003
3002
2003
3010
,
0200
0000
0320
0000
,
2030
0000
3002
0000
,
0023
0000
0230
0000
,
1300
0001
1000
0001
,
2002
0000
0000
3003
0220
0000
0000
0330
,
0002
2003
3001
1001
,
1001
0001
0001
0001
,
1000
0010
0100
0001
,
0010
0100
1000
0010
,
1001
0001
1000
0001
,
1001
0001
0010
0100
,
1000
0010
0100
0001
,
1001
0001
0010
0100
,
1000
0001
0010
1001
,
0010
1000
0001
0100
,
0010
1000
1001
1001
,
0001
0010
0100
1000
,
0001
1000
0010
0100
,
1001
0000
0000
0000
;
