#TITLE:宇宙戦艦ヤマト;
#SUBTITLE:;
#ARTIST:DJ Kazma;
#TITLETRANSLIT:Uchuu Senkan Yamato;
#SUBTITLETRANSLIT:;
#ARTISTTRANSLIT:;
#CREDIT:;
#BANNER:Uchuu Senkan Yamato-bn.png;
#BACKGROUND:Uchuu Senkan Yamato-bg.png;
#LYRICSPATH:;
#CDTITLE:cd.png;
#MUSIC:Uchuu Senkan Yamato.mp3;
#OFFSET:-5.990;
#SAMPLESTART:71.130;
#SAMPLELENGTH:12.000;
#SELECTABLE:YES;
#BPMS:0.000=162.010;
#STOPS:;
#BGCHANGES:;

//---------------dance-single - ----------------
#NOTES:
     dance-single:
     :
     Hard:
     8:
     0.603,0.556,0.256,0.380,0.212:
2000
0000
0000
0000
,
0001
0000
3010
0010
,
0020
0000
0030
0000
,
2002
3003
0220
0330
,
2000
0001
0010
3100
,
0002
0010
0100
1003
,
2000
3010
0200
0301
,
1000
0010
0100
0000
0001
1000
0100
0000
,
0010
0001
0010
0000
0100
1000
0100
0000
,
1000
0001
1000
0000
0010
0100
0010
0000
,
1000
0100
0010
0001
1000
0010
0100
0001
,
1000
0000
0000
1000
0000
0000
1000
0000
0000
0000
0001
0000
2000
0000
0000
0000
,
3010
0000
0000
0000
,
0001
1000
0000
0000
0001
1000
0000
0000
0100
0000
1000
0000
0001
0000
0100
0000
,
0001
1000
0000
0000
0001
1000
0000
0000
0110
0000
0000
0000
1001
0000
0000
0000
,
0010
0100
0000
0000
0010
0100
0000
0000
0010
0000
0100
0000
0010
0000
0000
0000
,
1000
0100
0010
0010
0001
1000
0100
0100
,
1000
0010
0000
0000
1000
0010
0000
0000
1000
0000
0001
0000
0100
0000
0010
0000
,
0100
0001
0000
0000
0100
0001
0000
0000
1001
0000
0000
0000
0110
0000
0000
0000
,
0100
0010
0000
0000
0100
0010
0000
0000
0100
0000
0001
0000
1000
0000
0010
0000
,
0100
0000
0000
0100
0000
0000
0100
0000
0000
0000
0100
0000
0100
0000
0001
0000
,
2000
0000
0010
0000
3001
0100
0010
1000
,
0002
0000
0100
0000
1003
0000
0010
1000
,
0020
0000
0100
0000
1030
1000
0010
1000
,
0002
0000
0100
0000
0013
0000
1000
0001
,
2000
0000
3001
0000
1000
0001
1000
0010
,
0010
0000
0100
0000
0000
0100
0000
0000
0010
0000
0000
0010
0000
0000
0100
0000
,
2002
3003
0220
0330
,
2001
0010
0001
3010
,
0001
0100
0010
0000
1001
0000
0110
0000
,
0001
0100
0010
1000
0001
0010
0002
0000
,
0013
0001
0010
0001
1000
0100
2000
0000
,
3010
1000
0010
0000
0100
0001
0100
0000
,
0010
0100
0001
1000
0010
1000
0010
1000
,
0020
0000
1000
0000
0130
0000
0100
0010
,
2001
0000
0001
0000
3010
0100
0001
1000
,
0020
0000
1000
0000
0130
0000
0100
0010
,
0200
0000
0001
0000
0310
0100
0001
0010
,
0002
0000
1000
0000
1003
0000
1000
0010
,
1000
0000
0001
0100
0010
0000
1000
0001
,
2000
0000
3001
0010
0200
0000
0310
0001
,
2000
0010
0001
3010
,
0010
1000
0010
0100
0001
0100
0010
0000
,
1000
0001
1000
0000
2002
0000
3003
0000
,
1000
0010
0100
0001
1000
0100
2000
0000
,
3100
1000
0100
1000
0001
0010
0002
0000
,
0103
0001
0100
0000
0010
1000
0010
0000
,
0100
0010
1000
0001
0100
0001
0100
0001
,
1001
0000
0000
0000
,
2002
3003
0220
0330
,
2001
0001
0001
3001
,
1000
0010
0100
0001
1000
0000
1001
0000
,
1000
0001
0000
0000
1000
0001
0000
0000
0010
0000
0001
0000
1000
0000
0010
0000
,
1000
0001
0000
0000
1000
0001
0000
0000
0110
0000
0000
0000
1001
0000
0000
0000
,
0100
0010
0000
0000
0100
0010
0000
0000
0100
0000
0010
0000
0100
0000
0000
0000
,
0001
0010
0100
0100
1000
0001
0010
0010
,
0001
0100
0000
0000
0001
0100
0000
0000
0001
0000
1000
0000
0010
0000
0100
0000
,
0010
1000
0000
0000
0010
1000
0000
0000
1001
0000
0000
0000
0110
0000
0000
0000
,
0010
0100
0000
0000
0010
0100
0000
0000
0010
0000
1000
0000
0001
0000
0100
0000
,
0010
0000
0000
0010
0000
0000
0010
0000
0000
0000
0010
0000
0010
0000
1000
0000
,
0001
1000
0001
0000
1001
0000
0000
0010
0000
1000
0000
1000
0100
0000
0000
0000
,
0010
0001
0010
0000
1100
0000
0000
0000
2000
0000
0000
0000
3001
0000
0000
0000
,
0001
0100
0001
0000
1001
0000
0000
0001
0000
0001
0000
0100
0001
0000
0000
0000
,
0100
0010
0100
0010
1000
0001
1000
0001
,
1000
0001
1000
0000
1001
0000
0000
0100
0000
0001
0000
0001
0010
0000
0000
0000
,
0100
1000
0100
0000
0011
0000
0000
0000
0002
0000
0000
0000
1003
0000
0000
0000
,
1000
0010
1000
0000
1001
0000
0000
1000
0000
1000
0000
0010
1000
0000
0000
0000
,
0010
0000
0000
0100
0000
0000
1001
0000
0000
0000
1000
0000
0001
0000
1000
0000
,
0020
0000
0130
0001
1000
0010
0100
0001
,
1000
0010
0100
0000
0001
0100
0010
1000
;

//---------------dance-single - ----------------
#NOTES:
     dance-single:
     :
     Medium:
     6:
     0.427,0.464,0.248,0.318,0.000: // measure 1
2002
0000
0000
0000
,  // measure 2
3003
0000
0000
0000
0000
1000
0000
0000
,  // measure 3
0001
0000
0000
0000
,  // measure 4
1001
0000
0110
0000
,  // measure 5
1000
0001
1000
0010
,  // measure 6
0100
0010
1000
0001
,  // measure 7
1000
0010
0100
0010
,  // measure 8
1000
0001
1000
1001
,  // measure 9
0001
1000
0001
0000
0100
0000
0010
0000
,  // measure 10
1000
0001
0100
0010
,  // measure 11
1000
0010
1000
0000
0010
0000
0100
0000
,  // measure 12
0002
0000
1003
0000
,  // measure 13
2002
0000
0000
3003
,  // measure 14
1000
0000
0010
0000
1000
0010
1000
0000
,  // measure 15
0010
0100
1010
0101
,  // measure 16
0001
0000
1000
0000
0001
0010
0001
0000
,  // measure 17
1000
0010
0100
0010
,  // measure 18
1000
0000
0001
0000
1000
0001
1000
0000
,  // measure 19
0001
0010
1100
0011
,  // measure 20
0001
0000
0100
0000
0001
0100
0010
0000
,  // measure 21
1000
0010
1000
0001
,  // measure 22
2000
0000
3010
0000
0001
0100
0010
0000
,  // measure 23
1000
0000
0001
0000
1000
0010
1000
0000
,  // measure 24
0002
0000
0103
0000
0010
1000
0001
0000
,  // measure 25
1000
0000
0010
0000
1000
0001
1000
0000
,  // measure 26
0002
0000
0013
0000
0100
1000
0001
0000
,  // measure 27
1000
0000
0010
0000
0100
0010
0100
0000
,  // measure 28
0001
0000
1001
0000
,  // measure 29
2010
0001
0010
3001
,  // measure 30
0102
1000
0100
1003
,  // measure 31
1000
0010
1000
0000
0020
0000
0130
0000
,  // measure 32
0001
1000
0001
0000
2000
0000
3010
0000
,  // measure 33
0100
0010
0100
0000
0002
0000
1003
0000
,  // measure 34
0010
1000
0010
0000
0200
0000
0310
0000
,  // measure 35
2000
0000
0001
0001
,  // measure 36
3002
0000
1000
1000
,  // measure 37
2003
0000
0010
0010
,  // measure 38
3020
0000
0100
0100
,  // measure 39
0230
0000
0001
0001
,  // measure 40
0302
0000
1000
1000
,  // measure 41
2003
0000
0001
0001
,  // measure 42
3002
0000
0000
0000
1000
0000
1000
0003
,  // measure 43
2000
0000
3002
0000
,  // measure 44
1003
0100
2002
3003
,  // measure 45
2000
0000
3010
0000
1000
0010
1000
0000
,  // measure 46
0010
0000
0100
0000
0001
0100
0001
0000
,  // measure 47
0200
0310
1000
0000
,  // measure 48
0001
1000
0010
0000
,  // measure 49
2002
0000
0000
3003
,  // measure 50
1001
0000
0110
0000
,  // measure 51
2001
0001
0001
3001
,  // measure 52
0001
0000
0000
1000
0000
0000
1001
0000
,  // measure 53
0001
0000
1000
0000
0010
1000
0010
0000
,  // measure 54
0100
0010
0110
1001
,  // measure 55
1000
0000
0001
0000
0100
0010
0100
0000
,  // measure 56
0010
0100
0010
1001
,  // measure 57
1000
0000
0001
0000
1000
0001
1000
0000
,  // measure 58
0010
0100
1010
0101
,  // measure 59
0010
0000
0100
0000
0001
1000
0001
0000
,  // measure 60
2000
0000
0000
0001
0000
0000
3001
0000
,  // measure 61
0001
0000
1000
0000
0001
1000
0001
1000
,  // measure 62
0001
1000
1010
0101
,  // measure 63
0100
0000
0010
0000
1000
0010
1000
0000
,  // measure 64
0010
0100
0001
0110
,  // measure 65
1000
0000
0001
0000
0010
0001
0010
0001
,  // measure 66
0010
0100
1100
0011
,  // measure 67
0001
0000
1000
0000
0010
1000
0010
1000
,  // measure 68
0001
1000
0001
1000
,  // measure 69
2000
3020
0230
0302
,  // measure 70
0103
0010
0100
0000
0010
0100
0010
0100
;

//---------------dance-single - ----------------
#NOTES:
     dance-single:
     :
     Easy:
     4:
     0.310,0.402,0.177,0.203,0.000: // measure 1
0002
0000
0000
0000
,  // measure 2
0000
0003
0000
0000
,  // measure 3
0200
0000
0000
0000
,  // measure 4
0310
0000
1001
0000
,  // measure 5
1000
0000
0001
0000
,  // measure 6
1000
0001
1000
0000
,  // measure 7
0010
0000
0100
0000
,  // measure 8
0010
0100
0010
0000
,  // measure 9
1000
0001
1000
0000
,  // measure 10
0010
0100
0001
0000
,  // measure 11
1000
0010
0100
0000
,  // measure 12
0002
0000
2000
3003
,  // measure 13
1001
0000
0000
0000
,  // measure 14
1000
0010
0100
0001
,  // measure 15
1000
0010
1001
0000
,  // measure 16
0001
1000
0100
0010
,  // measure 17
0001
0001
1000
1000
,  // measure 18
0010
0100
0001
1000
,  // measure 19
0010
0100
1001
0000
,  // measure 20
0001
1000
0010
0100
,  // measure 21
0200
0000
0310
0000
,  // measure 22
0100
0100
0100
0000
,  // measure 23
0010
0010
0010
0000
,  // measure 24
1000
1000
1000
0000
,  // measure 25
0001
0001
0001
0000
,  // measure 26
1000
0010
1000
0000
,  // measure 27
0001
0100
0001
0000
,  // measure 28
1001
0000
0110
0000
,  // measure 29
2001
0001
0001
3001
,  // measure 30
1002
1000
1000
1003
,  // measure 31
1000
0010
0100
1001
,  // measure 32
0001
1000
0010
0110
,  // measure 33
0010
0100
0001
1001
,  // measure 34
0001
1000
0010
0110
,  // measure 35
0210
0000
0010
0310
,  // measure 36
0020
0000
0000
0100
,  // measure 37
0230
0000
0000
0001
,  // measure 38
0302
0000
0000
1000
,  // measure 39
2003
0000
0000
0010
,  // measure 40
3002
0000
0000
1000
,  // measure 41
0203
0000
0000
0010
,  // measure 42
0302
0000
2003
0000
,  // measure 43
3020
0000
0230
0000
,  // measure 44
0310
0100
1001
0000
,  // measure 45
0001
0001
1000
0000
,  // measure 46
1000
0010
0100
0000
,  // measure 47
0100
0100
0010
0000
,  // measure 48
0100
0010
1000
0000
,  // measure 49
1001
0000
0000
0000
,  // measure 50
1001
0000
0110
0000
,  // measure 51
2002
0000
0000
0000
,  // measure 52
3003
0000
0000
0000
,  // measure 53
1000
0010
0100
0001
,  // measure 54
1000
0010
1001
0000
,  // measure 55
0001
0010
0100
1000
,  // measure 56
0001
0001
1000
1000
,  // measure 57
0001
1000
0010
1000
,  // measure 58
0100
0010
1001
0000
,  // measure 59
0001
1000
0010
0100
,  // measure 60
0002
0000
1003
0000
,  // measure 61
1000
0001
1000
0010
,  // measure 62
0100
0010
1000
0001
,  // measure 63
0100
0010
1000
0001
,  // measure 64
1000
1000
0001
0001
,  // measure 65
1000
0010
1000
0010
,  // measure 66
0100
0001
0010
0100
,  // measure 67
1000
1000
0001
0001
,  // measure 68
2000
0000
0001
0001
,  // measure 69
3001
0000
1000
0000
,  // measure 70
0010
0100
0001
2000
,  // measure 71
3001
0000
0000
0000
;
