#TITLE:Tsunami Comes;
#SUBTITLE:;
#ARTIST:Mad Max;
#TITLETRANSLIT:;
#SUBTITLETRANSLIT:;
#ARTISTTRANSLIT:;
#CREDIT:;
#BANNER:Tsunami Comes-bn.png;
#BACKGROUND:Tsunami Comes-bg.PNG;
#LYRICSPATH:;
#CDTITLE:Super Eurobeat 148.png;
#MUSIC:Tsunami Comes.mp3;
#OFFSET:-9.100;
#SAMPLESTART:44.704;
#SAMPLELENGTH:12.000;
#SELECTABLE:YES;
#BPMS:0.000=159.880;
#STOPS:;
#BGCHANGES:;

//---------------dance-single - ----------------
#NOTES:
     dance-single:
     :
     Hard:
     8:
     0.579,0.590,0.367,0.795,0.000:
1001
0000
1000
0002
0000
0203
0000
0320
,
0000
0230
0000
0001
0000
0001
0301
0000
,
2000
0000
3010
2000
0000
3200
0000
2300
,
0000
3002
0000
0013
0100
1000
0001
0000
,
1001
0000
0001
0020
0000
0230
0000
2300
,
0000
3002
0000
1000
0000
1000
1003
0000
,
0020
0000
1030
0200
0000
2300
0000
3002
,
0000
0023
0000
0130
0010
0001
1000
0000
,
0001
0010
0100
2000
0000
0001
3001
0000
,
1000
0010
0100
0002
0000
1000
1003
0000
,
2001
0000
3001
0000
0210
0000
0301
1000
,
0001
0000
1001
0000
1000
0001
1000
0000
,
0100
0010
0001
2000
0000
0010
3010
0000
,
0100
0010
1000
0002
0000
0100
0103
0000
,
0101
0000
1001
0000
1100
0000
1000
0001
,
0200
0000
0310
0100
0001
1000
0100
0010
,
2001
3002
0023
0230
,
2300
3020
0230
0302
,
0013
0100
0000
1100
0000
1001
0000
0001
,
1000
0010
0000
0101
0000
1010
0000
0010
,
2000
3020
0230
0302
,
0023
0230
2300
3002
,
0023
0000
0001
0031
0000
0100
1001
0000
,
0100
0010
0100
1001
0000
0000
0001
0010
,
0100
1000
0010
0102
0000
1003
1000
0100
,
0010
0001
0100
2010
0000
3001
1000
0001
,
1001
0000
0011
0000
1100
0000
0001
0010
,
0200
0000
2300
0000
3002
0000
1003
0010
,
0100
0001
1000
0012
0000
0013
0001
1000
,
0100
0010
0001
2100
0000
3001
0100
0001
,
1001
0000
0110
0000
1001
0000
0100
1000
,
0001
0010
0200
0000
1300
0000
0010
1000
,
0001
0010
0100
1000
0001
1000
0010
0100
,
0001
0000
1000
0200
0000
0320
0000
0032
,
0000
0203
0000
0010
0000
0310
0010
0000
,
0010
0000
0100
0002
0000
0203
0000
0320
,
0000
2030
0000
3001
1000
0010
0100
0000
,
0001
0000
0010
0200
0000
2300
0000
3002
,
0000
0203
0000
0001
0000
0301
0001
0000
,
1000
0000
0010
0200
0000
0302
0000
2003
,
0000
3020
0000
0130
0010
0100
0001
0000
,
2000
3002
0013
0011
,
0002
2003
3010
1010
,
0100
1000
0100
0000
0010
0001
0010
0000
,
0100
0000
1000
0000
0010
1000
0010
1000
,
0001
0010
0100
1100
,
1000
0100
0010
0011
,
0001
0000
1000
0010
1000
0000
0101
0000
,
0001
0010
0100
2000
0000
0000
3001
0000
,
0100
0001
0100
0001
0000
0000
1001
0000
,
0010
1000
0010
1000
0000
0000
0001
1000
,
1001
0000
0110
0000
1001
0000
0001
0010
,
1100
0000
1100
0000
1001
0000
0001
0010
,
0100
1000
0100
2000
0000
3001
1001
0000
,
0100
0010
0100
0020
0000
0130
1001
0000
,
0110
1001
0110
1001
,
0010
0100
0001
1000
0001
0010
0100
1000
,
0100
0000
1000
0000
0001
1000
0010
1000
,
0001
0000
1000
0020
0000
0230
0000
0302
,
0000
2003
0000
3020
0000
0000
0030
0000
,
1000
0000
0001
0200
0000
0320
0000
2030
,
0000
3002
0000
1003
0010
0000
1000
0000
,
0001
0000
0100
0020
0000
2030
0000
3002
,
0000
0023
0000
0230
0000
0000
0300
0000
,
1000
0000
0010
2000
0000
3002
0000
0203
,
0000
0320
0000
1030
0001
0000
2000
0000
,
0002
0000
0000
0000
,
0000
0000
0000
0000
,
0000
0000
0000
0000
,
3003
0000
0000
0000
;

//---------------dance-single - ----------------
#NOTES:
     dance-single:
     :
     Medium:
     5:
     0.298,0.383,0.171,0.162,0.000: // measure 1
1000
0010
0100
0001
,  // measure 2
1000
0000
1000
0000
,  // measure 3
0001
1000
0100
0010
,  // measure 4
0001
0000
0001
0000
,  // measure 5
1000
0010
0100
0001
,  // measure 6
1000
0000
1000
0000
,  // measure 7
1000
0010
0100
0001
,  // measure 8
0010
0000
0010
0000
,  // measure 9
0001
0001
0002
0003
,  // measure 10
1000
1000
2000
3000
,  // measure 11
0010
0000
0100
0000
0001
0000
1000
0001
,  // measure 12
0000
0001
0000
0000
1000
0000
0001
0000
,  // measure 13
1000
0010
0200
0300
,  // measure 14
0010
1000
0002
0003
,  // measure 15
1000
0000
0001
0000
1000
0000
0001
1000
,  // measure 16
0000
0000
0010
0010
,  // measure 17
0100
0100
0010
0110
,  // measure 18
0100
0100
0001
1001
,  // measure 19
1000
0001
0000
1001
0000
0000
0000
0000
,  // measure 20
1000
0010
0000
0101
0000
1010
0000
0000
,  // measure 21
0010
1000
0001
1001
,  // measure 22
1000
0010
0100
0110
,  // measure 23
0001
0000
1000
0001
0000
0000
0000
0000
,  // measure 24
1000
0010
0100
0001
0000
0000
1000
0000
,  // measure 25
0001
1000
0001
1000
0000
0000
1000
0000
,  // measure 26
0010
0100
0010
0100
0000
0000
0100
0000
,  // measure 27
0010
0010
0100
0110
,  // measure 28
1001
0110
1001
0001
,  // measure 29
1000
0001
1000
0001
0000
0000
1000
0000
,  // measure 30
0010
1000
0010
1000
0000
0000
0010
0000
,  // measure 31
0100
0100
0101
1010
,  // measure 32
0010
1000
0001
1000
,  // measure 33
0020
0000
0000
0100
,  // measure 34
0230
0000
0000
0000
,  // measure 35
0000
0000
0000
0000
,  // measure 36
0000
0000
0000
0000
,  // measure 37
0300
0000
0000
0000
,  // measure 38
0010
0010
0100
0100
,  // measure 39
0010
1000
1001
0000
,  // measure 40
1000
1000
0001
0001
,  // measure 41
1000
0010
0100
1001
,  // measure 42
2000
0000
3002
0000
,  // measure 43
2003
0000
3002
0000
,  // measure 44
1003
1000
0001
0001
,  // measure 45
1000
0010
0100
0001
,  // measure 46
2000
0000
3002
0000
,  // measure 47
0023
0000
0230
0000
,  // measure 48
1300
1000
0001
0001
,  // measure 49
1000
0001
1000
0001
0000
0000
0000
0000
,  // measure 50
1000
0010
1000
0010
0000
0000
0000
0000
,  // measure 51
0100
0001
0100
0001
0000
0000
0000
0000
,  // measure 52
0100
0100
0010
1001
,  // measure 53
1000
0001
1001
0000
,  // measure 54
0001
1000
0001
1000
0000
0000
0000
0000
,  // measure 55
0010
0100
0010
0100
0000
0000
0000
0000
,  // measure 56
0010
0010
0100
1001
,  // measure 57
0001
1000
1001
0000
,  // measure 58
2002
0000
0003
0010
,  // measure 59
3020
0000
0000
0000
,  // measure 60
0000
0000
0000
0000
,  // measure 61
0000
0000
0000
0000
,  // measure 62
0030
0000
0000
0000
,  // measure 63
0100
0000
0100
0000
,  // measure 64
0010
0010
0010
0000
,  // measure 65
1000
0000
0001
0000
,  // measure 66
1000
0001
1000
0002
,  // measure 67
2000
0000
0000
0000
,  // measure 68
0000
0000
0000
0000
,  // measure 69
0000
0000
0000
0000
,  // measure 70
3003
0000
0000
0000
;

//---------------dance-single - ----------------
#NOTES:
     dance-single:
     :
     Easy:
     2:
     0.156,0.206,0.017,0.162,0.000: // measure 1
1000
0000
0001
0000
,  // measure 2
1000
1000
1000
0000
,  // measure 3
0010
0000
0100
0000
,  // measure 4
0010
0010
0010
0000
,  // measure 5
0100
0000
0001
0000
,  // measure 6
1000
1000
1000
0000
,  // measure 7
0010
0000
0100
0000
,  // measure 8
0001
0001
0001
0000
,  // measure 9
1000
0000
1000
0000
,  // measure 10
0001
0000
0001
0000
,  // measure 11
1000
0000
0010
0000
,  // measure 12
1001
0000
0000
0000
,  // measure 13
0100
0000
0010
0000
,  // measure 14
0100
0000
0001
0000
,  // measure 15
1000
0000
0001
0000
,  // measure 16
1001
0000
0000
0000
,  // measure 17
0010
0000
0010
0000
,  // measure 18
0100
0000
0100
0000
,  // measure 19
0002
0000
0003
0000
,  // measure 20
2000
0000
3000
0000
,  // measure 21
0010
0000
0100
0000
,  // measure 22
0001
0000
1000
0000
,  // measure 23
0002
0000
0003
0000
,  // measure 24
2000
0000
3000
0000
,  // measure 25
0010
0000
0100
0000
,  // measure 26
0010
0000
0100
0000
,  // measure 27
0001
0001
0001
0000
,  // measure 28
1000
1000
1000
0000
,  // measure 29
0001
0000
1000
0000
,  // measure 30
0010
0000
0100
0000
,  // measure 31
0001
0001
0001
0000
,  // measure 32
1000
1000
1000
0000
,  // measure 33
0002
0000
0000
0000
,  // measure 34
2000
0000
0000
0000
,  // measure 35
0000
0000
0000
0000
,  // measure 36
0000
0000
0000
0000
,  // measure 37
3003
0000
0000
0000
,  // measure 38
1000
0000
0001
0000
,  // measure 39
1000
1000
1000
0000
,  // measure 40
0010
0000
0100
0000
,  // measure 41
0001
0001
0001
0000
,  // measure 42
2000
0000
3000
0000
,  // measure 43
0020
0000
0030
0000
,  // measure 44
0200
0000
0300
0000
,  // measure 45
0002
0000
0003
0000
,  // measure 46
2000
0000
3000
0000
,  // measure 47
0020
0000
0030
0000
,  // measure 48
0200
0000
0300
0000
,  // measure 49
0002
0000
0003
0000
,  // measure 50
1000
0000
0000
0000
,  // measure 51
0001
0000
0000
0000
,  // measure 52
1000
1000
1000
0000
,  // measure 53
0001
0001
0001
0000
,  // measure 54
0100
0000
0000
0000
,  // measure 55
0010
0000
0000
0000
,  // measure 56
0100
0100
0100
0000
,  // measure 57
0010
0010
0010
0000
,  // measure 58
0200
0000
0000
0000
,  // measure 59
0020
0000
0000
0000
,  // measure 60
0000
0000
0000
0000
,  // measure 61
0000
0000
0000
0000
,  // measure 62
0330
0000
0000
0000
,  // measure 63
0002
0000
0000
0000
,  // measure 64
0000
0000
0003
0000
,  // measure 65
2000
0000
0000
0000
,  // measure 66
0000
0000
3000
0000
,  // measure 67
0020
0000
0000
0000
,  // measure 68
0000
0000
0000
0000
,  // measure 69
0000
0000
0000
0000
,  // measure 70
0030
0000
0000
0000
;
