#TITLE:true...;
#SUBTITLE:(From Nonstop Megamix);
#ARTIST:小坂りゆ;
#TITLETRANSLIT:;
#SUBTITLETRANSLIT:;
#ARTISTTRANSLIT:KOSAKA RIYU;
#CREDIT:;
#BANNER:true... (From Nonstop Megamix)-bn.png;
#BACKGROUND:true... (From Nonstop Megamix)-bg .png;
#LYRICSPATH:;
#CDTITLE:./CDTITLES/DANCE DANCE REVOLUTION MAX.PNG;
#MUSIC:true... (From Nonstop Megamix).mp3;
#OFFSET:-10.360;
#SAMPLESTART:66.400;
#SAMPLELENGTH:12.000;
#SELECTABLE:YES;
#BPMS:0.000=140.020,32.000=70.010,50.000=140.020,178.000=70.010,186.000=140.020;
#STOPS:;
#BGCHANGES:;

//---------------dance-single - ----------------
#NOTES:
     dance-single:
     :
     Hard:
     7:
     0.470,0.439,0.321,0.293,0.028: // measure 1
2001
0000
3010
0100
0001
0100
0010
1000
,  // measure 2
0100
0000
0100
1000
0010
0100
0001
0010
,  // measure 3
1002
0000
0103
1000
0001
0010
0100
0010
,  // measure 4
0100
0000
0001
0100
1000
0001
0100
0010
,  // measure 5
1020
0000
0130
1000
0001
0010
0100
0001
,  // measure 6
2010
0000
3100
1000
0001
0100
0001
0010
,  // measure 7
2001
0000
3001
0100
1002
0000
0013
0100
,  // measure 8
0002
2003
3020
0230
,  // measure 9
2300
0000
0010
0010
3010
0000
0100
0001
,  // measure 10
1001
0000
0000
0010
0000
0010
0000
0010
0000
0000
0000
0000
1000
0000
0010
0000
,  // measure 11
0210
0000
0001
0001
0310
0000
0001
0100
,  // measure 12
1000
0000
0010
0100
0000
0001
0000
0020
0000
0000
0002
0000
0000
0000
0000
0000
,  // measure 13
0003
0030
0000
0000
0000
0000
0000
0000
0000
0000
0000
0000
0000
0000
0000
0000
0000
0000
0000
0000
0000
0000
0000
0000
0000
0000
0000
0000
0000
0000
0000
0000
0000
0000
0000
0000
0000
0000
0000
0000
0000
0000
0000
0000
0000
0000
0000
0000
0010
0000
0000
0000
0000
0000
0000
0000
0000
0000
0000
0000
0000
0000
0000
0000
0000
0000
0000
0000
0000
0000
0000
0000
1000
0000
0000
0000
0000
0000
0000
0000
0000
0000
0000
0000
0000
0000
0000
0000
0000
0000
0000
0000
0000
0000
0000
0000
1001
0000
0000
0000
0000
0000
0000
0000
0000
0000
0000
0000
0000
0000
0000
0000
0000
0000
0000
0000
0000
0000
0000
0000
0000
0000
0000
0000
0000
0000
0000
0000
0000
0000
0000
0000
0000
0000
0000
0000
0000
0000
0000
0000
0000
0000
0000
0000
0010
0000
0000
0000
0000
0000
0000
0000
0000
0000
0000
0000
0000
0000
0000
0000
0000
0000
0000
0000
0000
0000
0000
0000
0100
0000
0000
0000
0000
0000
0000
0000
0000
0000
0000
0000
0000
0000
0000
0000
0000
0000
0000
0000
0000
0000
0000
0000
,  // measure 14
0000
0010
0010
0000
0100
0000
0001
1001
,  // measure 15
0000
0010
1000
0000
0100
0000
1000
0010
,  // measure 16
0000
0010
0000
1001
0000
0100
1000
0100
,  // measure 17
1000
0010
0100
0000
0011
0000
0001
0100
,  // measure 18
1000
0001
0010
0000
0101
0000
0010
0010
,  // measure 19
0100
1000
0001
0010
0100
0000
0001
0100
,  // measure 20
0010
0000
0010
0100
0001
0100
1000
0001
,  // measure 21
0010
0100
0010
0000
2001
0000
3010
0100
,  // measure 22
0001
0100
1000
0000
0102
0000
0103
0010
,  // measure 23
1000
0100
1000
0000
0210
0000
0301
0010
,  // measure 24
0200
0000
0301
0010
1000
0100
0001
0010
,  // measure 25
0100
1000
0010
0010
0012
0000
0100
0100
,  // measure 26
0100
0100
0103
0000
2010
0000
0010
0010
,  // measure 27
0010
0010
3010
0000
1001
0100
1000
0001
,  // measure 28
0010
0001
0100
1000
1001
0010
0100
0001
,  // measure 29
0010
0100
0010
0010
1001
0000
0100
1000
,  // measure 30
0010
0100
0001
0000
0011
0000
0001
0100
,  // measure 31
1000
0001
0010
0010
2010
0000
3010
0100
,  // measure 32
0002
0000
1003
0010
0100
0001
0100
1000
,  // measure 33
0001
0010
0100
0001
1100
0000
0001
0010
,  // measure 34
0100
0000
0001
0010
0100
0000
0100
1000
,  // measure 35
0010
0000
0010
1000
0100
0000
0100
0010
,  // measure 36
0001
0010
0010
1000
1100
0000
0001
0010
,  // measure 37
0100
0001
0100
0000
1001
0000
0010
1001
,  // measure 38
0000
0100
1001
0000
0010
0100
0001
0100
,  // measure 39
1000
0010
0100
0010
2000
0000
3001
0010
,  // measure 40
0200
0000
1300
0001
0010
0100
0001
0100
,  // measure 41
0010
0100
1000
0010
0002
0000
0000
0000
,  // measure 42
1003
0010
1000
0010
2000
0000
0000
0000
,  // measure 43
3100
1000
0010
0100
1001
0000
0010
0100
,  // measure 44
0001
0100
1000
0000
0011
0000
1100
0000
,  // measure 45
0011
1001
2002
0003
,  // measure 46
0020
3000
0230
0000
,  // measure 47
0302
0000
1003
0000
;

//---------------dance-single - ----------------
#NOTES:
     dance-single:
     :
     Medium:
     5:
     0.320,0.308,0.170,0.142,0.000: // measure 1
1000
0010
1000
1010
,  // measure 2
0001
0100
0001
0101
,  // measure 3
0001
0010
0001
0011
,  // measure 4
0010
1000
0010
1010
,  // measure 5
0010
0000
1000
0010
1000
0010
1000
0000
,  // measure 6
0001
0000
0001
0100
0001
0100
0001
0000
,  // measure 7
0010
0000
0010
0100
0010
0000
0010
0100
,  // measure 8
0010
0000
0100
1000
0100
0000
0100
0000
,  // measure 9
2001
0000
3010
0000
,  // measure 10
0100
0000
0010
0010
0010
0000
0001
1000
,  // measure 11
1001
0000
0100
0100
0110
0000
0100
1000
,  // measure 12
0001
1000
0020
0000
,  // measure 13
0000
0000
0030
0000
1001
0000
0100
1000
,  // measure 14
0000
0100
1000
0000
0001
0000
0000
0000
,  // measure 15
0010
0000
0010
0000
0010
0000
0100
0001
,  // measure 16
0000
0100
0000
0001
0000
0100
0000
0001
,  // measure 17
0000
0100
1000
0000
0010
0000
0000
0010
,  // measure 18
1000
0010
1000
0000
0001
0000
0000
0000
,  // measure 19
0100
0001
0101
0000
0010
0000
0010
0000
,  // measure 20
0010
0000
0000
0000
0100
1000
0001
0000
,  // measure 21
0010
1000
0001
0000
0001
0000
1000
0100
,  // measure 22
0000
0000
0010
0000
0001
0000
0100
0010
,  // measure 23
0000
0000
0110
0000
0001
0000
0100
1000
,  // measure 24
0000
0001
0100
0000
0010
0000
0100
0000
,  // measure 25
0010
0000
0100
0000
2001
0000
3100
1000
,  // measure 26
0100
1000
0100
0000
0001
0000
0001
0010
,  // measure 27
0001
0010
0001
0000
0100
0010
0100
0000
,  // measure 28
0001
0010
0001
0000
2000
0000
0000
0000
,  // measure 29
3000
0000
0010
1000
0010
0000
1000
0000
,  // measure 30
0100
0000
1000
0001
0100
0000
1000
0000
,  // measure 31
0001
0000
0010
0100
0010
0000
0000
0001
,  // measure 32
0100
0000
0000
1000
0010
0000
0100
0000
,  // measure 33
1000
0000
0010
0100
0020
0000
0030
0000
,  // measure 34
0000
0001
0100
0001
0100
0000
0000
0000
,  // measure 35
0100
1000
0100
0000
0010
0000
0100
0010
,  // measure 36
0100
0001
1001
0100
,  // measure 37
1001
0000
0100
0000
1001
0000
0000
1001
,  // measure 38
0000
1001
0100
0010
,  // measure 39
0001
0000
1000
0000
1000
0000
0000
0001
,  // measure 40
0100
0000
0000
0010
1000
0000
0100
1000
,  // measure 41
0100
0010
0200
0300
,  // measure 42
0000
0010
0100
0010
0100
0000
0000
0000
,  // measure 43
0001
1000
0001
1000
0001
0000
0000
0000
,  // measure 44
0001
0010
0001
0010
0002
0000
2003
0000
,  // measure 45
3020
0130
2002
3003
,  // measure 46
0220
0330
0002
0003
,  // measure 47
2000
3000
0010
0000
;

//---------------dance-single - ----------------
#NOTES:
     dance-single:
     :
     Easy:
     3:
     0.204,0.264,0.104,0.113,0.000: // measure 1
0010
0000
0010
0010
,  // measure 2
0100
0000
0100
0100
,  // measure 3
0001
0000
0001
0001
,  // measure 4
1000
0000
1000
0010
,  // measure 5
2000
0000
0000
3000
,  // measure 6
0002
0000
0000
0000
0000
0000
0000
0003
,  // measure 7
0200
0000
0000
0300
0020
0000
0000
0000
,  // measure 8
1030
0001
1000
0010
,  // measure 9
1001
0000
0001
0000
0001
0000
1000
1000
,  // measure 10
1000
0000
0010
0000
0100
0000
0001
1000
,  // measure 11
0001
0000
0010
1000
0010
0000
0000
0000
,  // measure 12
1000
0000
0001
0000
,  // measure 13
0000
0000
0010
0010
0010
0000
0000
0000
,  // measure 14
0001
0000
1000
0000
,  // measure 15
0010
1000
0010
0000
,  // measure 16
0010
0000
0001
0000
,  // measure 17
1000
0010
1001
0000
,  // measure 18
0010
0010
0010
0000
,  // measure 19
0100
0100
0200
0000
,  // measure 20
0002
0303
0101
0000
,  // measure 21
0000
0000
1001
0000
,  // measure 22
0001
0001
0010
0000
,  // measure 23
0010
0010
0200
0000
,  // measure 24
0000
0000
0001
0001
,  // measure 25
0001
0000
0001
0300
0001
0000
0000
0000
,  // measure 26
1000
0010
1000
0000
,  // measure 27
0001
0010
1001
0000
,  // measure 28
0110
0000
0001
1000
,  // measure 29
0001
1000
0020
0000
,  // measure 30
1030
0000
0001
1000
,  // measure 31
0001
0010
1001
0000
,  // measure 32
0020
0000
0130
0000
,  // measure 33
0001
1000
1010
0000
,  // measure 34
0000
0001
0000
0001
,  // measure 35
0000
0001
0001
1000
,  // measure 36
0010
1000
1000
0000
,  // measure 37
0001
0000
0000
0000
1001
0000
0000
0010
,  // measure 38
0000
0000
0100
0000
0001
0000
0000
1000
,  // measure 39
0000
0000
0010
0000
0100
0000
0000
0001
,  // measure 40
0000
0000
1000
0000
0010
0000
0000
0100
,  // measure 41
0000
0001
0000
0000
1001
0000
0000
0000
,  // measure 42
0001
1000
0010
0000
,  // measure 43
0100
0010
0110
0000
,  // measure 44
0001
1000
0002
0000
,  // measure 45
1000
0000
1003
0000
,  // measure 46
0010
0000
2000
0000
,  // measure 47
0020
0000
3030
0000
;
