#TITLE:タッチ;
#SUBTITLE:;
#ARTIST:Kohana;
#TITLETRANSLIT:Touch;
#SUBTITLETRANSLIT:;
#ARTISTTRANSLIT:;
#CREDIT:;
#BANNER:Touch-bn.png;
#BACKGROUND:Touch-bg.png;
#LYRICSPATH:;
#CDTITLE:cd.png;
#MUSIC:Touch.mp3;
#OFFSET:-6.693;
#SAMPLESTART:56.390;
#SAMPLELENGTH:12.000;
#SELECTABLE:YES;
#BPMS:0.000=155.010;
#STOPS:;
#BGCHANGES:;

//---------------dance-single - ----------------
#NOTES:
     dance-single:
     :
     Hard:
     8:
     0.609,0.556,0.167,0.344,0.223:
1000
0001
0000
1000
0001
0000
1000
0001
0000
0000
0100
0000
0100
0000
0100
0000
,
0001
0010
0000
0001
0010
0000
0001
0010
0000
0000
0001
0000
0001
0000
0001
0000
,
1000
0010
0000
1000
0010
0000
1000
0010
0000
0000
0100
0000
0100
0000
0100
0000
,
0010
0100
0000
0010
0100
0000
0010
0100
0000
0000
0001
0000
0001
0000
0001
0000
,
1000
0010
0000
0100
0001
0000
1000
0010
0000
0000
0100
0000
0001
0000
1000
0000
,
0010
0100
0000
0001
0100
0000
0010
1000
0000
0000
0001
0000
0100
0000
0100
0000
,
0001
0100
0000
0001
1000
0000
0010
1000
0000
0000
0001
0000
0001
0000
1000
0000
,
0010
0100
0000
0001
1000
0000
0010
0100
0000
0000
0001
0000
1000
0000
0100
0000
,
0010
0001
1000
0010
0000
1000
0001
0010
,
0100
1000
0010
1000
0000
0010
0010
0100
,
0010
0100
0001
1000
0000
0001
1000
0010
,
1000
1000
0001
1000
0000
0010
1001
0000
,
0001
0100
0010
2000
0000
3001
0010
0100
,
1000
0001
0010
0002
0000
1003
0010
0100
,
0001
0100
0100
0010
0100
0001
1000
0010
,
0000
0100
0000
1002
0000
0000
1003
0000
,
0001
1000
0010
1000
0000
0001
0100
0010
,
1000
0001
0010
0100
0000
1000
0001
1000
,
0010
0100
0001
1000
0000
0001
1000
0010
,
0100
0001
1000
0010
0000
0100
1001
0000
,
1000
0010
1010
0000
0001
0100
0101
0000
,
0110
0000
1001
0000
0001
1000
0010
0100
,
0020
0230
0302
1003
,
0020
0100
0100
0130
,
2001
0000
0010
0000
3001
0000
1000
0010
,
0100
0020
0230
0302
,
2003
0000
0010
0000
3001
0000
0100
0010
,
0100
0000
0110
0000
1001
0000
1000
0100
,
0010
0001
1000
0001
0100
0010
1001
0000
,
0001
0010
0100
1000
0001
0100
1001
0000
,
0100
1000
0001
1000
0010
0100
0001
1000
,
0020
0230
0302
2003
,
3010
2000
3000
0002
0003
2000
3000
0010
,
1000
1010
0001
0101
,
0001
0001
1000
1000
0000
0001
1001
0000
,
0020
0230
0302
2003
,
3020
0000
0000
0030
,
1001
0002
1000
1000
,
2003
0000
0001
0000
3001
0000
0100
0010
,
0100
0020
0100
0100
,
0230
0000
0001
0000
0310
0000
0001
1000
,
0010
0000
1001
0000
0010
1000
0001
0100
,
0010
1000
0001
1000
0000
0010
0100
0001
,
1000
0100
0010
0001
2000
0000
3020
0000
,
0230
0010
0010
0310
,
0010
0100
0010
0100
0001
1000
0001
1000
,
0010
1000
0001
1000
0000
0010
0100
0001
,
1000
0100
0010
0001
0000
0010
0100
1000
,
0001
1000
0001
1000
0000
0010
0100
0001
,
0100
0010
1000
0001
0000
0001
0010
0000
,
0001
0010
0100
1000
0001
0010
0100
1000
,
0001
0000
1000
0000
0010
0100
0001
1000
,
0020
0230
0302
1003
,
2002
0000
0000
3003
,
0001
1000
0000
0001
1000
0000
0001
1000
0000
0000
0010
0000
0010
0000
0010
0000
,
1000
0100
0000
1000
0100
0000
1000
0100
0000
0000
1000
0000
1000
0000
1000
0000
,
0001
0100
0000
0001
0100
0000
0001
0100
0000
0000
0010
0000
0010
0000
0010
0000
,
0100
0010
0000
0100
0010
0000
0100
0010
0000
0000
1000
0000
1000
0000
1000
0000
,
0001
0100
0000
0010
1000
0000
0001
0100
0000
0000
0010
0000
1000
0000
0001
0000
,
0100
0010
0000
1000
0010
0000
0100
0001
0000
0000
1000
0000
0010
0000
0010
0000
,
1000
0010
0000
1000
0001
0000
0100
0001
0000
0000
1000
0000
1000
0000
0001
0000
,
0100
0010
0000
1000
0001
0000
0100
0010
0000
0000
1000
0000
0001
0000
0001
0000
,
0002
0000
0000
0000
,
0003
0000
0000
0000
;

//---------------dance-single - ----------------
#NOTES:
     dance-single:
     :
     Medium:
     5:
     0.363,0.381,0.084,0.130,0.000: // measure 1
0010
0000
0100
0000
0001
1000
0001
0000
,  // measure 2
0100
0000
0010
0000
1000
0001
1000
0000
,  // measure 3
0001
0000
1000
0000
0010
0100
0010
0000
,  // measure 4
0100
0000
0010
0000
0100
0001
1000
0000
,  // measure 5
0001
0000
1000
0000
0010
0100
0001
0000
,  // measure 6
1000
0000
0001
0000
0010
0100
1000
0000
,  // measure 7
0001
0000
1000
0000
0010
0100
0001
0000
,  // measure 8
1000
0000
0001
0000
1000
0010
0100
0000
,  // measure 9
1000
0001
1000
0010
,  // measure 10
0100
0010
0100
0001
,  // measure 11
1000
0010
0100
0001
,  // measure 12
1000
0010
1000
0000
1001
0000
0000
0000
,  // measure 13
0010
0100
0001
1000
,  // measure 14
0010
0100
0010
1000
,  // measure 15
0001
0001
1000
1000
,  // measure 16
2002
0000
3003
0000
,  // measure 17
0001
1000
0010
0100
,  // measure 18
0010
0100
0001
1000
,  // measure 19
0010
1000
0001
1000
,  // measure 20
0010
1000
0010
0000
2002
0000
3003
0000
,  // measure 21
0001
0001
1000
1000
,  // measure 22
1010
0000
0101
0000
0001
0100
0001
0100
,  // measure 23
0020
0000
0000
0000
,  // measure 24
0130
0100
0100
0010
,  // measure 25
0200
0000
0001
0000
0010
0300
0001
1000
,  // measure 26
0000
0001
1000
0010
,  // measure 27
0200
0000
0010
0000
0010
0300
0010
0100
,  // measure 28
0000
0000
0000
0000
0000
0000
0100
0010
,  // measure 29
0100
0000
0010
0100
0000
0001
0000
0000
,  // measure 30
1000
0000
0010
1000
0000
0010
0000
0000
,  // measure 31
0010
1000
0010
0000
0100
0000
0001
0000
,  // measure 32
1000
0010
0100
0010
,  // measure 33
0100
0010
0000
0010
0000
0010
0000
0100
,  // measure 34
0010
0000
1001
0000
,  // measure 35
0001
1000
0001
1000
0000
0000
0000
0000
,  // measure 36
0001
1000
0010
0100
,  // measure 37
0020
0000
0000
0030
,  // measure 38
0110
0100
0100
0010
,  // measure 39
0200
0000
0000
0000
0000
0000
0001
0301
,  // measure 40
0000
0001
1000
0010
,  // measure 41
2000
0000
0000
0000
0000
0000
0001
3001
,  // measure 42
0000
0000
0001
0000
1000
0000
0010
1000
,  // measure 43
0010
1000
0010
1000
0000
0010
1000
0000
,  // measure 44
0010
0100
0001
1000
,  // measure 45
0002
0000
1003
0000
,  // measure 46
0001
1000
0010
0100
,  // measure 47
0010
1000
0001
1000
,  // measure 48
0010
0100
0010
1000
,  // measure 49
0001
0010
0100
1000
,  // measure 50
0010
1000
0010
0000
1001
0000
0000
0000
,  // measure 51
0001
1000
0001
0000
0001
1000
0001
0000
,  // measure 52
0001
1000
0001
0000
1000
0000
0010
0000
,  // measure 53
2002
0000
0000
0000
,  // measure 54
3003
0000
0000
0000
,  // measure 55
0100
0000
0010
0000
1000
0001
1000
0000
,  // measure 56
0010
0000
0100
0000
0001
1000
0001
0000
,  // measure 57
1000
0000
0001
0000
0100
0010
0100
0000
,  // measure 58
0010
0000
0100
0000
0010
1000
0001
0000
,  // measure 59
1000
0000
0001
0000
0100
0010
1000
0000
,  // measure 60
0001
0000
1000
0000
0100
0010
0001
0000
,  // measure 61
1000
0000
0001
0000
0100
0010
1000
0000
,  // measure 62
0001
0000
1000
0000
0001
0100
0010
0000
,  // measure 63
2000
0000
0000
0000
,  // measure 64
3000
0000
0000
0000
;

//---------------dance-single - ----------------
#NOTES:
     dance-single:
     :
     Easy:
     3:
     0.236,0.264,0.037,0.102,0.000: // measure 1
0001
1000
0001
0000
,  // measure 2
1000
1000
1000
0000
,  // measure 3
0010
0100
0010
0000
,  // measure 4
0100
0100
0100
0000
,  // measure 5
0001
0010
0100
0000
,  // measure 6
1000
1000
1000
0000
,  // measure 7
0010
0100
0001
0000
,  // measure 8
1000
1000
1000
0000
,  // measure 9
0001
0000
1000
0000
,  // measure 10
0001
0001
1000
0000
,  // measure 11
0010
0000
0100
0000
,  // measure 12
0010
0010
0100
0000
,  // measure 13
0001
0000
1000
0000
,  // measure 14
0010
0100
0001
0000
,  // measure 15
0010
0000
0100
0000
,  // measure 16
1000
0001
1000
0000
,  // measure 17
0001
1000
0010
0000
,  // measure 18
1000
0001
0010
0000
,  // measure 19
0001
0100
0010
0000
,  // measure 20
1000
0010
0100
0000
,  // measure 21
0001
0001
1000
1000
,  // measure 22
0001
0000
1000
0001
,  // measure 23
2000
0000
0000
0000
,  // measure 24
3001
0000
0001
0000
,  // measure 25
2000
0000
0000
0000
,  // measure 26
3010
0000
0010
0010
,  // measure 27
0200
0000
0000
0000
,  // measure 28
0301
0000
0001
0000
,  // measure 29
1000
1000
0010
0000
,  // measure 30
0100
0100
0001
0000
,  // measure 31
1000
0001
1000
0010
,  // measure 32
0200
0000
0000
0000
,  // measure 33
0300
0000
0010
0000
,  // measure 34
0010
0000
1001
0000
,  // measure 35
0100
0000
1001
0000
,  // measure 36
1000
0001
0100
0010
,  // measure 37
2000
0000
0000
0000
,  // measure 38
3001
0001
0001
1000
,  // measure 39
0020
0000
0000
0030
,  // measure 40
0100
0100
0010
1000
,  // measure 41
0002
0000
0000
0000
,  // measure 42
1003
0000
0001
0000
,  // measure 43
1000
1000
0001
0100
,  // measure 44
0010
1000
0001
0100
,  // measure 45
0020
0000
0000
0000
,  // measure 46
0130
0000
0100
0000
,  // measure 47
0010
1000
0001
0000
,  // measure 48
0001
1000
0010
0000
,  // measure 49
0100
0010
1000
0000
,  // measure 50
1000
0010
0001
0000
,  // measure 51
1000
1000
0001
0001
,  // measure 52
1000
0000
0010
0100
,  // measure 53
1001
0000
0000
0000
,  // measure 54
2002
0000
0000
3003
,  // measure 55
1000
0001
1000
0000
,  // measure 56
0001
0001
0001
0000
,  // measure 57
0100
0010
0100
0000
,  // measure 58
0010
0010
0010
0000
,  // measure 59
1000
0100
0010
0000
,  // measure 60
0001
0001
0001
0000
,  // measure 61
0100
0010
1000
0000
,  // measure 62
0001
0001
0001
0000
,  // measure 63
2000
0000
0000
0000
,  // measure 64
3000
0000
0000
0000
;
