#TITLE:Tokyo Tonight;
#SUBTITLE:;
#ARTIST:Mark & Roby;
#TITLETRANSLIT:;
#SUBTITLETRANSLIT:;
#ARTISTTRANSLIT:;
#CREDIT:;
#BANNER:Tokyo Tonight-bN.png;
#BACKGROUND:Tokyo Tonight-bg.png;
#LYRICSPATH:;
#CDTITLE:cd.png;
#MUSIC:Tokyo Tonight.ogg;
#OFFSET:-6.060;
#SAMPLESTART:54.030;
#SAMPLELENGTH:12.000;
#SELECTABLE:YES;
#BPMS:0.000=160.040,224.000=80.020,236.000=160.040;
#STOPS:;
#BGCHANGES:;

//---------------dance-single - ----------------
#NOTES:
     dance-single:
     :
     Hard:
     8:
     0.619,0.553,0.468,0.229,0.043: // measure 1
1000
0010
0100
0001
1000
0100
0010
0001
,  // measure 2
1000
0000
0000
0010
1000
0000
0000
0100
0001
0000
0000
1000
0001
0000
1000
0000
,  // measure 3
0001
0010
0100
1000
0010
0100
0001
1000
,  // measure 4
0100
0000
0000
0010
0001
0000
0000
1000
0100
0000
0000
0010
0001
0000
1000
0000
,  // measure 5
0100
0010
0001
1000
0010
0100
0001
1000
,  // measure 6
0100
1000
0010
0100
0001
1000
0010
0100
,  // measure 7
0001
0010
0001
0100
0010
1000
0100
0010
,  // measure 8
0001
0000
0000
0100
0010
0000
0000
1000
0001
0000
0000
0100
0001
0000
1000
0000
,  // measure 9
0100
2002
3003
2001
,  // measure 10
3002
0000
2003
0000
3002
0000
0103
0010
,  // measure 11
1000
0000
1001
0000
0001
1000
0100
1000
,  // measure 12
0001
0000
1001
0000
0010
0100
0001
1000
,  // measure 13
0010
0100
0001
0001
0001
0100
0010
1000
,  // measure 14
0100
0000
0110
0000
1001
0000
0010
0100
,  // measure 15
0001
1000
0010
0010
0100
0001
1000
0100
,  // measure 16
0100
0010
0001
0100
0001
0100
0001
1000
,  // measure 17
0002
2003
3020
0230
,  // measure 18
0301
0001
0100
0010
1000
1000
0001
0100
,  // measure 19
0002
0000
1003
0000
0010
0100
0001
0010
,  // measure 20
0200
0000
1300
0000
0001
0100
0010
1000
,  // measure 21
0010
0100
0001
0100
0010
1000
0100
0010
,  // measure 22
0002
0000
1003
0000
1001
0000
1000
0001
,  // measure 23
0010
0100
1000
0010
1000
0010
0100
0001
,  // measure 24
1000
0000
0100
0010
0001
0000
1000
0001
,  // measure 25
0100
1010
0101
1001
,  // measure 26
1000
0001
0100
0010
1000
0001
1000
0010
,  // measure 27
1002
0000
1003
0000
0010
1000
0010
0100
,  // measure 28
1002
0000
0010
0000
1003
0000
0001
0100
,  // measure 29
0010
0100
0001
0100
0010
1000
0100
0010
,  // measure 30
0002
1003
0011
1100
,  // measure 31
1001
0110
0110
1001
,  // measure 32
1000
0001
1000
0000
2002
0000
3003
0000
,  // measure 33
0011
0000
1100
0000
1001
0000
0010
0100
,  // measure 34
0001
0100
0010
1000
0100
1000
0010
0000
,  // measure 35
1000
0001
0100
0010
1000
0100
1000
0001
,  // measure 36
0100
0010
1000
0010
1000
0001
1000
0000
,  // measure 37
0100
1000
0100
1000
0100
0000
1001
0000
,  // measure 38
0010
0001
0010
0001
0010
0000
1001
0000
,  // measure 39
0001
0010
0001
0000
1000
0100
1000
0000
,  // measure 40
0011
1100
0110
1001
,  // measure 41
1100
0000
0011
0000
1001
0000
0100
0010
,  // measure 42
1000
0010
0100
0001
0010
0001
0100
0000
,  // measure 43
0001
1000
0010
0100
0001
0010
0001
1000
,  // measure 44
0010
0100
0001
0100
0001
1000
0001
0000
,  // measure 45
0010
0001
0010
0001
0010
0000
1001
0000
,  // measure 46
0100
1000
0100
1000
0100
0000
1001
0000
,  // measure 47
1000
0100
1000
0000
0001
0010
0001
0000
,  // measure 48
1100
0011
0110
1001
,  // measure 49
2001
0000
3001
1000
0001
0000
0001
0100
,  // measure 50
0010
0000
0100
0001
2000
0000
3001
0000
,  // measure 51
1001
0000
0010
0100
0010
0000
0100
0001
,  // measure 52
0100
0000
0001
1000
0020
0000
1030
0000
,  // measure 53
1100
0000
0001
1000
0001
0000
0010
0001
,  // measure 54
0010
0000
0100
1000
0020
0000
0130
0000
,  // measure 55
0101
0000
0001
0100
0010
0000
0100
0010
,  // measure 56
0100
0000
0010
1000
0001
0000
1001
0000
,  // measure 57
0100
1000
0001
1000
0001
0000
0001
1000
,  // measure 58
0001
0100
0010
1000
1001
0000
1001
0110
,  // measure 59
1001
0010
0100
0010
1000
0000
1001
1001
,  // measure 60
1001
0000
0010
0001
0010
0000
0100
1000
,  // measure 61
0100
0000
0010
0001
2000
0000
0002
0000
,  // measure 62
3003
0000
0000
0000
;

//---------------dance-single - ----------------
#NOTES:
     dance-single:
     :
     Easy:
     3:
     0.273,0.262,0.143,0.162,0.000:
0010
0010
0100
0100
,
0010
0000
0100
0000
,
0001
0001
1000
1000
,
0002
0003
2000
3000
,
0001
1000
0001
0000
,
0100
0010
0100
0000
,
0001
1000
0001
0000
,
1000
0001
0100
0000
,
0000
1001
0000
0110
,
0000
1001
0000
0002
,
1003
0000
0000
2000
,
3001
0000
0000
1000
,
1000
0001
0001
1000
,
0001
0000
0000
1000
,
0010
0100
0001
1000
,
0001
0000
1000
0010
,
1001
0000
1001
0000
,
0001
0001
1000
0000
,
0010
0000
0100
0001
,
1000
0000
0010
0000
,
0100
0100
0001
0001
,
1000
0000
0001
0000
,
1000
0001
1000
0010
,
0100
0000
0010
0000
,
1001
0000
0001
0000
,
1000
1000
0001
0000
,
2000
0000
3001
0000
,
0002
0000
0103
0000
,
0200
0000
0310
0000
,
0020
0000
1030
0000
,
0001
0001
0001
1000
,
0001
0000
1001
0000
,
1000
1000
1001
0000
,
0010
0100
0010
0000
,
0100
0100
0101
0000
,
0010
1000
0001
0000
,
1000
0001
2000
3000
,
0010
0100
0020
0030
,
0100
0001
1000
0000
,
0001
0001
1000
0000
,
0001
1000
1001
0000
,
0001
1000
0001
0000
,
0100
0100
0110
0000
,
0100
0100
0010
0000
,
1000
0001
1001
0000
,
0001
1000
1010
0000
,
0010
0100
0002
0003
,
1000
1000
1001
0000
,
0001
1000
0010
0000
,
1000
0001
0100
0000
,
0010
1000
0001
0000
,
1000
0001
0010
0000
,
0100
1000
0010
0000
,
0100
0001
1000
0000
,
0001
1000
0010
0000
,
0100
0001
1000
0000
,
0002
0000
0003
1000
,
2000
0000
3000
0001
,
0002
0000
0003
0100
,
0200
0000
0010
0000
,
0310
0000
2002
0000
,
3003
0000
0000
0000
;

//---------------dance-single - ----------------
#NOTES:
     dance-single:
     :
     Medium:
     5:
     0.387,0.408,0.248,0.124,0.000: // measure 1
1000
0001
0100
1001
,  // measure 2
0001
1000
0001
0000
0100
0010
0100
0000
,  // measure 3
0010
0100
0001
1001
,  // measure 4
1000
0001
1000
0000
0010
1000
0010
0000
,  // measure 5
0100
0001
1000
1001
,  // measure 6
0010
0100
0001
1001
,  // measure 7
0010
1000
0100
0011
,  // measure 8
1100
1001
0010
0100
,  // measure 9
0001
1001
0000
1001
,  // measure 10
0110
0000
1001
0000
1001
0000
0001
1000
,  // measure 11
0010
0000
0000
0000
0100
0000
0001
1000
,  // measure 12
0100
0000
0000
0000
0010
0000
0100
1000
,  // measure 13
0100
0000
0010
0000
0001
0000
1000
0001
,  // measure 14
0010
0000
0000
0000
1000
0000
0001
0100
,  // measure 15
0010
0000
1000
0000
0001
0000
0100
0010
,  // measure 16
1000
0001
0010
0100
,  // measure 17
2000
0010
3010
0000
,  // measure 18
0010
0000
0010
0000
0100
0000
0001
1000
,  // measure 19
0010
0000
0100
0000
0001
0000
0010
0100
,  // measure 20
0010
0000
0001
0000
1000
0000
0001
1000
,  // measure 21
0001
0010
0100
1000
,  // measure 22
0010
0000
0101
0000
1010
0000
0010
1000
,  // measure 23
0010
0100
0001
0010
,  // measure 24
0100
0000
1000
0001
0010
0000
0100
0000
,  // measure 25
2000
0001
3001
0000
,  // measure 26
0001
0000
1000
0000
0010
1000
0010
2000
,  // measure 27
0000
0000
3100
0000
0100
1000
0001
2000
,  // measure 28
0000
0000
3100
0000
0100
0000
1000
0010
,  // measure 29
1000
0010
0100
0001
,  // measure 30
2002
0000
3003
0000
,  // measure 31
0010
0000
0010
0000
0110
0000
0010
0100
,  // measure 32
0010
0100
0000
1001
0000
0000
0000
0000
,  // measure 33
0001
0000
0001
0000
1001
0000
0001
1000
,  // measure 34
0010
2000
0000
3001
0000
0000
0000
0000
,  // measure 35
1000
0010
0100
0001
,  // measure 36
1000
0010
0000
1001
0000
0000
0000
0000
,  // measure 37
0010
0010
0110
0000
,  // measure 38
0100
0100
0110
0000
,  // measure 39
0010
0100
0001
1000
,  // measure 40
0002
1003
2000
3001
,  // measure 41
0001
0000
1000
0000
1001
0000
0010
1000
,  // measure 42
0010
2000
0000
3001
0000
0000
0000
0000
,  // measure 43
0100
0001
1000
0010
,  // measure 44
0100
0001
0000
1001
0000
0000
0000
0000
,  // measure 45
0001
1000
1001
0000
,  // measure 46
1000
0001
0110
0000
,  // measure 47
1000
0001
1000
0000
,  // measure 48
0020
0100
0100
0130
,  // measure 49
0010
0100
0010
0100
,  // measure 50
0010
0000
0100
0010
,  // measure 51
0100
0001
1000
0001
,  // measure 52
1000
0000
0001
1000
,  // measure 53
0010
1000
0001
0100
,  // measure 54
0010
0000
1000
0001
,  // measure 55
1000
0100
0010
0001
,  // measure 56
1000
0000
0001
1000
,  // measure 57
0010
0000
0010
0000
0010
0000
0100
0100
,  // measure 58
0100
0000
0001
0000
1000
0000
0001
0001
,  // measure 59
0001
0000
1000
0000
0010
0000
0100
0100
,  // measure 60
0100
0000
0010
0000
0100
0000
0001
1000
,  // measure 61
0001
1000
2002
0000
,  // measure 62
3003
0000
0000
0000
;
