#TITLE:To You;
#SUBTITLE:;
#ARTIST:Basic Element;
#TITLETRANSLIT:;
#SUBTITLETRANSLIT:;
#ARTISTTRANSLIT:;
#CREDIT:;
#BANNER:To You-bn.PNG;
#BACKGROUND:ToYou-BG.png;
#LYRICSPATH:To You.LRC;
#CDTITLE:cd.png;
#MUSIC:To You.mp3;
#OFFSET:-9.285;
#SAMPLESTART:53.584;
#SAMPLELENGTH:11.580;
#SELECTABLE:YES;
#BPMS:0.000=130.000;
#STOPS:0.000=1.385
,93.000=0.923
;
#BGCHANGES:;

//---------------dance-single - ----------------
#NOTES:
     dance-single:
     :
     Medium:
     4:
     0.284,0.324,0.165,0.019,0.000: // measure 1
2001
3010
1000
0100
,  // measure 2
0100
1000
0000
0000
0100
0000
0010
0000
,  // measure 3
0100
0001
0000
0000
0100
0000
1000
0000
,  // measure 4
0100
1000
0000
0010
0000
0010
0000
0100
,  // measure 5
0000
0100
0000
0000
0000
0000
0100
0000
,  // measure 6
1000
0100
0000
0000
0010
0000
0001
0000
,  // measure 7
0100
0001
0000
0000
1000
0000
0100
0000
,  // measure 8
0100
1000
0000
0100
0000
0100
0000
0010
,  // measure 9
0000
0010
0100
0000
1000
0000
0100
0000
,  // measure 10
1000
0100
1000
0001
,  // measure 11
0100
0001
0010
0100
,  // measure 12
0010
0100
1000
0001
,  // measure 13
0100
0011
0000
0100
,  // measure 14
0010
0000
0100
0001
,  // measure 15
0100
1000
0100
0100
,  // measure 16
0010
0100
0010
0100
,  // measure 17
0000
0002
0003
1000
,  // measure 18
0000
0000
0100
0000
1000
0000
0010
1000
,  // measure 19
0010
0000
0100
0000
0001
0000
0001
0100
,  // measure 20
0001
0010
0100
0100
,  // measure 21
0100
0001
0000
1000
,  // measure 22
0000
0100
0100
0010
,  // measure 23
0100
1001
0000
0011
,  // measure 24
0000
1001
0010
1001
,  // measure 25
0100
0000
1000
0000
0100
1000
0000
0000
,  // measure 26
0001
0000
0010
0000
0100
0010
0000
0000
,  // measure 27
1000
0000
0001
0000
1000
0100
0000
0100
,  // measure 28
0000
0100
0000
0100
0000
0001
0000
0000
,  // measure 29
1000
0000
0010
0000
0100
0001
0000
0000
,  // measure 30
1000
0000
0100
0000
1000
0100
0000
0000
,  // measure 31
1000
0000
0001
0000
0010
0100
0000
0010
,  // measure 32
0000
0010
0000
1000
0000
0001
0000
0000
,  // measure 33
1000
0000
0010
0000
0100
0001
0000
0000
,  // measure 34
1000
0000
0010
0000
0100
0001
0000
0000
,  // measure 35
1000
0000
0100
0000
0010
0100
0000
0100
,  // measure 36
0000
0100
0000
0100
0000
0100
0000
0000
,  // measure 37
1000
0000
0010
0000
0100
0001
0000
0000
,  // measure 38
1000
0000
0100
0000
0100
0001
0000
0000
,  // measure 39
0001
0000
0100
0000
0010
0001
0000
0001
,  // measure 40
0000
0001
0000
0001
0000
1000
0010
0000
,  // measure 41
0100
0001
0100
1001
,  // measure 42
0010
0100
0100
1001
,  // measure 43
0010
0100
0001
1001
,  // measure 44
0011
1100
0110
1001
,  // measure 45
0100
1000
1001
0010
,  // measure 46
0100
1000
1100
0001
,  // measure 47
0010
0100
0011
0100
,  // measure 48
1000
0010
0100
1001
;

//---------------dance-single - ----------------
#NOTES:
     dance-single:
     :
     Easy:
     2:
     0.165,0.185,0.039,0.010,0.000:
2001
3100
0000
1000
,
0000
0100
0000
0010
,
0000
0001
0000
0100
,
0000
0100
0000
0010
,
0000
0100
0000
0001
,
0000
0100
0000
0010
,
0000
0001
0000
1000
,
0000
0100
0000
0000
,
0000
0010
0000
0001
,
0001
0001
0000
1000
,
1000
1000
0000
0100
,
0100
0100
0000
0010
,
0010
1001
0000
0100
,
0000
0100
1000
0100
,
1000
0010
0000
0100
,
0000
0100
0001
0100
,
0010
0100
0000
1000
,
0000
0100
0010
1000
,
0100
0001
0000
0100
,
0000
1000
0010
0010
,
0100
1000
0000
0010
,
0000
0100
0000
0001
,
0000
1000
0000
0010
,
0000
1001
0100
0000
,
0100
0000
0100
0000
,
0100
0000
0001
0000
,
0100
0000
0100
0010
,
0000
0001
0000
0100
,
0010
0000
0001
0000
,
1000
0000
0100
0000
,
0100
0000
0100
0010
,
0000
1000
0000
0100
,
0010
0000
0001
0000
,
1000
0000
0100
0000
,
0010
0000
0100
0010
,
0000
0001
0000
1000
,
0100
0000
0100
0000
,
0100
0000
0100
0000
,
0001
0000
0010
0100
,
0000
0100
0000
0010
,
0000
1000
0000
0001
,
0000
0100
0000
1000
,
0000
0010
0000
0001
,
0000
0000
1000
1000
,
1000
0010
0000
0100
,
0000
0001
0000
1000
,
0000
1000
0100
0010
,
0000
0001
0000
1001
;

//---------------dance-single - ----------------
#NOTES:
     dance-single:
     :
     Hard:
     8:
     0.540,0.463,0.553,0.242,0.087: // measure 1
1002
0000
1003
0000
0010
1000
0010
0100
,  // measure 2
0001
0101
0000
0001
0100
0010
1000
0100
,  // measure 3
0010
0011
0000
0001
1000
0010
0100
0100
,  // measure 4
0001
0100
0000
0101
0000
1010
0000
1001
,  // measure 5
0000
0011
0000
0100
0100
1000
0010
0100
,  // measure 6
0001
0101
0000
0001
0010
0100
1000
0010
,  // measure 7
1000
1100
0000
1100
0010
0001
1000
0001
,  // measure 8
0100
0020
0000
2030
0000
3001
0000
0011
,  // measure 9
0000
1001
0020
0000
2030
0000
3002
0000
,  // measure 10
1003
0010
2000
0000
3020
0000
0130
0001
,  // measure 11
1000
0001
0020
0000
0230
0000
2300
0000
,  // measure 12
3001
0100
0020
0000
2030
0000
3010
1000
,  // measure 13
0010
0000
0010
0000
0100
0000
1001
0000
0000
0000
0001
0000
0100
0000
0010
1000
,  // measure 14
0000
0000
1000
0000
0001
0000
0100
0010
0100
0010
0100
0001
0010
0000
0100
1000
,  // measure 15
0000
0000
0001
0000
1000
0000
1000
0000
0001
0000
0001
0000
1001
0000
0001
1000
,  // measure 16
0000
0000
1000
0000
0100
0000
1000
0010
0000
0010
1000
0000
0100
0000
0000
1001
,  // measure 17
0000
0000
0110
0000
0000
0000
1001
0000
0000
0000
0001
0000
1000
0000
0010
0100
,  // measure 18
0000
0000
0010
0000
0100
0000
0100
0010
0100
0010
1000
0010
1000
0000
0010
1000
,  // measure 19
0000
0000
0001
0000
0100
0000
0100
0000
0010
0000
0010
0000
0100
0000
0001
0100
,  // measure 20
0000
0000
0010
0000
1000
0000
0001
0010
0000
0100
1000
0000
1000
0000
0000
1100
,  // measure 21
0000
1010
0000
1001
0000
0100
0020
0000
,  // measure 22
0130
0000
0002
0000
1003
0001
1000
0001
,  // measure 23
1000
0000
0100
0000
0001
0000
0010
0001
,  // measure 24
0010
1002
0103
1001
,  // measure 25
0100
0001
0010
0001
1000
1001
0000
1000
,  // measure 26
0010
0100
0001
0100
0010
1100
0000
0010
,  // measure 27
0001
1000
0100
0010
0100
1100
0000
0011
,  // measure 28
0000
0110
0000
1001
0000
1001
0010
0000
,  // measure 29
0001
1000
0100
0010
0100
1010
0000
0001
,  // measure 30
0010
0100
1000
0010
0100
1001
0000
0010
,  // measure 31
0100
0001
0010
0100
1000
1001
0000
0011
,  // measure 32
0000
0110
0000
1100
0000
0011
0000
0010
,  // measure 33
0100
1000
0010
0100
0001
0002
0000
1003
,  // measure 34
1010
0100
0001
0010
0100
2000
0000
3010
,  // measure 35
0101
0001
0010
0100
1000
0010
0000
1010
,  // measure 36
0000
0101
0000
0110
0000
1100
0000
0010
,  // measure 37
1001
1000
0100
0010
0100
0200
0000
1300
,  // measure 38
1010
1000
0100
0010
0100
2000
0000
3001
,  // measure 39
1001
0100
0010
0100
0001
1100
0000
0011
,  // measure 40
0000
0110
0000
1001
0000
1000
1001
0000
,  // measure 41
0001
1000
0001
0001
1000
2000
0000
3010
,  // measure 42
1000
0010
0010
0100
0010
0200
0000
0310
,  // measure 43
0010
0100
0001
0010
0001
0010
0000
0011
,  // measure 44
0000
1100
0000
0110
0000
1001
0000
0001
,  // measure 45
0010
0001
0001
1000
0010
2000
0000
3010
,  // measure 46
0010
0100
0001
0010
0100
2000
0000
0100
,  // measure 47
3100
0010
0001
1000
0010
0100
0000
1001
,  // measure 48
0000
0011
0000
1001
0000
2000
3001
0000
;
