#TITLE:Technotronic Flight;
#SUBTITLE:;
#ARTIST:Princess F.;
#TITLETRANSLIT:;
#SUBTITLETRANSLIT:;
#ARTISTTRANSLIT:;
#CREDIT:;
#BANNER:Technotronic Flight-bn.png;
#BACKGROUND:Technotronic Flight-bg.png;
#LYRICSPATH:;
#CDTITLE:Super Eurobeat 190.png;
#MUSIC:Technotronic Flight.ogg;
#OFFSET:-6.384;
#SAMPLESTART:55.470;
#SAMPLELENGTH:15.260;
#SELECTABLE:YES;
#BPMS:0.000=152.080;
#STOPS:228.000=0.015
;
#BGCHANGES:;

//---------------dance-single - ----------------
#NOTES:
     dance-single:
     :
     Hard:
     8:
     0.601,0.576,0.485,0.247,0.079:
1000
0000
0001
0000
1000
0000
0010
1000
0010
0000
1000
0000
0001
0000
1000
0010
,
0100
0000
0010
0000
0100
0000
0001
0100
0001
0000
0100
0000
0010
0000
1000
0000
,
0001
0000
0010
0000
0100
0000
1000
0100
1000
0000
0010
0000
1000
0000
0010
1000
,
0010
0010
0010
0010
1000
1000
1000
1000
,
1001
0000
0001
0110
0000
0001
0010
1001
,
0000
1000
0010
0101
0000
1000
0001
0200
,
0000
0001
0010
0301
,
2002
0000
0000
3003
,
0201
0000
0301
0000
0100
0001
1000
0000
,
0100
1000
0001
0010
0100
1000
0010
1000
,
0002
0000
1003
0000
0010
0100
0001
0000
,
0001
0100
0010
1000
0010
0100
0001
0100
,
1020
0000
0130
0000
0010
0100
0001
0000
,
0100
0010
1000
0010
0100
0001
1000
0010
,
0200
0000
0301
0000
1000
0100
1000
0000
,
0001
0010
0100
1000
0100
0010
0001
0010
,
0100
0000
0100
0000
1000
0000
0001
0000
0100
0000
0000
1001
0000
0000
0020
0000
,
0000
0000
0130
0000
0001
0000
1000
0000
0010
0000
0000
1001
0000
0000
0200
0000
,
0000
0301
0100
0010
1000
0010
0100
0001
,
0000
0000
0101
0000
0000
0000
1010
0000
0000
0000
0001
0000
1000
0100
1000
0010
,
0100
0000
0001
0000
1000
0000
0010
0000
0100
0000
0000
1010
0000
0000
0101
0000
,
0000
1000
0001
0010
0100
0000
1000
1100
,
0000
0100
1000
0010
0100
0001
0010
0100
,
0000
1001
0000
0010
0200
0000
0301
0000
,
2001
0000
0000
0001
0000
0000
3001
0000
0000
0000
1000
0000
0010
0000
0100
0000
,
0000
0001
0010
0100
1000
0001
0000
0011
,
0000
1100
0000
0110
0000
1001
0000
0200
,
0000
0000
0010
0000
0000
0010
0000
0000
0301
0000
0000
0000
1001
0000
0000
0000
,
1010
0000
0001
0100
0000
1001
0000
0010
,
0100
0001
0100
0001
1000
0010
0000
1001
,
0000
0100
1000
0010
0100
0001
1000
0002
,
0000
1003
1000
0010
0100
0001
0010
0011
,
0000
0100
1000
0001
1000
1000
0010
0110
,
0000
0001
1000
0001
0010
0100
0010
0001
,
0000
0011
0000
1001
0000
1010
0000
0110
,
0000
0010
0010
0100
0001
1000
0001
0011
,
0000
0001
1000
0010
0100
0001
0100
0110
,
0000
1000
0001
0010
0001
0100
0001
0100
,
0000
0101
0000
1010
0000
1001
0000
0110
,
0000
1001
0000
1002
0000
1000
1003
0000
,
2000
0001
0100
3010
,
1001
0000
0010
0100
0000
0100
0000
0100
,
0200
0000
0001
0000
0301
0000
0010
0001
,
0010
0000
0001
0000
0100
0001
0100
0100
,
1002
0010
1000
0103
,
1000
0000
0010
1001
0000
0110
0000
1000
,
0110
0000
0001
1100
0000
0001
1000
0011
,
0000
1000
0100
0011
0000
0100
1000
0020
,
0000
0100
0100
0130
,
0220
0000
0000
0330
,
2100
0000
3100
0000
1000
0100
0010
0000
,
0001
0100
0010
1000
0001
0100
1000
0100
,
0020
0000
0130
0000
0001
1000
0100
0000
,
0100
1000
0001
0010
0001
1000
0100
1000
,
0012
0000
1003
0000
0001
1000
0100
0000
,
1000
0001
0010
0001
1000
0100
0010
0001
,
2000
0000
3100
0000
1000
0001
0100
0000
,
0001
0000
0001
0000
1000
0000
1000
0000
0010
0100
0010
0100
0001
1000
0001
1000
,
0002
0003
0000
0000
;

//---------------dance-single - ----------------
#NOTES:
     dance-single:
     :
     Medium:
     6:
     0.386,0.430,0.168,0.109,0.000: // measure 1
1000
0000
0001
0000
,  // measure 2
1000
0000
0001
1000
,  // measure 3
0001
0000
1000
0001
,  // measure 4
1000
1000
1000
0000
0001
0001
0001
0000
,  // measure 5
1000
0000
0000
0001
0000
0000
0000
1010
,  // measure 6
0000
0000
0000
0101
0000
0000
0000
2002
,  // measure 7
0000
0000
3003
0000
,  // measure 8
1001
0000
0000
0000
,  // measure 9
1000
0000
0010
0000
1000
0010
1000
0000
,  // measure 10
0001
0000
0100
0000
0001
0100
0001
0100
,  // measure 11
0010
0000
1000
0000
0010
1000
0010
0000
,  // measure 12
0100
0001
0100
0000
0010
1000
0010
0000
,  // measure 13
0100
0000
0001
0000
1000
0001
1000
0000
,  // measure 14
1000
0001
1000
0010
0100
0001
1000
0000
,  // measure 15
0001
0000
1000
0000
0001
1000
0010
0000
,  // measure 16
1000
0001
1000
0000
0010
0100
0010
0000
,  // measure 17
1000
0001
1000
0000
0001
0000
0100
0000
,  // measure 18
0010
1000
0010
0000
0100
0000
0001
0000
,  // measure 19
1000
0001
1000
0000
0001
0100
0001
0000
,  // measure 20
2000
0000
3000
0000
,  // measure 21
1000
0001
1000
0000
0010
0000
0100
0000
,  // measure 22
0001
0100
0001
0000
1000
0000
0010
0000
,  // measure 23
0100
0010
0100
0000
0001
0000
1000
0000
,  // measure 24
0002
0000
1003
0001
,  // measure 25
1000
0000
0001
0000
,  // measure 26
0100
0001
0100
0000
0010
1000
0010
0000
,  // measure 27
0100
0100
0010
0010
,  // measure 28
0200
0000
0301
1001
,  // measure 29
0001
0000
1000
0000
,  // measure 30
0001
1000
0001
0100
,  // measure 31
0101
0000
0100
0001
0100
0001
0100
0001
,  // measure 32
0000
1000
0010
1000
0010
1000
0010
0100
,  // measure 33
0000
0000
0001
0000
1000
0001
1000
0001
,  // measure 34
0000
0000
0100
0000
0001
1000
0001
1000
,  // measure 35
0000
0010
0000
0100
0000
0010
0000
0100
,  // measure 36
0000
0000
0010
0000
0010
0000
1000
0001
,  // measure 37
0000
0100
0001
0100
0001
0100
0001
0100
,  // measure 38
0000
0010
1000
0010
1000
0010
0100
0001
,  // measure 39
0000
1000
0000
0001
0000
0100
0000
0001
,  // measure 40
0000
1000
0000
0001
0000
0000
0100
0000
,  // measure 41
2002
0000
3003
0000
,  // measure 42
1000
1000
0001
0001
,  // measure 43
1000
0001
1001
0000
,  // measure 44
0001
0100
0101
0101
,  // measure 45
2002
0000
3003
0000
,  // measure 46
1000
0000
0001
0100
0000
0001
0000
0000
,  // measure 47
1001
0000
0000
0101
0000
0000
0000
0110
,  // measure 48
0000
0000
0000
1001
0000
0000
2002
0000
,  // measure 49
0000
0000
3003
0000
,  // measure 50
1001
0000
0000
0000
,  // measure 51
0001
0000
0100
0000
0001
0100
0001
0000
,  // measure 52
1000
0000
0010
0000
1000
0010
1000
0010
,  // measure 53
0100
0000
0001
0000
0100
0001
0100
0000
,  // measure 54
0010
1000
0010
0000
0100
0001
0100
0000
,  // measure 55
0010
0000
1000
0000
0001
1000
0001
0000
,  // measure 56
0001
1000
0001
0100
0010
1000
0001
0000
,  // measure 57
1000
0000
0001
0000
1000
0001
0100
0000
,  // measure 58
0001
0001
0001
0001
1000
1000
1000
1000
,  // measure 59
0001
0000
0000
0000
;

//---------------dance-single - ----------------
#NOTES:
     dance-single:
     :
     Easy:
     2:
     0.185,0.201,0.059,0.119,0.000: // measure 1
0001
0000
1000
0000
,  // measure 2
0001
0000
1000
0000
,  // measure 3
0010
0000
0100
0000
,  // measure 4
0020
0000
0230
0000
,  // measure 5
0310
0000
0000
0000
,  // measure 6
1001
0000
0000
0000
,  // measure 7
1001
0000
0000
0000
,  // measure 8
0020
0000
0000
0030
,  // measure 9
1000
0000
0001
0000
,  // measure 10
1000
0001
1000
0000
,  // measure 11
0010
0000
0100
0000
,  // measure 12
0010
0100
0010
0000
,  // measure 13
1000
0000
0001
0000
,  // measure 14
1000
0001
1000
0000
,  // measure 15
0001
0000
1000
0000
,  // measure 16
0010
1000
0010
0000
,  // measure 17
1000
0000
1000
0000
,  // measure 18
0001
0000
0001
0000
,  // measure 19
1000
0000
0001
0000
,  // measure 20
1001
0000
0000
0000
,  // measure 21
0100
0000
0010
0000
,  // measure 22
0100
0010
0100
0000
,  // measure 23
0010
0000
1000
0000
,  // measure 24
1001
0000
0001
0001
,  // measure 25
2000
0000
0000
3000
,  // measure 26
0001
0000
1000
0000
,  // measure 27
0001
1000
0001
1000
,  // measure 28
0001
0000
1000
0000
,  // measure 29
0020
0000
0030
0000
,  // measure 30
0200
0000
0000
0300
,  // measure 31
0010
0000
0010
0000
,  // measure 32
0010
0000
0100
0100
,  // measure 33
0010
0000
1000
0000
,  // measure 34
0001
1000
0001
0000
,  // measure 35
1000
0000
0010
0000
,  // measure 36
0100
0010
0100
0000
,  // measure 37
0001
0000
1000
0000
,  // measure 38
0001
1000
0001
0000
,  // measure 39
1000
0000
0010
0000
,  // measure 40
0100
0010
0100
0000
,  // measure 41
0200
0000
0000
0000
,  // measure 42
0300
0000
0000
0000
,  // measure 43
0020
0000
0000
0000
,  // measure 44
0030
0000
0000
0000
,  // measure 45
2002
0000
0000
3003
,  // measure 46
0000
0000
0000
0000
,  // measure 47
1001
0000
0010
0000
,  // measure 48
1000
0000
0001
0000
,  // measure 49
2000
0000
0000
0000
,  // measure 50
3001
0000
0000
0000
,  // measure 51
0200
0000
0000
0300
,  // measure 52
0001
0000
1000
0000
,  // measure 53
0001
1000
0001
0000
,  // measure 54
0100
0000
0010
0000
,  // measure 55
0100
0010
0100
0000
,  // measure 56
0001
0000
1000
0000
,  // measure 57
0001
1000
0001
0000
,  // measure 58
1000
0000
0001
0000
,  // measure 59
0100
0000
0000
0000
;
