#TITLE:Sweet Heaven;
#SUBTITLE:;
#ARTIST:Marmalade;
#TITLETRANSLIT:;
#SUBTITLETRANSLIT:;
#ARTISTTRANSLIT:;
#CREDIT:;
#BANNER:Sweet Heaven-bn.png;
#BACKGROUND:Sweet Heaven-bg.png;
#LYRICSPATH:;
#CDTITLE:cd.png;
#MUSIC:Sweet heaven.mp3;
#OFFSET:-9.016;
#SAMPLESTART:67.270;
#SAMPLELENGTH:12.000;
#SELECTABLE:YES;
#BPMS:0.000=161.988;
#STOPS:;
#BGCHANGES:;

//---------------dance-single - ----------------
#NOTES:
     dance-single:
     :
     Hard:
     8:
     0.599,0.512,0.374,0.374,0.000:
0010
0010
0100
0100
0010
0100
0010
0200
,
0000
0310
0100
0001
0100
0000
0101
0000
,
0001
0001
1000
0001
1000
0001
1000
2000
,
0000
3001
1000
0001
1000
0000
1001
0000
,
1000
0010
0010
1000
0010
1000
0010
0020
,
0000
1030
0010
1000
0010
0000
0110
0000
,
0100
0001
0100
0001
0100
0001
0001
0200
,
0000
0310
0100
0000
2002
0000
3003
0000
,
1000
0100
1000
0100
0000
1000
1001
0000
,
0001
0010
0001
0010
0000
0001
0101
0000
,
2000
3200
0320
0032
,
0103
0001
0100
1000
0100
0000
0101
0000
,
0001
0100
0001
0100
0000
0001
0101
0000
,
0010
0100
0010
0100
0000
0010
0110
0000
,
0200
0320
2030
3002
,
0013
1000
0010
0001
0010
0000
1100
0000
,
2001
0000
0001
0000
3001
0010
0100
0000
,
1000
0010
0100
0001
0010
0100
0010
0000
,
0001
0010
0001
0010
0001
0000
2000
0000
,
3010
1001
0110
1001
,
2000
0000
0100
0000
3010
0000
0001
0100
,
0010
0000
1000
0010
0100
0001
0100
0010
,
1000
0010
0100
0001
0100
0000
0010
0100
,
0001
0001
1000
1000
0001
0100
0010
1000
,
0001
0010
0001
0010
0000
0001
1001
0000
,
1000
0100
1000
0100
0000
1000
1010
0000
,
1001
1010
0101
1010
,
0010
1000
0010
0001
0010
0000
1010
0000
,
1000
0010
1000
0010
0000
1000
1010
0000
,
0100
0010
0100
0010
0000
0100
0110
0000
,
0110
0110
1001
1001
,
0100
0001
0100
1000
0100
0000
0101
0000
,
1002
0000
1000
0000
1003
0100
0010
0000
,
0001
0100
0010
1000
0100
0010
0100
0000
,
1000
0100
1000
0100
1000
0000
0002
0000
,
0103
1001
0110
1001
,
0002
0000
0010
0000
0103
0000
1000
0010
,
0100
0000
0001
0100
0010
1000
0010
0100
,
0001
0100
0010
1000
0010
0000
0100
0010
,
0000
1000
0010
0100
0002
0000
0103
0000
,
2001
0010
0000
0010
0000
0010
0000
3010
,
0000
0100
0001
1000
0010
1000
0001
0100
,
0010
1000
0010
1000
0001
0100
0001
0100
,
0001
1000
0010
0100
0002
0000
1003
0000
,
1002
0100
0000
0100
0000
0100
0000
0103
,
0000
0010
1000
0001
0100
0001
1000
0010
,
0100
0001
0100
0001
1000
0010
1000
0010
,
1000
0001
0100
0010
2000
0000
3001
0000
,
2010
0001
0000
0001
0000
0001
0000
3001
,
0000
1000
0100
0010
0001
0010
0100
1000
,
0001
0001
1000
1000
0100
0100
0010
0010
,
0100
0010
0001
1000
0200
0000
0310
0000
,
0102
1000
0000
1000
0000
1000
0000
1003
,
0000
0001
0010
0100
1000
0100
0010
0001
,
1000
0100
1000
0100
0010
0010
0001
0001
,
1000
1000
0001
0001
0100
0100
0010
0000
,
0210
0000
0310
0000
0000
0001
0000
0001
,
0000
1000
0000
1000
0000
0010
0000
0000
,
2000
3020
0230
0301
,
0020
0100
0100
0130
,
1002
0000
0103
0000
0000
0100
0000
0000
,
2001
0000
3001
0000
0000
0010
0000
0010
,
2000
3002
0203
0310
,
2001
0010
0010
0010
,
0002
0000
3003
0000
;

//---------------dance-single - ----------------
#NOTES:
     dance-single:
     :
     Easy:
     3:
     0.276,0.299,0.000,0.215,0.000: // measure 1
1000
1000
0001
0001
,  // measure 2
1000
0000
0001
0000
,  // measure 3
1000
1000
0001
0001
,  // measure 4
1000
0000
0001
0000
,  // measure 5
0100
0100
0010
0010
,  // measure 6
0100
0000
0010
0000
,  // measure 7
0010
0010
0100
0100
,  // measure 8
0010
0000
1000
0000
,  // measure 9
0001
0001
0001
0000
,  // measure 10
1000
1000
1000
0000
,  // measure 11
0002
0000
2003
0000
,  // measure 12
0100
0100
3100
0000
,  // measure 13
0010
0010
0010
0000
,  // measure 14
0100
0100
0100
0000
,  // measure 15
2000
0000
3002
0000
,  // measure 16
1000
1000
1003
0000
,  // measure 17
1000
0000
0001
0000
,  // measure 18
1000
0001
1000
0010
,  // measure 19
0100
0000
0010
0000
,  // measure 20
0100
0001
1000
0010
,  // measure 21
1000
0000
0001
0000
,  // measure 22
1000
0001
0100
0010
,  // measure 23
2000
0000
3002
0000
,  // measure 24
1003
0001
1000
0010
,  // measure 25
0100
0100
0100
0000
,  // measure 26
0010
0010
0010
0000
,  // measure 27
0200
0000
0320
0000
,  // measure 28
1000
1000
1030
0000
,  // measure 29
0001
0001
0001
0000
,  // measure 30
1000
1000
1000
0000
,  // measure 31
0020
0000
0230
0000
,  // measure 32
0010
0010
0310
0000
,  // measure 33
0010
0000
0100
0000
,  // measure 34
0010
0100
0010
0001
,  // measure 35
1000
0000
0001
0000
,  // measure 36
1000
0100
0010
0001
,  // measure 37
0010
0000
0100
0000
,  // measure 38
0010
0100
1000
0001
,  // measure 39
0020
0000
0230
0000
,  // measure 40
0310
0000
0010
0001
,  // measure 41
2000
0000
0001
0000
,  // measure 42
0001
0001
3001
0000
,  // measure 43
1000
1000
0001
0001
,  // measure 44
0100
0010
0100
0010
,  // measure 45
0200
0000
0001
0000
,  // measure 46
0001
0001
0301
0000
,  // measure 47
0001
0001
0100
0100
,  // measure 48
0010
1000
0010
0100
,  // measure 49
0002
0000
1000
0000
,  // measure 50
0100
0100
0103
0000
,  // measure 51
0010
0010
0100
0100
,  // measure 52
0010
0100
0001
1000
,  // measure 53
0002
0000
0100
0000
,  // measure 54
0010
0010
0013
0000
,  // measure 55
1000
1000
0001
0001
,  // measure 56
0100
0010
0100
0010
,  // measure 57
0200
0000
0000
0000
,  // measure 58
0301
0000
0000
0000
,  // measure 59
2000
0000
3002
0000
,  // measure 60
0203
0000
0320
0000
,  // measure 61
0230
0000
0000
0000
,  // measure 62
0301
0000
0000
0000
,  // measure 63
1000
1000
0001
0001
,  // measure 64
1000
0001
1000
0002
,  // measure 65
1003
0000
0000
0000
;

//---------------dance-single - ----------------
#NOTES:
     dance-single:
     :
     Medium:
     5:
     0.410,0.388,0.093,0.196,0.000: // measure 1
0001
0000
0001
0000
1000
0001
1000
0001
,  // measure 2
0000
1000
0010
1010
,  // measure 3
0010
0000
0100
0000
0010
0100
0010
0100
,  // measure 4
0000
0100
0010
0110
,  // measure 5
0001
0000
0010
0000
0001
0010
0001
0010
,  // measure 6
0000
0001
0100
0101
,  // measure 7
0010
0000
1000
0000
0010
1000
0010
1000
,  // measure 8
0000
0010
1001
0000
,  // measure 9
0010
1000
0010
1000
,  // measure 10
0001
0100
0001
0100
,  // measure 11
0010
0010
0100
0110
,  // measure 12
0010
0100
0010
0100
0010
0000
0000
0000
,  // measure 13
1000
1000
0001
0001
,  // measure 14
0100
0100
0010
0010
,  // measure 15
1000
0001
0010
0100
,  // measure 16
1000
0010
1000
0010
1000
0000
0000
0000
,  // measure 17
0002
0103
2000
3010
,  // measure 18
1000
0010
1000
0000
0001
0100
0001
0000
,  // measure 19
0100
0010
0100
0010
0100
0000
0001
0000
,  // measure 20
1000
0020
0100
0130
,  // measure 21
0110
0000
0010
0100
0010
0000
1000
0000
,  // measure 22
0001
0000
1000
0010
1000
0000
0001
0100
,  // measure 23
0001
1000
0010
0100
,  // measure 24
0010
0100
0010
0000
0100
0001
0100
0000
,  // measure 25
0100
0001
0100
0001
,  // measure 26
1000
0010
1000
0010
,  // measure 27
0100
0100
0010
0110
,  // measure 28
0100
0010
0100
0010
0100
0000
0000
0000
,  // measure 29
0001
0001
1000
1000
,  // measure 30
0010
0010
0100
0100
,  // measure 31
0001
1000
0100
0010
,  // measure 32
0001
0100
0001
0100
0001
0000
0000
0000
,  // measure 33
2000
3010
0002
0103
,  // measure 34
0001
0100
0001
0000
1000
0010
1000
0000
,  // measure 35
0010
0100
0010
0100
0010
0000
1000
0000
,  // measure 36
0001
0200
0010
0310
,  // measure 37
0110
0000
0100
0010
0100
0000
0001
0000
,  // measure 38
1000
0000
0001
0100
0001
0000
1000
0010
,  // measure 39
1000
0000
0001
0000
0100
0000
0010
0100
,  // measure 40
0000
1001
0000
0000
0010
0000
0010
0000
,  // measure 41
0200
0001
0000
0001
0000
0001
0000
0001
,  // measure 42
0000
0001
0000
0301
0000
0000
0000
0000
,  // measure 43
0002
1003
0020
0130
,  // measure 44
0001
1000
0010
0100
0010
0000
1000
0000
,  // measure 45
0020
1000
0000
1000
0000
1000
0000
1000
,  // measure 46
0000
1000
0000
1030
0000
0000
0000
0000
,  // measure 47
2000
3010
0200
0301
,  // measure 48
1000
0001
1000
0001
1000
0000
0010
0000
,  // measure 49
0020
1000
0000
1000
0000
1000
0000
1000
,  // measure 50
0000
1000
0000
1030
0000
0000
0000
0000
,  // measure 51
2000
3001
0200
0310
,  // measure 52
1000
0001
0100
0010
0100
0000
0001
0000
,  // measure 53
0200
0001
0000
0001
0000
0001
0000
0001
,  // measure 54
0000
0001
0000
0301
0000
0000
0000
0000
,  // measure 55
0002
0103
0020
1030
,  // measure 56
0010
0100
0010
0100
0010
0000
1000
0000
,  // measure 57
0002
0000
1000
0000
,  // measure 58
0100
0000
0013
0000
,  // measure 59
0010
0010
0100
0100
,  // measure 60
0010
0100
0010
0100
,  // measure 61
2001
0000
0001
0000
,  // measure 62
0010
0000
3001
0000
,  // measure 63
1000
1000
0010
0100
,  // measure 64
0001
0200
0010
0010
,  // measure 65
0310
0000
0000
0000
;
