#TITLE:Superdance;
#SUBTITLE:;
#ARTIST:Vicky Vale;
#TITLETRANSLIT:;
#SUBTITLETRANSLIT:;
#ARTISTTRANSLIT:;
#CREDIT:;
#BANNER:Superdance-bn.png;
#BACKGROUND:Superdance-bg.png;
#LYRICSPATH:;
#CDTITLE:Super Eurobeat 091.png;
#MUSIC:Superdance.ogg;
#OFFSET:-7.799;
#SAMPLESTART:59.150;
#SAMPLELENGTH:12.000;
#SELECTABLE:YES;
#BPMS:0.000=154.210;
#STOPS:0.000=0.389
,1.000=0.389
,6.000=0.389
,7.000=0.389
,12.000=0.389
,13.000=0.389
,18.000=0.389
,19.000=0.389
,224.000=1.167
;
#BGCHANGES:;

//---------------dance-single - ----------------
#NOTES:
     dance-single:
     :
     Hard:
     8:
     0.595,0.595,0.320,0.223,0.300:
1001
0110
2002
0000
,
0000
3003
0101
0110
,
1001
0000
0000
0001
0000
0000
0000
0000
1001
0000
0000
1000
0000
0000
0000
0000
,
1001
0011
2020
0000
,
0000
3030
0101
1010
,
1001
0000
0000
1000
0000
0000
0000
0000
0110
0000
0000
0001
0000
0000
0000
0000
,
1001
0000
0001
1000
0000
0000
0010
0000
0100
0000
0001
0100
0000
0000
0010
0000
,
0100
0000
0000
0001
0100
0000
0010
0000
1000
0000
0000
0100
0000
0000
1000
0000
,
0010
0000
0100
0010
0000
0000
0100
0000
0001
0000
0100
0010
0000
0000
0100
0000
,
0001
0100
0000
0001
0100
0000
0001
0000
0010
1000
0000
0010
1000
0000
0100
0000
,
1000
0000
0010
0100
0000
0000
0001
0000
1000
0000
0010
1000
0000
0000
0001
0000
,
1000
0000
0000
0010
1000
0000
0001
0000
0100
0000
0000
1000
0000
0000
0100
0000
,
0001
0000
1000
0001
0000
0000
1000
0000
0010
0000
1000
0001
0000
0000
1000
0000
,
0010
1000
0000
0010
1000
0000
0010
0000
0001
0100
0000
0001
0100
0000
1000
0000
,
0001
0100
0000
0001
0100
0000
0001
0000
1000
0010
0000
1000
0010
0000
1000
0000
,
0110
0001
0100
1000
0001
0010
0100
0000
,
0001
0100
1000
0001
0010
0100
0001
0100
,
0000
0100
1000
0100
1000
0100
0000
1001
,
0000
0010
0100
0001
0010
0100
0000
0000
,
0001
0100
1000
0001
0010
0000
0101
0000
,
0010
1000
0100
1000
0001
0010
0100
0010
,
0000
0000
0010
0000
0100
0000
0001
0010
0000
0010
0001
0000
0000
0000
0001
0000
,
0010
0100
0001
0100
1000
0010
0000
0000
,
2001
0010
3001
2001
,
3020
0230
0302
1003
,
2001
0000
0001
0001
3001
0000
0020
0100
,
0130
0000
1001
0100
1000
0001
0010
0000
,
0102
0103
2010
3001
,
2001
3010
0002
0203
,
0320
0000
1030
0001
0200
0000
1300
0001
,
0020
0000
0000
0000
0130
0000
0001
0000
0100
0000
0010
0001
0000
0010
0001
0000
,
2000
0000
3010
0000
0100
0001
0100
1000
,
0001
0000
0010
0100
0001
0100
1000
0000
,
1001
0000
0010
0100
0010
0100
0001
0100
,
0000
0001
0010
0100
0000
0001
0100
0000
,
1001
0000
0010
0100
0001
0100
1000
0000
,
0100
1000
0010
0100
0001
0000
1001
0000
,
0010
0100
0001
0100
1000
0010
0100
0001
,
0100
0000
1000
0000
0001
0000
0010
0000
2000
0000
3001
0100
0000
0001
0100
0000
,
1001
0000
0010
0100
0001
0100
1000
0000
,
0010
0100
0001
0100
1000
0001
0010
0000
,
1001
0000
0001
0010
0100
0001
0100
1000
,
0010
0100
0001
0100
1000
0010
0100
0000
,
1001
0000
0001
0010
0100
0001
0100
0000
,
1000
0001
0010
0100
0001
0100
1000
0000
,
1001
0000
0010
0100
0001
0010
0001
0000
,
0020
0000
1030
0010
0000
1000
0010
0000
0200
0000
0301
0100
0000
0001
0100
0000
,
1001
0000
0001
1000
0000
0000
0010
0000
0100
0000
0001
0100
0000
0000
0010
0000
,
0100
0000
0000
0001
0100
0000
0010
0000
1000
0000
0000
0100
0000
0000
1000
0000
,
0010
0000
0100
0010
0000
0000
0100
0000
0001
0000
0100
0010
0000
0000
0100
0000
,
0001
0100
0000
0001
0100
0000
0001
0000
0010
1000
0000
0010
1000
0000
0100
0000
,
1000
0000
0010
0100
0000
0000
0001
0000
1000
0000
0010
1000
0000
0000
0001
0000
,
1000
0000
0000
0010
1000
0000
0001
0000
0100
0000
0000
1000
0000
0000
0100
0000
,
0001
0000
1000
0001
0000
0000
1000
0000
0010
0000
1000
0001
0000
0000
1000
0000
,
0010
1000
0000
0010
1000
0000
0010
0000
0001
0100
0000
0001
0100
0000
1000
0000
,
0001
0100
0000
0001
0100
0000
0001
0000
1000
0010
0000
1000
0010
0000
1000
0000
;

//---------------dance-single - ----------------
#NOTES:
     dance-single:
     :
     Medium:
     6:
     0.443,0.378,0.174,0.242,0.039: // measure 1
0001
0100
2002
0000
,  // measure 2
0000
3003
0001
0100
,  // measure 3
2000
0000
0000
0001
3000
0000
0000
0000
0002
0000
0000
1000
0003
0000
0000
0000
,  // measure 4
1000
0011
2002
0000
,  // measure 5
0000
3003
0100
1010
,  // measure 6
1002
0000
0000
1000
0003
0000
0000
0000
0200
0000
0000
0001
0300
0000
0000
0000
,  // measure 7
0001
0000
0100
0001
0100
0000
0010
0001
,  // measure 8
2000
3001
1000
1001
,  // measure 9
0001
0000
0010
0001
0010
0000
1000
0001
,  // measure 10
0010
0000
0000
1000
0000
0000
0100
0000
0001
0000
0000
0001
0000
0000
0010
0000
,  // measure 11
0001
0000
0100
0010
0100
0000
1000
0001
,  // measure 12
0020
0031
1000
1001
,  // measure 13
0001
0000
0100
0010
0100
0000
1000
0000
,  // measure 14
0002
1003
1000
1001
,  // measure 15
2000
3010
0001
1001
,  // measure 16
1000
0010
1000
0000
0200
0000
1300
0000
,  // measure 17
0001
0100
0010
0000
0001
0000
0100
0000
,  // measure 18
1000
0001
1000
0000
0100
0000
1000
0000
,  // measure 19
0010
1000
0010
1000
0010
1000
0000
0000
,  // measure 20
0001
0100
0001
0000
0200
0000
1300
0000
,  // measure 21
0001
0010
0001
0000
0100
0010
0100
0000
,  // measure 22
0001
0000
1000
0000
0010
1000
0010
0000
,  // measure 23
0100
1000
0010
1000
0001
1000
0000
0000
,  // measure 24
0002
1003
0020
0130
,  // measure 25
0001
1000
0100
0010
,  // measure 26
0001
0000
0010
1000
0010
0000
0100
0001
,  // measure 27
0100
0000
0001
0000
0100
1000
0100
0000
,  // measure 28
0010
0100
0011
1100
,  // measure 29
0001
0010
1010
0101
,  // measure 30
1001
0000
0100
1000
0100
0000
0010
0000
,  // measure 31
0100
0000
0001
0100
0001
0000
0001
0000
,  // measure 32
0002
0000
1003
0000
0010
1000
0000
0010
,  // measure 33
1000
0000
0100
1000
0100
1000
0100
0000
,  // measure 34
0001
0000
0100
0010
0100
0010
0001
0000
,  // measure 35
0001
0000
0010
0100
0001
0100
0010
0000
,  // measure 36
0100
0000
1000
0010
1000
0000
0100
1000
,  // measure 37
0000
0001
1000
0010
0000
0100
0001
0000
,  // measure 38
0100
1000
0100
0000
0010
0100
0001
0000
,  // measure 39
0001
1000
0001
0000
0010
0001
0010
0000
,  // measure 40
0200
0000
1300
0000
0010
0100
0010
0000
,  // measure 41
0001
0100
0010
0100
0001
0100
0001
0000
,  // measure 42
0002
0000
1003
0000
0010
0000
0100
0001
,  // measure 43
0100
0000
0100
0000
0010
1000
0010
0000
,  // measure 44
0200
0000
1300
0000
0001
1000
0001
0000
,  // measure 45
0001
0100
0010
0100
0001
0100
0010
0000
,  // measure 46
0200
0000
1300
0000
0010
0100
0010
0000
,  // measure 47
0001
0100
1000
0010
,  // measure 48
0001
0000
0100
0001
0100
0000
0010
0001
,  // measure 49
2000
3001
1000
1001
,  // measure 50
0001
0000
0010
0001
0010
0000
1000
0001
,  // measure 51
0010
0000
0000
1000
0000
0000
0100
0000
0001
0000
0000
0001
0000
0000
0010
0000
,  // measure 52
0001
0000
0100
0010
0100
0000
1000
0001
,  // measure 53
0020
0031
1000
1001
,  // measure 54
0001
0000
0100
0010
0100
0000
1000
0000
,  // measure 55
0002
1003
1000
1001
,  // measure 56
0002
0013
0010
0011
;

//---------------dance-single - ----------------
#NOTES:
     dance-single:
     :
     Easy:
     4:
     0.342,0.351,0.232,0.349,0.000: // measure 1
1001
0110
2002
0000
,  // measure 2
0000
3003
0010
0100
,  // measure 3
0020
0030
0200
0300
,  // measure 4
1001
0110
2002
0000
,  // measure 5
0000
3003
0001
1000
,  // measure 6
1000
0000
0001
0000
,  // measure 7
1000
0000
1010
0000
,  // measure 8
0001
1000
0010
0100
,  // measure 9
1001
0000
0110
0000
,  // measure 10
0002
0103
2000
3010
,  // measure 11
1010
0000
0101
0000
,  // measure 12
0100
0010
1000
0001
,  // measure 13
0010
0100
1000
0001
,  // measure 14
0020
0130
0200
0310
,  // measure 15
0002
1003
2000
3001
,  // measure 16
0001
1000
0010
0100
,  // measure 17
0001
1000
0010
0100
,  // measure 18
2000
0001
3010
0000
,  // measure 19
0002
0100
1003
0000
,  // measure 20
0010
0100
0010
1000
,  // measure 21
0001
0010
0100
0001
,  // measure 22
0020
0100
1000
0000
,  // measure 23
0100
1000
0031
0000
,  // measure 24
0002
1003
0010
0100
,  // measure 25
0002
0103
0010
1000
,  // measure 26
2000
0010
0001
0100
,  // measure 27
3200
1000
0010
0301
,  // measure 28
0010
0001
1000
0001
,  // measure 29
0010
0100
1000
0010
,  // measure 30
1001
0000
0001
0000
,  // measure 31
1000
0000
1010
0100
,  // measure 32
2000
3001
0010
0100
,  // measure 33
0001
1000
0010
0001
,  // measure 34
0100
0000
0010
0000
,  // measure 35
0010
0010
0100
0100
,  // measure 36
0102
0103
1000
0010
,  // measure 37
0001
1000
0001
0010
,  // measure 38
1000
0000
0010
0000
,  // measure 39
0002
1003
2000
3010
,  // measure 40
1010
0010
0001
0100
,  // measure 41
0001
1000
0010
1000
,  // measure 42
0001
0000
0010
0000
,  // measure 43
0200
0310
0020
0130
,  // measure 44
0102
0100
1003
0010
,  // measure 45
1000
0001
0010
0100
,  // measure 46
1000
0010
1000
0001
,  // measure 47
2000
0000
3002
0003
,  // measure 48
1001
0000
0110
0000
,  // measure 49
0010
0001
0100
1000
,  // measure 50
0011
0000
1100
0000
,  // measure 51
0020
1030
0002
0103
,  // measure 52
0101
0000
1010
0000
,  // measure 53
1000
0100
0001
0010
,  // measure 54
1002
1003
0210
0310
,  // measure 55
0200
1300
2000
3100
,  // measure 56
0020
0031
0002
0013
;
