#TITLE:Super Rider;
#SUBTITLE:;
#ARTIST:Mark Astley;
#TITLETRANSLIT:;
#SUBTITLETRANSLIT:;
#ARTISTTRANSLIT:;
#CREDIT:;
#BANNER:Super Rider-bn.PNG;
#BACKGROUND:Super Rider-bg.PNG;
#LYRICSPATH:;
#CDTITLE:cd.png;
#MUSIC:Super Rider.ogg;
#OFFSET:-6.020;
#SAMPLESTART:87.050;
#SAMPLELENGTH:12.000;
#SELECTABLE:YES;
#BPMS:0.000=157.000;
#STOPS:32.000=0.382
,32.500=0.191
,33.000=0.191
,102.000=0.764
,204.000=0.382
,204.500=0.191
,205.000=0.191
;
#BGCHANGES:;

//---------------dance-single - ----------------
#NOTES:
     dance-single:
     :
     Hard:
     8:
     0.605,0.560,0.319,0.276,0.198:
1000
0000
0100
0000
0010
0000
0001
0100
0000
0001
0100
0000
0010
0000
1000
0000
,
0010
0000
1000
0000
0100
0000
0010
0001
0000
0010
0001
0000
0100
0000
0010
0000
,
1000
0000
0001
0000
0100
0000
0010
1000
0000
0010
1000
0000
0100
0000
0010
0000
,
0001
0000
0000
0001
0000
0000
1000
0000
0000
1000
0000
0000
0010
0000
0100
0000
,
0001
0000
0010
0000
0100
0000
1000
0010
0000
1000
0010
0000
0100
0000
0001
0000
,
0100
0000
0001
0000
0010
0000
0100
1000
0000
0100
1000
0000
0010
0000
0100
0000
,
0001
0000
1000
0000
0010
0000
0100
0001
0000
0100
0001
0000
0010
0000
0100
0000
,
2000
0000
3001
0000
0001
0001
0100
0000
,
1001
0110
1001
0100
1001
0000
0100
0010
,
2000
0000
0001
0000
3010
0000
0001
0100
,
0020
0000
1000
0000
0130
0000
0001
0010
,
0200
1300
0101
1010
,
0020
0000
0130
0001
0100
0000
0010
0100
,
0010
0000
0102
0000
1003
0000
0010
0100
,
0010
0000
2100
0000
3010
0000
0001
0100
,
0010
1001
0002
1003
,
1001
0000
0100
0010
0110
0000
0010
0100
,
0002
0000
0100
0000
0013
0000
1000
0010
,
0200
0000
0010
0000
0301
0000
0010
0100
,
0001
1000
0110
0011
,
1100
0000
0100
1000
0001
0000
0001
0010
,
0100
0000
2001
0000
3010
0000
0001
0100
,
0010
0000
1002
0000
0103
0000
0001
0010
,
0100
1000
0002
1000
,
0010
0103
2000
0010
,
0001
3010
2002
0000
,
0000
0000
3003
0000
,
0001
0000
1000
0000
0001
0000
1000
0010
0000
1000
0010
0000
0100
0000
0001
0000
,
0100
0000
0010
0000
1000
0000
0001
0010
0000
0001
0010
0000
0100
0000
1000
0000
,
0010
0000
0100
0000
0001
0000
0100
0010
0000
0100
0010
0000
0100
0000
0001
0000
,
1000
0000
0000
0010
0000
0000
1000
0000
0000
0001
0000
0000
1000
0000
0010
0000
,
1000
0000
0001
0000
1000
0000
0001
0100
0000
0001
0100
0000
0010
0000
1000
0000
,
0010
0000
0100
0000
0001
0000
1000
0100
0000
1000
0100
0000
0010
0000
0001
0000
,
0100
0000
0010
0000
1000
0000
0010
0100
0000
0010
0100
0000
0010
0000
1000
0000
,
0001
0000
0000
0100
0000
0000
0001
0000
0000
1000
0000
0000
0001
0000
0100
0000
,
2001
0000
0010
0000
3001
0100
0001
0000
,
1000
0010
0100
0001
1000
0001
0100
0000
,
0001
0100
1000
0000
0100
0001
0010
0000
,
0001
1000
0010
0100
0001
0100
0001
0010
,
1002
0000
0100
0000
0013
0000
1000
0001
,
0100
0000
0010
0100
0001
1000
0010
0000
,
1000
0100
0001
0000
0100
1000
0001
0000
,
0100
0010
1000
0001
1000
0010
0100
0001
,
2100
0000
0001
0000
3010
0000
0001
0100
,
1002
0000
0010
0000
0103
0000
0001
0100
,
1002
0000
0100
0000
0013
0000
0001
0100
,
0010
0000
1000
0001
0100
0000
1001
0000
,
2010
0000
0001
0000
3100
0000
0001
0010
,
0012
0000
1000
0000
0103
0000
0100
0010
,
1002
0000
1003
0010
0100
0001
1000
0000
,
0010
1000
0001
1000
0010
0000
1001
0000
,
1001
0110
1001
0010
1001
0000
0010
0100
,
0002
0000
1000
0000
0103
0000
1000
0010
,
0200
0000
0001
0000
0310
0000
1000
0100
,
0020
0031
1010
0101
,
0200
0000
0310
1000
0010
0000
0100
0010
,
0100
0000
2010
0000
3001
0000
0100
0010
,
0100
0000
0012
0000
0103
0000
1000
0010
,
0100
1001
2000
3001
,
1001
0000
0000
0000
0100
0000
0001
0000
1000
0000
0001
0000
1000
0000
0001
0100
,
0000
0001
0100
0000
0010
0000
1000
0000
0010
0000
0100
0000
0001
0000
1000
0100
,
0000
1000
0100
0000
0010
0000
0001
0000
0100
0000
0010
0000
1000
0000
0010
0100
,
0000
0010
0100
0000
0010
0000
1000
0000
0001
0000
0000
0100
0000
0000
0001
0000
,
0000
1000
0000
0000
0001
0000
0100
0000
0001
0000
1000
0000
0001
0000
1000
0010
,
0000
1000
0010
0000
0100
0000
0001
0000
0100
0000
0010
0000
1000
0000
0001
0010
,
0000
0001
0010
0000
0100
0000
1000
0000
0010
0000
0100
0000
0001
0000
0100
0010
,
0000
0100
0010
0000
0100
0000
0001
0000
1000
0000
0000
0010
0000
0000
1000
0000
,
0000
0001
0000
0000
1000
0000
0010
0000
0200
0000
0000
0000
0000
0000
0000
0000
,
0000
0000
0300
0000
;

//---------------dance-single - ----------------
#NOTES:
     dance-single:
     :
     Medium:
     6:
     0.464,0.527,0.189,0.482,0.000: // measure 1
1000
0010
1000
0000
0020
0000
0130
0000
,  // measure 2
0001
0100
0010
0000
2000
0000
3001
0000
,  // measure 3
1000
0001
1000
0000
0002
0000
0103
0000
,  // measure 4
1010
1010
0101
0101
,  // measure 5
0010
1000
0010
0000
2000
0000
3001
0000
,  // measure 6
0100
0010
0100
0000
0002
0000
0103
0000
,  // measure 7
0010
1000
0010
0000
2000
0000
3100
0000
,  // measure 8
1000
0000
0010
0000
0100
0001
1000
0000
,  // measure 9
1001
0110
1001
0010
1000
0000
0001
1000
,  // measure 10
0020
0000
0230
0000
0301
0000
1000
0010
,  // measure 11
0200
0000
0302
0000
0013
0000
0100
1000
,  // measure 12
0020
1030
0001
0001
,  // measure 13
1000
0000
0001
1000
0000
0000
0010
1000
,  // measure 14
0010
0000
0200
0000
0301
0000
0010
0100
,  // measure 15
1000
0000
0002
0000
1003
0000
0001
0010
,  // measure 16
0100
1000
2000
3001
,  // measure 17
1001
0000
0010
1000
0010
0000
1000
0001
,  // measure 18
2000
0000
3020
0000
0130
0000
0001
0010
,  // measure 19
0200
0000
1300
0000
0001
0000
1000
0010
,  // measure 20
1000
0001
0010
1100
,  // measure 21
0001
0000
1000
0010
0000
0000
1000
0001
,  // measure 22
2000
0000
3020
0000
0130
0000
0001
0100
,  // measure 23
0020
0000
0130
0000
0001
0000
1000
0010
,  // measure 24
1000
0001
2000
0000
,  // measure 25
3002
0000
0203
0000
,  // measure 26
0320
0000
0000
0030
1001
0000
0000
0000
,  // measure 27
2000
0000
3000
0000
,  // measure 28
0001
0100
0001
0000
0200
0000
0310
0000
,  // measure 29
1000
0010
0100
0000
0002
0000
1003
0000
,  // measure 30
0001
1000
0001
0000
2000
0000
3010
0000
,  // measure 31
0101
0101
1010
1010
,  // measure 32
0100
0001
0100
0000
0002
0000
1003
0000
,  // measure 33
0010
0100
0010
0000
2000
0000
3010
0000
,  // measure 34
0100
0001
0100
0000
0002
0000
0013
0000
,  // measure 35
0001
0000
0100
0000
0010
1000
0001
0000
,  // measure 36
1000
0010
1000
0001
,  // measure 37
1000
0010
1000
0000
0001
0100
0010
0000
,  // measure 38
1000
1000
2000
3000
,  // measure 39
0001
0000
0001
0000
0002
0000
0000
0003
,  // measure 40
1000
0000
0001
0000
0100
0010
1000
0000
,  // measure 41
0001
1000
0010
0000
0100
0001
1000
0000
,  // measure 42
0010
1000
1001
0000
,  // measure 43
0001
0000
0000
0100
1100
0000
0000
0000
,  // measure 44
2000
0000
0000
0000
0001
0000
0001
3000
,  // measure 45
0002
0000
0000
0000
1000
0000
1000
0003
,  // measure 46
2000
0000
0000
0000
3020
0000
0000
0030
,  // measure 47
0100
0010
0100
0110
,  // measure 48
0002
0000
0000
0000
0100
0000
0100
0003
,  // measure 49
0200
0000
0010
0010
,  // measure 50
0310
0000
1000
0000
,  // measure 51
0001
0000
1000
0001
1000
0000
1010
0000
,  // measure 52
1001
1001
1000
0001
1000
0000
1000
0001
,  // measure 53
0200
0000
0320
0000
1030
0000
0001
0100
,  // measure 54
0020
0000
2030
0000
3100
0000
0010
0001
,  // measure 55
0200
0301
1000
1000
,  // measure 56
0001
0000
1000
0001
0000
0000
0100
0001
,  // measure 57
0100
0000
0020
0000
1030
0000
0100
0010
,  // measure 58
0001
0000
2000
0000
3001
0000
1000
0100
,  // measure 59
0010
0001
0002
1003
,  // measure 60
1001
0000
0100
0001
0100
0000
0001
1000
,  // measure 61
0002
0000
0203
0000
0310
0000
1000
0100
,  // measure 62
0020
0000
0031
0000
1000
0000
0001
0100
,  // measure 63
0001
1000
0100
0011
,  // measure 64
1000
0000
0001
0100
0000
0000
0001
1000
,  // measure 65
0002
0000
0203
0000
0310
0000
1000
0010
,  // measure 66
0200
0000
0310
0000
1000
0000
0001
0100
,  // measure 67
0001
1000
0002
0000
,  // measure 68
2003
0000
3020
0000
,  // measure 69
0030
0000
0000
0000
;

//---------------dance-single - ----------------
#NOTES:
     dance-single:
     :
     Easy:
     4:
     0.325,0.351,0.164,0.310,0.000: // measure 1
0010
1000
0001
0000
,  // measure 2
1000
0010
0100
0000
,  // measure 3
0010
0100
0001
0000
,  // measure 4
2000
0000
3002
0000
,  // measure 5
1003
0001
0010
0000
,  // measure 6
0100
1000
0010
0000
,  // measure 7
0100
0001
1000
0000
,  // measure 8
0002
0000
2003
0000
,  // measure 9
3010
0000
0010
1000
,  // measure 10
0001
1000
1001
0001
,  // measure 11
1000
0100
1001
0001
,  // measure 12
0001
1000
1000
0001
,  // measure 13
1000
0010
0110
0001
,  // measure 14
1000
0100
1001
0001
,  // measure 15
0100
0010
1010
0001
,  // measure 16
1000
0100
2000
0001
,  // measure 17
0001
3002
1003
1000
,  // measure 18
0010
0100
1001
0001
,  // measure 19
0010
0100
1001
0001
,  // measure 20
0001
1000
1000
0001
,  // measure 21
1000
0010
0110
0010
,  // measure 22
0100
0010
0110
0001
,  // measure 23
1000
0001
1001
0001
,  // measure 24
1000
0010
0200
0000
,  // measure 25
0302
0000
2003
0000
,  // measure 26
3002
0000
1203
0000
,  // measure 27
0000
0000
0000
0000
,  // measure 28
0010
1000
0001
0000
,  // measure 29
1000
0100
0010
0000
,  // measure 30
0001
1000
0010
0000
,  // measure 31
2000
0000
3002
0000
,  // measure 32
1003
0010
0100
0000
,  // measure 33
0001
0010
0100
0000
,  // measure 34
1000
0010
0100
0000
,  // measure 35
0020
0000
0230
0000
,  // measure 36
0302
0000
2003
0000
,  // measure 37
3001
1000
0010
0000
,  // measure 38
0200
0000
0320
0000
,  // measure 39
0130
0010
1000
0000
,  // measure 40
0002
0000
2003
0000
,  // measure 41
3001
1000
0010
0000
,  // measure 42
0200
0000
0320
0000
,  // measure 43
1030
0001
0010
0000
,  // measure 44
0002
0000
1000
1000
,  // measure 45
2003
0000
0001
0001
,  // measure 46
3001
0000
1000
0000
,  // measure 47
0010
0100
0010
1001
,  // measure 48
0002
0000
0100
0100
,  // measure 49
0203
0000
0010
0010
,  // measure 50
0320
0000
2030
0000
,  // measure 51
3001
1000
0010
0100
,  // measure 52
1001
0000
1001
0010
,  // measure 53
0100
0001
1001
0010
,  // measure 54
0100
0010
0110
0010
,  // measure 55
1000
0001
2000
3001
,  // measure 56
0002
1003
1001
0010
,  // measure 57
1000
0100
0011
0100
,  // measure 58
0010
0001
1001
0010
,  // measure 59
0100
0001
2000
0000
,  // measure 60
0001
0001
3001
0001
,  // measure 61
1000
0000
0001
1000
,  // measure 62
0010
0000
0100
0010
,  // measure 63
1000
0000
0002
0000
,  // measure 64
2003
0000
3001
1000
,  // measure 65
0010
0000
0100
0010
,  // measure 66
0100
0000
0010
1000
,  // measure 67
0001
0000
2000
0000
,  // measure 68
3002
0000
2003
0000
,  // measure 69
3000
0000
0000
0000
;
