#TITLE:Super Hero;
#SUBTITLE:(2001 Remix);
#ARTIST:Fireman;
#TITLETRANSLIT:;
#SUBTITLETRANSLIT:;
#ARTISTTRANSLIT:;
#CREDIT:;
#BANNER:Super Hero (2001 Remix)-bn.PNG;
#BACKGROUND:Super Hero (2001 Remix)-bg.PNG;
#LYRICSPATH:;
#CDTITLE:Dancemania Happy Paradise 2.png;
#MUSIC:Super Hero (2001 Remix).mp3;
#OFFSET:-7.558;
#SAMPLESTART:42.735;
#SAMPLELENGTH:12.000;
#SELECTABLE:YES;
#BPMS:0.000=160.000,159.000=80.000,175.000=160.000;
#STOPS:158.000=0.375
;
#BGCHANGES:;

//---------------dance-single - ----------------
#NOTES:
     dance-single:
     :
     Hard:
     9:
     0.685,0.678,0.243,0.243,0.485:
1000
0010
0000
0010
0100
0000
0100
0001
0000
0001
1000
0000
0001
0000
1000
0000
,
0001
1000
0000
1000
0010
0000
0010
0100
0000
0100
0001
0000
1000
0000
0001
0000
,
0100
0001
0000
0001
1000
0000
1000
0010
0000
0010
0100
0000
0001
0000
1000
0000
,
0010
1000
0000
1000
0001
0000
0001
0100
0000
0100
0010
0000
1000
0000
0001
0000
,
1000
0010
0000
1000
0010
0000
1000
0010
0000
0100
0001
0000
1000
0000
0001
0000
,
0100
0001
0000
0100
0001
0000
0100
0001
0000
1000
0010
0000
1000
0000
0001
0000
,
0100
0010
0000
0100
0010
0000
0100
0010
0000
1000
0001
0000
0100
0000
0001
0000
,
1000
0001
1000
0001
1000
0000
0010
0100
0010
0100
0001
1000
0001
1000
0000
0000
,
0002
0000
1000
1003
0000
0001
1001
0000
,
0010
0100
0001
0100
0010
1000
0001
0100
,
2001
0000
0100
0000
3001
0000
1000
0100
,
1002
0000
0100
0000
1003
0000
0100
0001
,
2000
0000
0001
3001
0000
1000
1001
0000
,
0100
0010
1000
0010
0100
0001
1000
0010
,
1002
0000
0013
0000
1000
0001
0000
0001
,
1000
1000
0001
0001
0100
0010
0100
0010
,
0200
0000
0010
0310
0000
0100
1001
0000
,
0010
0100
0001
1000
0001
1000
0010
1000
,
0102
0000
1000
0000
0103
0000
0001
1000
,
0120
0000
1000
0000
0130
0000
0001
0010
,
0200
0000
1000
1300
0000
0001
1001
0000
,
1000
0001
1000
0010
0100
0001
0100
0001
,
2000
0000
0001
0000
3010
0000
0100
2002
,
0000
3003
0000
0000
0001
0001
1000
1000
,
2001
0000
3010
0000
0001
0100
0001
0100
,
0010
0000
1001
0000
0001
0010
0100
1000
,
0002
0000
0000
0000
1003
0000
0000
0000
0120
0000
0000
0000
1030
0000
0001
1000
,
0001
0000
0100
0001
1000
1000
0001
0001
,
0210
0000
0310
0000
1000
0010
1000
0010
,
0100
0000
1001
0000
1000
0100
0010
0001
,
2000
0000
3001
0000
0210
0000
0301
1000
,
0001
0000
1001
0000
0001
0001
1000
0000
,
1001
0100
0010
0100
0001
0100
1000
0000
,
1001
0010
0100
1000
0001
1000
0001
0000
,
1001
0100
0001
1000
0010
1000
0001
0000
,
1001
0010
1000
0001
0100
0001
1000
0000
,
0110
0100
0100
0100
0001
1000
0001
0000
,
0110
0010
0010
0010
0100
0001
1000
0000
,
1001
0001
1000
1000
0001
1000
0001
0000
,
0010
0000
1001
0000
0000
0000
0010
1000
0001
0000
0000
0000
2000
0000
0000
0000
,
0000
3020
0000
0230
,
0301
0000
0001
0001
0001
0000
2000
0000
,
0001
3020
0100
0230
,
0001
0000
0302
0000
0000
0003
2001
0000
,
0001
0000
0000
0000
0100
0000
0000
0000
3001
0000
0000
0000
0001
0100
0000
0100
,
0010
0000
0010
1000
0000
1000
0001
0000
1000
0000
0001
0000
1000
0001
0000
0001
,
0100
0000
0100
0010
0000
0010
1000
0000
0001
0000
1000
0000
0010
1000
0000
1000
,
0001
0000
0001
0100
0000
0100
0010
0000
1000
0000
0001
0000
0100
0001
0000
0001
,
1000
0000
1000
0010
0000
0010
0100
0000
0001
0000
1000
0000
0001
0100
0000
0001
,
0100
0000
0001
0100
0000
0010
1000
0000
0001
0000
1000
0000
0010
1000
0000
0010
,
1000
0000
0010
1000
0000
0001
0100
0000
0001
0000
1000
0000
0010
0100
0000
0010
,
0100
0000
0010
0100
0000
0001
1000
0000
0010
0000
1000
0000
0001
1000
0001
1000
,
0001
0000
0100
0010
0100
0010
1000
0001
1000
0001
0000
0000
1000
0100
0000
0010
,
0001
0000
1000
0001
0000
0100
0010
0000
1000
0000
0001
0000
0010
0001
0000
1000
,
0100
0000
1000
0001
0000
0100
0001
0000
1000
0000
0001
0000
0100
0010
0000
0001
,
0100
0000
0010
1000
0000
0010
0100
0000
0001
0000
1000
0000
0010
1000
0000
0010
,
1000
0000
0010
1000
0000
0010
1000
0000
0001
0000
0100
0000
0001
0010
0000
0010
,
0100
0000
0100
1000
0000
1000
0001
0000
0010
0000
0100
0000
1000
0100
0000
0100
,
0010
0000
0010
0001
0000
0001
1000
0000
0001
0000
1000
0000
0001
0100
0000
0001
,
0100
0000
0001
0100
0000
0010
1000
0000
0001
0000
1000
0000
0001
1000
0001
1000
,
0001
0000
0100
0010
0100
0010
1000
0001
0100
0010
0000
0000
0000
0000
0000
0000
;

//---------------dance-single - ----------------
#NOTES:
     dance-single:
     :
     Medium:
     7:
     0.484,0.424,0.205,0.280,0.196: // measure 1
1000
0000
0000
1000
0000
0000
1000
0000
0000
0001
0000
0000
0011
0000
0000
0000
,  // measure 2
0001
0000
0000
0001
0000
0000
0001
0000
0000
1000
0000
0000
1001
0000
0000
0000
,  // measure 3
0100
0000
0000
0100
0000
0000
0100
0000
0000
0010
0000
0000
0110
0000
0000
0000
,  // measure 4
1000
0000
0000
1000
0000
0000
1000
0000
0000
0001
0000
0000
1001
0000
0000
0000
,  // measure 5
0001
0000
0000
0001
0000
0000
0001
0000
0000
1000
0000
0000
1100
0000
0000
0000
,  // measure 6
1000
0000
0000
1000
0000
0000
1000
0000
0000
0001
0000
0000
1001
0000
0000
0000
,  // measure 7
0010
0000
0000
0010
0000
0000
0010
0000
0000
0100
0000
0000
0110
0000
0000
0000
,  // measure 8
0001
1000
0010
0000
1000
0001
1000
0010
,  // measure 9
1000
0000
0001
1000
0001
0000
1000
0000
,  // measure 10
0010
0000
0010
0000
0100
0010
0100
0000
,  // measure 11
0200
0001
0001
0301
,  // measure 12
0020
1000
1000
1030
,  // measure 13
0001
0000
1000
0010
1000
0000
1001
0000
,  // measure 14
0010
1000
0001
0000
0100
0010
1000
0000
,  // measure 15
0002
1000
1000
1003
,  // measure 16
1000
0010
0100
0001
1000
0010
0100
0001
,  // measure 17
1000
0000
0001
1000
0010
0000
1010
0000
,  // measure 18
0010
0100
0010
0000
0100
0001
0100
0000
,  // measure 19
0020
1000
1000
1030
,  // measure 20
0200
0001
0001
0301
,  // measure 21
0010
0000
1000
0001
1000
0000
1001
0000
,  // measure 22
0001
1000
0001
0000
1000
0010
1000
0000
,  // measure 23
0002
0000
0203
0000
0310
0000
1000
0001
,  // measure 24
0000
0000
0000
0000
1000
0001
1000
0001
,  // measure 25
2000
0000
3010
0000
0100
0001
1000
0010
,  // measure 26
0100
0000
0001
0000
1000
0010
1000
0010
,  // measure 27
0200
0301
0020
1030
,  // measure 28
0002
0000
0103
0000
0010
1000
0001
0100
,  // measure 29
0020
0000
0130
0000
0100
0010
0100
0010
,  // measure 30
0100
0000
1001
0000
0001
1000
0001
1000
,  // measure 31
0020
0130
0002
1003
,  // measure 32
0020
0000
1030
0000
0001
0100
0010
1000
,  // measure 33
0002
0000
1003
0000
0010
0100
0001
0000
,  // measure 34
1001
0000
0010
1000
0001
0100
0010
0000
,  // measure 35
1000
0001
1000
0000
0010
0100
0010
0000
,  // measure 36
1001
0000
0001
0000
1000
0100
1000
0100
,  // measure 37
2000
0000
3010
0000
0100
0001
0100
0010
,  // measure 38
1000
0000
0001
0000
0100
0010
1000
0000
,  // measure 39
0001
1000
0010
0000
0100
0001
1000
0000
,  // measure 40
2001
0000
3001
2000
,  // measure 41
0000
3020
0000
0230
,  // measure 42
0000
0302
0000
2003
,  // measure 43
3000
2000
3000
0002
,  // measure 44
0003
0002
0003
2000
,  // measure 45
3020
0000
0000
0000
0230
0000
0000
0000
0302
0000
0000
0000
1003
0000
0000
1000
,  // measure 46
0000
0000
1000
0000
0000
0100
0000
0000
1001
0000
0000
0000
0100
0000
0000
0100
,  // measure 47
0000
0000
0100
0000
0000
0010
0000
0000
0110
0000
0000
0000
1000
0000
0000
1000
,  // measure 48
0000
0000
1000
0000
0000
0001
0000
0000
1001
0000
0000
0000
0010
0000
0000
0010
,  // measure 49
0000
0000
0010
0000
0000
0100
0000
0000
0110
0000
0000
0000
0100
0000
0000
0100
,  // measure 50
0000
0000
0100
0000
0000
0010
0000
0000
1010
0000
0000
0000
0010
0000
0000
0010
,  // measure 51
0000
0000
0010
0000
0000
0100
0000
0000
0110
0000
0000
0000
0001
0000
0000
0001
,  // measure 52
0000
0000
0001
0000
0000
1000
0000
0000
1001
0000
0000
0000
0010
0000
1000
0000
,  // measure 53
0001
0000
0000
0000
0100
0000
0001
0000
1000
0000
0001
0000
0100
0000
0000
0001
,  // measure 54
0000
0000
1000
0000
0000
0001
0000
0000
0001
0000
1000
0000
1000
0000
0000
0001
,  // measure 55
0000
0000
1000
0000
0000
0010
0000
0000
0010
0000
0100
0000
0100
0000
0000
0010
,  // measure 56
0000
0000
0100
0000
0000
0001
0000
0000
0001
0000
1000
0000
1000
0000
0000
0001
,  // measure 57
0000
0000
1000
0000
0000
0010
0000
0000
0010
0000
1000
0000
0001
0000
0000
1000
,  // measure 58
0000
0000
0001
0000
0000
1000
0000
0000
1000
0000
0001
0000
0001
0000
0000
1000
,  // measure 59
0000
0000
0001
0000
0000
0100
0000
0000
0100
0000
0010
0000
0010
0000
0000
0100
,  // measure 60
0000
0000
0010
0000
0000
1000
0000
0000
1000
0000
0001
0000
0001
0000
1000
0000
,  // measure 61
1001
0000
0100
0010
0100
0010
0000
0000
;

//---------------dance-single - ----------------
#NOTES:
     dance-single:
     :
     Easy:
     4:
     0.325,0.311,0.215,0.177,0.000: // measure 1
1000
0001
1000
0010
,  // measure 2
1000
0001
1000
0100
,  // measure 3
1000
0001
0100
0010
,  // measure 4
1000
0001
1000
1000
,  // measure 5
0001
0010
0100
1001
,  // measure 6
0010
0100
0010
1001
,  // measure 7
0001
0010
0100
1001
,  // measure 8
0002
0000
1000
1003
,  // measure 9
1000
0000
0001
0000
,  // measure 10
1000
0001
0100
0010
,  // measure 11
2020
3030
0000
0000
,  // measure 12
0202
0000
0303
0000
,  // measure 13
0001
0000
1000
0000
,  // measure 14
0001
1000
0010
0100
,  // measure 15
1010
0000
0101
0000
,  // measure 16
0001
0001
1000
1000
,  // measure 17
0001
0000
1000
0000
,  // measure 18
0001
1000
0010
0100
,  // measure 19
2010
0001
3000
0000
,  // measure 20
0102
1000
0003
0000
,  // measure 21
1000
0000
0001
0000
,  // measure 22
1000
0010
0100
0001
,  // measure 23
1000
0010
0100
0010
,  // measure 24
2001
0000
0001
3001
,  // measure 25
0002
1000
0000
1003
,  // measure 26
1000
0001
0001
1000
,  // measure 27
0010
0100
0001
1000
,  // measure 28
1001
0010
0100
0001
,  // measure 29
2000
0010
0000
3010
,  // measure 30
0100
0001
1000
1000
,  // measure 31
0001
1000
0001
1000
,  // measure 32
0010
0000
0010
0010
,  // measure 33
2000
0001
0000
3001
,  // measure 34
0001
1000
1000
0001
,  // measure 35
0100
0010
1000
0001
,  // measure 36
1001
0100
0010
1000
,  // measure 37
0002
0100
0000
0103
,  // measure 38
0010
1000
0001
0001
,  // measure 39
1000
0001
1000
0001
,  // measure 40
0100
0000
1001
0001
,  // measure 41
0000
1000
0000
0002
,  // measure 42
0000
0000
0003
2000
,  // measure 43
0000
3020
0000
0230
,  // measure 44
0000
0320
0000
2030
,  // measure 45
0000
0000
3000
0001
,  // measure 46
1000
0001
0100
0001
,  // measure 47
1000
0001
0010
0001
,  // measure 48
1000
0010
0100
0001
,  // measure 49
1000
0001
0001
1000
,  // measure 50
0100
0010
1001
0100
,  // measure 51
0010
0100
1001
1000
,  // measure 52
0100
0010
1001
2000
,  // measure 53
0000
0001
3001
0001
,  // measure 54
1000
0010
1001
0010
,  // measure 55
1000
0100
0011
0001
,  // measure 56
0010
0100
1100
0001
,  // measure 57
1000
0010
1001
0001
,  // measure 58
1000
0001
0001
1000
,  // measure 59
0001
1000
1000
0001
,  // measure 60
1000
0010
0100
1001
,  // measure 61
0100
1001
1001
0000
;
